#TITLE:Waiting On Your Call;
#SUBTITLE:;
#ARTIST:Anevo (feat. Park Avenue);
#TITLETRANSLIT:;
#SUBTITLETRANSLIT:;
#ARTISTTRANSLIT:;
#GENRE:Electronic;
#CREDIT:jenro;
#MUSIC:Waiting On Your Call [jenro].ogg;
#BANNER:Waiting On Your Call [jenro]-bn.png;
#BACKGROUND:Waiting On Your Call [jenro]-bg.png;
#CDTITLE:jenrosarrowsbeta-cdtitle.png;
#SAMPLESTART:80.385;
#SAMPLELENGTH:11.429;
#SELECTABLE:YES;
#OFFSET:-0.023;
#BPMS:0.000=167.989;
#STOPS:;
#DISPLAYBPM:168.000;
#BGCHANGES:;
#FGCHANGES:;

//--------------- dance-single - jenro-2019 ----------------
#NOTES:
     dance-single:
     jenro-2019:
     Beginner:
     4:
     0.087852,0.127334,0.021705,0.007235,0,85,82,3,1,0,0,0.087852,0.127334,0.021705,0.007235,0,85,82,3,1,0,0:
0000
0000
0000
0000
,
0000
0000
0000
0000
,
0000
0000
0000
0000
,
0000
0000
0000
0000
,
0000
0000
0001
0000
,
0000
0000
1000
0000
,
0000
0000
0001
0000
,
0000
0000
1000
0000
,
0000
0000
1001
0000
,
0000
0000
0010
0000
,
0100
0000
0100
0000
,
0100
0000
0100
0000
,
1000
0000
0001
0000
,
0100
0000
0100
0000
,
0010
0000
1000
0000
,
0001
0000
0100
0000
,
0001
0000
0001
0000
,
0001
0000
1000
0000
,
0100
0000
0100
0000
,
0100
0000
1000
0000
,
0010
0000
0200
0000
,
0010
0000
0010
0000
,
0310
0000
0010
0000
,
0010
0000
0000
0000
,
1001
0000
0001
0000
,
1000
0000
0001
0000
,
1000
0000
0010
0000
,
1000
0000
0001
0000
,
0100
0000
0001
0000
,
0010
0000
0100
0000
,
1000
0000
0001
0000
,
1000
0000
0010
0000
,
0100
0000
0100
0000
,
0001
0000
1000
0000
,
0010
0000
0010
0000
,
0001
0000
0100
0000
,
1000
0000
1000
0000
,
0010
0000
0100
0000
,
1001
0000
0000
0000
,
0010
0000
0000
0000
,
1000
0000
1000
0000
,
0001
0000
0100
0000
,
0001
0000
0001
0000
,
1000
0000
0100
0000
,
1000
0000
1000
0000
,
0010
0000
0010
0000
,
0100
0000
0100
0000
,
0001
0000
1001
0000
,
0001
0000
0001
0000
,
1000
0000
0100
0000
,
1000
0000
1000
0000
,
0001
0000
0100
0000
,
0001
0000
0001
0000
,
0010
0000
0010
0000
,
0100
0000
0100
0000
,
0010
0000
1001
0000
,
1000
0000
0001
0000
,
1000
0000
1100
0000
,
0001
0000
1000
0000
,
0001
0000
0011
0000
,
1000
0000
1000
0000
,
0001
0000
0001
0000
,
1000
0000
0001
0000
,
0010
0000
1001
0000
,
1000
0000
0001
0000
,
1000
0000
1010
0000
,
0001
0000
0010
0000
,
0001
0000
0011
0000
,
0100
0100
0100
0000
,
0100
0100
0100
0000
,
0001
0000
1000
0000
,
0001
0000
0010
0000
,
1001
0000
0100
0000
,
0001
0000
0100
0000
,
0010
0000
0100
0000
,
1000
0000
0100
0000
,
0010
0000
0010
0000
,
1001
0000
1001
0000
,
0100
0000
0100
0000
,
1000
0000
1000
0000
,
0001
0000
0001
0000
,
1000
1000
1000
0000
,
1000
0000
1000
0000
,
0001
0001
0001
0000
,
0100
0100
0100
0000
,
0100
0100
0100
0000
,
0010
0000
0010
0000
,
1000
0000
0001
0000
,
0100
0000
0000
0000
;

//--------------- dance-single - jenro-2019 ----------------
#NOTES:
     dance-single:
     jenro-2019:
     Easy:
     6:
     0,0,0,0,0:
0000
0000
0000
0000
,
0000
0000
0000
0000
,
0000
0000
0000
0000
,
0000
0000
0000
0000
,
0000
0000
0001
0000
,
0000
0000
1000
0000
,
0000
0000
0001
0000
,
0000
0000
1000
0000
,
0000
0000
1001
0000
,
0010
0000
0010
0000
,
0100
0000
0100
0000
,
0100
0000
0100
0000
,
1000
0000
0001
0000
,
0100
0000
0100
0000
,
0010
0000
1000
0000
,
0001
0000
0100
0000
,
0001
0000
0001
0000
,
0001
0000
1000
0000
,
0100
0000
0100
0000
,
0100
0000
1000
0000
,
0010
0000
0200
0000
,
0010
0000
0010
0000
,
0310
0000
0010
0000
,
0010
0000
0000
0000
,
0110
0000
1001
0000
,
1000
0000
0001
0000
,
1000
0000
1000
0000
,
1000
0000
0001
0000
,
0101
0000
0001
0000
,
0010
0000
0100
0000
,
1100
0000
0001
0000
,
1000
0000
0010
0000
,
1001
0000
0100
0000
,
0100
0000
0100
0000
,
2000
0000
3002
0000
,
2003
0000
3002
0000
,
1003
1000
1000
0000
,
0010
0000
0100
0000
,
1001
0000
0000
0000
,
0010
0000
0000
0000
,
1000
1000
1000
0000
,
0001
0000
0100
0000
,
0001
0001
0001
0000
,
1000
0000
0100
0000
,
1000
1000
1000
0000
,
0010
0010
0010
0000
,
0100
0001
0100
0010
,
1000
0001
0100
0000
,
0001
0001
0001
0000
,
1000
0000
0100
0000
,
1000
1000
1000
0000
,
0001
0000
0100
0000
,
0001
0001
0001
0001
,
0010
0010
0010
0010
,
0100
1000
0100
0010
,
0001
1000
0100
0000
,
1001
1000
0001
1000
,
0100
0100
0100
0000
,
1001
0001
1000
0001
,
0010
0010
0010
0000
,
0100
1000
0100
0000
,
0100
1000
0100
0000
,
0010
0001
0100
0000
,
0010
0000
1001
0000
,
1001
1000
0001
1000
,
0100
0100
0100
0000
,
1001
0001
1000
0001
,
0010
0010
0010
0000
,
0100
1000
0100
0000
,
0100
1000
0100
0000
,
0010
0001
0100
0000
,
0010
0000
1001
0000
,
1000
0010
0100
0001
,
1000
0001
0001
0010
,
0001
0100
0010
1000
,
0001
1000
1000
0010
,
0110
0000
0110
0000
,
1001
0000
1001
0000
,
0110
0000
0110
0000
,
1000
1000
1000
0000
,
0001
0100
0001
1000
,
0100
1000
1001
0000
,
1000
0010
1000
0001
,
0010
0001
1001
0000
,
0100
0100
0100
0000
,
0110
0000
0110
0000
,
0010
0000
0010
0000
,
0001
1000
0001
0000
,
0100
0000
0000
0000
;

//--------------- dance-single - jenro-2019 ----------------
#NOTES:
     dance-single:
     jenro-2019:
     Medium:
     8:
     0.269758,0.318335,0.050644,0.101289,0,261,254,7,14,0,0,0.269758,0.318335,0.050644,0.101289,0,261,254,7,14,0,0:
0000
0000
0000
0000
,
0000
0000
0000
0000
,
0000
0000
0000
0000
,
0000
0000
0000
0000
,
0000
0000
0001
0000
,
0000
0000
0001
0000
,
0000
0000
0001
0000
,
0000
0000
0001
1000
,
0100
0100
0100
0000
,
0010
0000
1001
0000
,
1000
0001
0100
0000
,
0010
0000
1001
0000
,
0001
0001
0002
0000
,
1003
0000
0010
1000
,
0001
0100
0010
1000
,
0001
0100
1001
1000
,
0100
0100
0100
0000
,
0010
0000
1001
0000
,
1000
0001
0100
0000
,
1000
0000
1001
0000
,
0001
0010
0020
0030
,
0200
0300
0020
0031
,
0100
0001
1000
0001
,
0100
1000
0010
0000
,
0110
0000
0001
0000
,
1000
1000
0000
0000
,
1100
0000
1100
0000
,
1100
0000
0001
0010
,
0001
0000
0100
0000
,
0001
1000
0010
0000
,
0101
0000
0100
0000
,
0001
0100
2000
0000
,
3001
0000
1000
0001
,
0100
1000
0001
0000
,
0101
0000
0101
0000
,
1001
0000
1001
0000
,
0110
0110
0110
0000
,
0000
0000
1000
0000
,
1001
0000
0000
0000
0000
0000
0000
1000
,
0000
1000
0000
1000
0000
1000
0000
0000
,
1000
0100
0010
0001
,
1000
0001
0100
0000
,
0001
0100
0010
1000
,
0001
1000
0100
0000
,
1000
1000
0010
0100
,
0001
0001
0100
0010
,
1000
0001
1000
0010
,
0001
0100
0100
0000
,
1000
0100
0010
0001
,
1000
0001
0100
0000
,
0001
0100
0010
1000
,
0001
1000
0100
0000
,
1000
1000
0010
0100
,
0001
0001
0100
0010
,
1000
0001
1000
0010
,
0001
0100
0100
0100
,
0000
1000
0100
1000
,
0100
1000
1010
0000
,
0000
0001
0100
0001
,
0100
0001
0011
0000
,
1000
0001
0101
0000
,
0001
1000
1100
0000
,
1000
0001
0100
1000
,
0001
0010
0011
0000
,
0000
1000
0100
1000
,
0001
1010
1010
0000
,
0000
0001
0100
0001
,
1000
0011
0011
0000
,
0001
1000
1100
0010
,
0100
0100
1001
1000
,
0100
0001
0101
0101
,
1000
0001
0100
0010
,
1001
1000
1100
1000
,
0001
1000
1100
0010
,
0001
0100
0101
0001
,
1001
1000
0100
0000
,
1000
0010
0110
0000
,
0001
0010
0110
0000
,
0100
1000
0001
0100
,
1000
0010
1001
0000
,
1010
0000
0000
1010
0000
0000
1010
0000
,
0001
0100
0110
0000
,
0011
0000
0000
0011
0000
0000
0011
0000
,
1000
0100
0110
0000
,
1000
0001
1000
0001
,
1001
0001
1001
0001
,
0100
0010
1000
0001
,
1000
1000
1000
0000
,
0001
0000
0000
0000
;

//--------------- dance-single - jenro-2019 ----------------
#NOTES:
     dance-single:
     jenro-2019:
     Hard:
     13:
     0.488872,0.54117,0.224282,0.094054,0.018087,473,442,31,13,0,0,0.488872,0.54117,0.224282,0.094054,0.018087,473,442,31,13,0,0:
0000
0000
0000
0000
,
0000
0000
0000
0000
,
0000
0000
0000
0000
,
0000
0000
0000
0000
,
0000
0000
0001
0000
,
0000
0000
0001
0000
,
0000
0000
0001
0000
,
0000
0000
0000
0000
1000
0100
1000
0001
,
1000
0000
0001
1000
0100
0000
1000
0000
,
0100
1000
0200
0000
1300
0000
1000
0001
,
0100
0000
0100
0010
0000
0000
0010
0000
,
0100
0001
2000
0000
3001
0000
0000
0000
,
0001
0100
0001
1000
0001
0000
1000
0001
,
0100
0000
0001
0000
0100
0001
0200
0000
,
0301
0000
0001
1000
0100
0000
0100
0000
,
0000
0010
0100
0000
0100
1000
0001
0000
,
1100
0000
1000
0001
1000
0000
0001
0000
,
1000
0001
0010
0000
0001
0100
0001
0000
,
1000
0000
0000
0001
0000
0000
0001
0000
,
0000
0100
0200
0000
0301
0000
0000
0000
,
1000
0000
0100
0000
0010
0000
0002
0000
0000
1000
0000
0000
,
1000
0100
0100
1000
,
0010
0100
1000
0010
,
0103
0010
0110
0000
,
1001
0000
0100
0001
0100
0000
0020
0000
,
0000
0000
1030
0000
1100
0000
1000
0001
,
2000
0000
0000
3010
2000
0000
0000
3001
,
0200
0000
0000
0301
1000
0001
1000
0001
,
0100
0000
0000
0001
0010
0000
0011
0000
,
0000
0000
1000
0000
0001
0100
0001
0100
,
0000
0000
0000
1000
0100
0000
0001
0100
,
0000
0000
0010
1000
0200
0000
0300
0000
,
1100
0000
0000
0110
0000
0000
0011
0000
,
0000
0020
0130
0000
,
0202
0303
2200
3300
,
2020
3030
0202
0303
,
0010
0001
1000
0010
0200
0000
0000
0000
,
0300
0000
0020
0130
,
2002
0000
0000
3003
0000
0000
0000
0011
,
0000
0110
0000
1100
0000
1001
0000
0000
,
1000
0100
1000
0001
1000
0001
0010
0100
,
0010
0001
0100
0001
0100
0000
0000
0000
,
0001
0100
0001
1000
0001
0100
0001
0010
,
0100
0010
0001
1000
0100
0000
0000
0000
,
1000
0100
1000
0001
1000
0100
0010
0100
,
1000
0010
0100
0001
0100
0000
0001
0010
,
0001
0100
0001
0100
0001
1000
0001
0100
,
0010
1000
0001
1000
0001
0000
1100
0000
,
1000
0100
1000
0001
1000
0001
0010
0100
,
0010
0001
0100
0001
0200
0000
0300
0000
,
0001
0100
0001
1000
0001
0100
0001
0010
,
0100
0010
0001
1000
0200
0000
0300
0000
,
1000
0100
1000
0001
1000
0001
0010
0100
,
0010
0001
0100
0001
0100
0000
0001
1000
,
0001
0100
0001
1000
0001
0100
0001
0010
,
0100
0010
0001
1000
0100
0000
0002
0000
,
0003
0000
1000
0001
1000
0001
1000
0010
,
0100
0002
1003
0000
,
2000
0000
3001
1000
0001
1000
0001
0010
,
0100
1000
0100
0000
0110
0000
1000
0010
,
1000
0100
0010
0000
0001
0000
0001
0010
,
0001
0100
0010
0000
1000
0000
1000
0001
,
1000
0001
0010
0000
0001
0000
1000
0000
,
0100
0000
0000
0010
0000
0000
0010
0000
0100
0000
0000
0000
0000
0000
0000
0000
,
0000
0000
1000
0100
1000
0001
0100
0001
,
1000
0002
1003
0000
,
2000
0000
3001
0100
0001
1000
0001
1000
,
0001
0001
2000
0000
3001
0000
0000
0000
,
0001
1000
0001
0000
1001
0000
0001
0010
,
0100
0010
0100
1000
0001
0000
1000
0010
,
0100
0001
1000
0000
0001
0000
0001
0000
,
0001
0000
0000
0010
0000
0000
0100
0000
1000
0000
0000
0000
0101
0000
0000
0000
,
0110
0000
1000
0001
1000
0001
0100
0001
,
0100
0010
2000
0000
3100
0000
1100
0000
,
0101
0000
0001
0100
0001
1000
0100
1000
,
0100
0010
0002
0000
0103
0000
0001
0100
,
0010
1000
0001
0000
1001
0000
1000
0010
,
0100
0001
1000
0000
1001
0000
0100
0010
,
1000
0001
0100
0000
1001
0000
0110
0000
,
0001
0000
0000
0010
0000
0000
0100
0000
1000
0000
0000
0000
0000
0000
0000
0000
,
0000
0000
1000
0100
1000
0001
0100
0001
,
1000
0010
0100
0000
0011
0000
0000
0000
,
0100
0100
0001
0010
0001
0001
1000
0010
,
0100
0100
0001
0000
1001
0000
0001
0100
,
0010
0100
0001
0000
1001
0000
1000
0010
,
0100
0100
0010
1000
0100
0100
1000
0001
,
0100
0010
1000
0000
0001
0000
1000
0000
,
0001
0000
0000
0010
0000
0000
0100
0000
1000
0000
0000
0000
0010
0000
0000
0000
,
0200
0000
0000
0000
,
0300
0000
0000
0000
;
