#TITLE:Undertow;
#SUBTITLE:;
#ARTIST:Diplomacy;
#TITLETRANSLIT:;
#SUBTITLETRANSLIT:;
#ARTISTTRANSLIT:;
#GENRE:;
#CREDIT:Jenro;
#MUSIC:Undertow [jenro].ogg;
#BANNER:Undertow [jenro]-bn.png;
#BACKGROUND:Undertow [jenro]-bg.png;
#CDTITLE:cdtitle.png;
#SAMPLESTART:87.281;
#SAMPLELENGTH:15.500;
#SELECTABLE:YES;
#OFFSET:-0.531;
#BPMS:0.000=120.000;
#STOPS:;
#BGCHANGES:-0.403=Undertow [jenro].mp4=1.000=0=0=0=StretchNoLoop====,
99999.000=-nosongbg-=1.000=0=0=0=StretchNoLoop====
;
#FGCHANGES:;

//--------------- dance-single - jenro-2024 ----------------
#NOTES:
     dance-single:
     jenro-2024:
     Beginner:
     1:
     0,0,0,0,0:
0000
0000
0000
0000
,
0000
0000
0000
0000
,
0000
0000
0000
0000
,
0000
0000
0000
0000
,
0000
0000
0000
0000
,
0000
0000
0000
0000
,
0010
0000
0000
0000
,
1000
0000
0000
0000
,
0010
0000
0000
0000
,
0010
0000
0000
0000
,
0010
0000
0000
0000
,
0001
0000
0000
0000
,
1000
0000
0000
0000
,
0001
0000
0000
0000
,
1000
0000
0000
0000
,
0001
0000
0000
0000
,
1000
0000
0000
0000
,
0100
0000
0000
0000
,
0010
0000
0000
0000
,
0000
0000
0001
0000
,
0000
0000
1000
0000
,
0000
0000
0100
0000
,
0000
0000
0010
0000
,
0000
0000
1000
0000
,
0000
0000
0001
0000
,
0000
0000
0100
0000
,
0000
0000
0100
0000
,
0000
0000
1000
0000
,
0000
0000
0001
0000
,
0000
0000
0010
0000
,
0000
0000
0100
0000
,
0000
0000
0001
0000
,
0000
0000
1000
0000
,
0000
0000
0010
0000
,
0000
0000
0010
0000
,
0000
0000
0100
0000
,
0000
0000
0100
0000
,
0000
0000
0100
0000
,
0000
0000
1000
0000
,
0000
0000
0100
0000
,
0000
0000
0100
0000
,
0000
0000
0100
0000
,
0000
0000
0001
0000
,
0000
0000
0100
0000
,
0001
0000
0100
0000
,
0001
0000
0010
0000
,
0000
0000
0010
0000
,
0000
0000
0100
0000
,
1000
0000
0100
0000
,
1000
0000
0010
0000
,
0000
0000
0010
0000
,
0000
0000
0100
0000
,
0000
0000
0001
0000
,
0000
0000
1000
0000
,
0001
0000
1000
0000
,
0001
0000
0010
0000
,
0000
0000
0100
0000
,
0000
0000
0001
0000
,
0000
0000
1001
0000
;

//--------------- dance-single - jenro-2024 ----------------
#NOTES:
     dance-single:
     jenro-2024:
     Easy:
     4:
     0,0,0,0,0:
0000
0000
0000
0000
,
0000
0000
0000
0000
,
0000
0000
0000
0000
,
0000
0000
0000
0000
,
0000
0000
0000
0000
,
0000
0000
0000
0000
,
0100
0000
0001
0000
,
0100
0000
1000
1000
,
1000
0000
1000
0000
,
1000
0000
0001
0000
,
0100
0000
1000
0000
,
0100
0000
0001
0000
,
0010
0000
0100
0000
,
1000
0000
0001
0010
,
1000
0100
1000
0010
,
0001
1000
0001
0000
,
1000
0000
1000
0000
,
0001
0000
0100
0000
,
0000
0000
0100
0000
,
0110
0000
0001
0000
,
1000
0000
0010
1000
,
0001
0100
0010
0000
,
0001
0000
0001
0001
,
0001
0000
0100
0000
,
1000
0000
0010
1000
,
0100
0000
0001
1000
,
0100
0000
0010
0001
,
0100
0000
0001
1000
,
0100
0000
0010
0001
,
1000
0000
0001
0001
,
0100
0000
1000
1000
,
0100
0000
0010
0001
,
1000
0000
0001
0001
,
1000
0000
0100
1000
,
0100
0000
0010
1000
,
0001
0000
0001
0010
,
0100
0000
0001
1000
,
0100
0000
0001
0100
,
0010
0000
1000
0001
,
0010
0000
0001
1000
,
0100
0000
0010
0010
,
0010
0000
0010
0100
,
0001
1000
0100
0100
,
0110
0000
0100
0010
,
0001
0001
0001
0001
,
1000
0100
1000
0001
,
0001
0100
0010
1000
,
0001
0000
1000
1000
,
0100
0010
0001
0100
,
1000
1000
1000
0010
,
1000
0100
1000
0001
,
0100
0010
1000
0001
,
1000
0100
1000
0100
,
1000
0100
1000
0001
,
1000
0100
1000
0001
,
1000
0100
1000
0001
,
0100
1000
0100
0001
,
0100
1000
0100
0001
,
0001
0001
0001
0001
,
0011
0100
0000
0000
;

//--------------- dance-single - jenro-2024 ----------------
#NOTES:
     dance-single:
     jenro-2024:
     Medium:
     7:
     0,0,0,0,0:
0000
0000
0000
0000
,
0000
0000
0000
0000
,
0000
0000
0000
0000
,
0000
0000
0000
0000
,
0000
0000
0000
0000
,
0000
0000
0000
0000
,
0010
0000
0100
0000
,
1000
0001
1000
0000
,
0100
0000
0010
0001
,
0100
0010
1000
0000
,
0100
0000
0001
0000
,
0100
1000
0010
0100
,
0001
0000
0010
0100
,
1000
0000
0002
0000
,
0103
0000
0020
0000
,
1030
0000
0000
0000
,
0001
0000
0000
0000
,
1000
0000
0000
0000
,
0001
0000
0000
0000
,
0010
0110
0100
1000
,
1000
0010
1000
0000
0001
0000
0100
0000
,
0001
0100
0001
0000
1000
0000
0010
0000
,
0001
0001
0001
0000
1000
0000
0100
0000
,
0010
0010
0010
0000
0001
0000
1000
0000
,
0010
1000
0100
0000
0001
0000
0100
0000
,
1000
0010
0100
0000
0001
0000
0101
0000
,
0001
0010
0001
0000
1000
0000
0100
0000
,
2100
3001
1001
0100
,
0001
1000
0100
0000
0010
0000
1000
0000
,
0001
1000
0100
0000
0010
0001
0010
0000
,
0010
0001
0100
0000
0010
1000
0010
0000
,
0010
1000
0100
0000
0020
0000
0031
0000
,
0100
0001
1000
0000
0020
0000
1030
0000
,
0100
1000
0001
0000
0002
0000
0103
0000
,
0020
1030
1100
0101
,
2002
3003
0001
1000
,
0010
0100
1000
0001
,
0010
0100
0001
1000
,
0100
0010
1000
0001
,
0100
0010
0002
0010
,
0100
0000
1003
0000
0010
0100
0001
0000
,
1000
0001
0100
0000
2000
0000
0010
0000
,
0100
3001
0100
0100
,
0010
0000
1001
0000
0010
1000
0010
1000
,
0001
1000
0100
0000
0010
0001
0010
0001
,
1000
0001
0100
0000
0010
0100
0001
0000
,
0010
0010
0010
0000
0010
0100
1000
0000
,
0100
0100
0100
0000
0001
1000
0001
1001
,
1000
0010
0100
0000
0101
0000
1010
0000
,
1000
0100
0001
0000
2000
0000
3100
0000
,
0002
0000
0103
0000
0001
1000
0001
1000
,
2002
3003
0120
1030
,
1000
0001
0100
0000
0210
0000
0301
0000
,
0001
1000
0100
0000
1000
0010
1000
0001
,
0100
0001
0010
0001
1000
0100
2000
0000
,
3100
0001
0100
1000
0200
0000
1300
0000
,
2000
3100
0002
0013
,
0002
0103
2000
0000
,
3001
0000
1000
1000
,
0100
0100
0000
0000
;

//--------------- dance-single - jenro-2024 ----------------
#NOTES:
     dance-single:
     jenro-2024:
     Hard:
     13:
     0,0,0,0,0:
0000
0000
0000
0000
,
0000
0000
0000
0000
,
0000
0000
0000
0000
,
0000
0000
0000
0000
,
0000
0000
0000
0000
,
0000
0000
0000
0000
,
0001
0000
0000
0000
,
0100
0000
0000
0000
0000
0000
0000
0000
0010
0000
0000
0001
0000
0000
0100
0000
,
0000
0000
1000
0001
0001
0100
0100
0001
,
0010
0000
0100
1000
0001
0000
0100
0000
,
0001
0000
0100
0001
,
0100
0000
0000
0000
0001
0000
0010
0100
1000
0000
0001
0000
1000
0000
0000
0000
,
0010
0000
0000
0000
1000
0000
0010
0100
0001
0000
1000
0000
0000
0001
0000
0000
,
0100
0000
0000
0001
0001
1000
0010
0100
,
0001
1000
0010
0010
0100
0001
0100
0000
,
0010
1000
0000
0010
0000
0000
0100
0000
0001
0000
0000
0000
0010
0000
0000
0000
,
0010
0000
0000
0000
0001
0000
0010
0000
0001
1000
0100
0000
1000
0000
0000
0000
,
0010
0000
0010
0100
0001
0000
1000
0001
,
1001
0000
0100
0000
0001
0000
1000
0001
,
0101
0000
0000
0000
1000
0100
0000
0000
0010
0000
0001
0000
0100
0000
0000
0010
,
1000
1000
0001
1000
0010
1000
0100
1000
,
0001
0000
1000
0000
0100
0010
0100
0000
0010
0000
0001
0000
0001
0000
0010
0001
,
0010
0000
0001
0000
1000
0100
1000
0000
0001
0010
0001
0000
0010
0000
0001
1000
,
0001
0000
0001
0000
0100
0010
0100
0000
0010
0000
1000
0000
0001
0000
0000
1000
,
0100
1000
0010
0100
0001
0001
0010
0010
,
0100
0000
1000
0001
0100
0010
1000
0000
0010
0100
0010
0000
0100
0000
0001
0000
,
0010
0100
0010
0000
0100
0010
0100
0000
1000
0001
1000
0000
0001
1000
0001
0000
,
1001
0000
0000
0000
0100
0100
0000
0000
0110
0000
1000
0000
0001
0000
0000
1000
,
0100
0000
0010
0000
0100
0000
1000
0000
1000
0100
0010
0001
0010
0000
0001
0000
,
1000
0100
1000
0000
0001
0010
0001
0000
0001
0000
0100
0000
0101
0000
0010
1000
,
0010
0000
1000
0000
1000
0100
1000
0000
0100
1000
0001
0000
0100
0000
0001
1000
,
0001
0000
0100
0000
0001
1000
0001
0000
1010
0000
1000
0010
1000
0000
0000
0010
,
0100
0001
0100
1000
0100
0001
1000
1000
,
0001
0000
0001
0000
0010
0000
0001
0000
1000
0100
1000
0000
1010
0000
0100
0010
,
0100
0000
0110
0000
0100
0001
0100
0000
0011
0000
0001
0000
1001
0000
0001
0000
,
0101
0000
0000
0000
1000
1000
0000
0000
1000
0000
0100
0000
0010
0000
0001
0000
,
1000
0001
0100
0002
0010
0100
1003
0001
,
1000
0100
0010
0001
1000
0010
0100
0001
,
1000
0001
0100
0001
0010
0100
1000
0001
,
1000
0100
0010
0000
0100
1000
1000
0000
,
0001
0100
0100
0000
0100
1000
1000
0000
,
0001
0100
0100
0000
0100
1000
1000
0001
,
0100
0100
1000
1000
0001
0100
0100
1000
,
1001
0000
0000
0000
0010
0100
0000
0000
1000
0010
1000
0001
1000
0000
0001
0000
,
0010
0000
1000
0000
0001
0000
0100
0000
0010
0100
0010
0000
0001
0000
1000
0000
,
0010
0000
1000
0000
0001
0000
0100
0000
0010
0100
0010
1000
0010
0000
0100
0001
,
0100
0010
1000
0000
0001
1000
0001
0000
0010
0001
1000
0001
1000
0000
0000
0100
,
0010
0000
0000
0000
0000
0000
0000
0000
0000
0000
0000
0000
1000
0000
0000
0000
0001
0000
0000
0000
1000
0000
0000
0000
0001
0000
0000
0100
0000
0000
0010
0000
0000
0000
0000
0000
0010
0000
0000
0000
0000
0000
1000
0000
0000
0000
0000
0000
,
1000
0100
0010
0000
0010
0000
0001
0000
0001
0010
0100
0000
0100
0000
1000
0000
,
1000
0010
0100
0000
0100
0000
0001
0000
0001
1000
0000
0000
0001
0000
0100
0000
,
0001
0000
0010
0000
0001
0001
0000
0000
0101
0000
1001
0000
0001
0000
0101
0000
,
1001
0000
0000
0000
0000
1000
0000
0100
0000
0010
0000
0001
0000
0000
0000
0100
0000
0000
0001
0000
0000
0010
0000
0000
,
0001
0000
1000
0000
1000
0000
0100
1000
1000
0000
0010
0000
1000
0000
0001
0000
,
1000
0000
0010
0000
0100
0000
0001
0000
0001
1000
0001
0000
1000
0000
0001
0000
,
1000
0001
1000
0000
1000
0000
0001
0000
0101
0000
0001
0000
0011
0000
0000
0100
,
1000
0000
0000
0000
0000
0000
1000
0000
0000
0000
0000
0000
1000
0000
0000
0000
0001
0000
0000
0000
1000
0000
0000
0000
0001
0000
0000
0000
0000
0000
0010
0000
0000
0100
0000
0000
0010
0000
0000
0000
0000
0000
0001
0000
0000
1000
0000
0000
,
0010
0000
0100
0001
0100
0000
0001
0000
1000
0010
1000
0000
0100
0000
0010
0000
,
0001
0000
0010
0001
0010
0000
1000
0000
0100
1000
0000
0000
0100
0000
1000
0000
,
0100
0000
0010
0000
0001
0100
0000
0000
0010
0000
0100
0000
0100
0000
0010
0000
,
0100
0000
0000
0000
1000
0001
0000
0000
0000
0000
0000
0000
0000
0000
0000
0000
;
