#TITLE:The Way Out;
#SUBTITLE:;
#ARTIST:Written By Wolves;
#TITLETRANSLIT:;
#SUBTITLETRANSLIT:;
#ARTISTTRANSLIT:;
#GENRE:Metal Drum N Bass;
#CREDIT:jenro;
#MUSIC:The Way Out [jenro].ogg;
#BANNER:The Way Out [jenro]-bn.png;
#BACKGROUND:The Way Out [jenro]-bg.png;
#CDTITLE:cdtitle.png;
#SAMPLESTART:60.932;
#SAMPLELENGTH:10.972;
#SELECTABLE:YES;
#OFFSET:-0.585;
#BPMS:0.000=87.494
,72.000=174.988
,175.000=349.976
,176.000=174.988
,207.000=87.494
,208.000=174.988
;
#STOPS:175.000=0.171;
#DISPLAYBPM:88.000:175.000;
#BGCHANGES:;
#FGCHANGES:;

//--------------- dance-single - jenro-2020 ----------------
#NOTES:
     dance-single:
     jenro-2020:
     Beginner:
     5:
     0,0,0,0,0:
0000
0000
0000
0000
,
0000
0000
0000
0000
,
0000
0000
0000
0000
,
0000
0000
0000
0000
,
0002
0003
0000
0000
,
0200
0300
0000
0000
,
2000
3000
0000
0000
,
0200
0300
0000
0000
,
0002
0003
0000
0000
,
2000
3000
0000
0000
,
0010
0010
0100
0100
,
0010
0010
1000
1001
,
0001
0001
1000
1001
,
0001
0001
2000
3000
,
0010
0010
0100
0010
,
0100
0100
0010
0010
,
0001
0001
1000
1001
,
0001
0001
2000
3000
,
1002
0000
0003
0000
,
2000
0000
3100
0000
,
0002
0000
0103
0000
,
2000
0000
3010
0000
,
0010
0000
1000
0000
,
0100
0000
0001
0000
,
1001
0000
0010
0000
,
1000
0000
0001
0000
,
1002
0000
0003
0000
,
2000
0000
3100
0000
,
0002
0000
0103
0000
,
2000
0000
3010
0000
,
0000
0000
0010
0000
,
0001
0000
0100
0000
,
0000
1000
0001
1000
,
0001
1000
0001
1000
,
0010
0000
0000
0100
0000
0000
1000
0000
,
0000
0100
0000
0000
0001
0000
0010
0000
,
0100
0000
0000
0001
0000
0000
0100
0000
,
0000
0001
0000
0000
0010
0000
0100
0000
,
1000
0000
0000
0010
0000
0000
0100
0000
,
0000
0010
0000
0000
0100
0000
0001
0000
,
0010
0010
0100
0100
,
0010
0001
0010
0001
,
0200
0000
0000
0000
,
0000
0000
0000
0300
,
0010
0001
0100
0000
,
1000
0000
0001
0010
,
0001
1000
0100
0000
,
1000
0000
0001
0010
,
0001
1000
0100
0000
,
1000
0000
0001
0010
,
0001
1000
0010
0010
,
1000
1000
0010
0001
,
1000
0100
0000
0100
,
0000
0001
0010
0001
,
1000
0100
0000
0100
,
0000
0001
0010
0100
,
0010
1000
0000
0100
,
0000
0001
0010
0100
,
0010
1000
0000
0100
,
0000
0100
1000
0000
;

//--------------- dance-single - jenro-2020 ----------------
#NOTES:
     dance-single:
     jenro-2020:
     Easy:
     7:
     0,0,0,0,0:
0000
0000
0000
0000
,
0000
0000
0000
0000
,
0000
0000
0000
0000
,
0000
0000
0000
0000
,
0010
0000
0000
0000
,
1000
0000
0000
0000
,
0001
0000
0000
0000
,
1000
0000
0000
0000
,
0100
0000
0000
0000
,
1000
0000
0000
0000
,
0010
0100
0010
0010
,
0001
1000
0010
0001
,
0001
1000
0010
0001
,
0001
1000
0010
1001
,
0010
0100
0010
0010
,
0001
1000
0010
0001
,
0001
1000
0010
0001
,
0100
0100
0010
0010
,
0102
0000
1003
0000
,
2100
0000
3001
0000
,
0012
0000
1003
0000
,
2010
0000
3001
0000
,
0000
1000
0010
1000
,
0100
0001
0100
0000
,
0000
0001
1000
0010
,
0001
1000
0010
0001
,
0102
0000
1003
0000
,
2100
0000
3001
0000
,
0012
0000
1003
0000
,
2010
0000
3001
0000
,
0000
0001
1000
0001
,
0100
1000
0100
0000
,
0000
0001
0001
0100
,
0100
1000
0010
0001
,
0101
0000
0000
0100
0000
0000
1000
0000
,
0000
0100
0000
0000
0001
0000
0010
0000
,
0100
0000
0000
0001
0000
0000
0100
0000
,
0000
0001
0000
0000
0010
0000
0100
0000
,
1000
0000
0000
0010
0000
0000
0100
0000
,
0000
0010
0000
0000
0100
0000
0001
0000
,
0100
0001
0001
0010
,
0010
1000
0010
0001
,
0200
0000
0000
0000
,
0000
0000
0000
0300
,
1100
0001
0100
0000
,
0000
0000
0001
0010
,
1100
0001
0100
0000
,
0000
0000
0001
0010
,
1100
0001
0100
0000
,
0000
0000
0001
0010
,
1100
0001
0001
0010
,
0010
1001
0010
1001
,
0001
0100
0010
1000
,
1000
0001
0010
1100
,
0001
0100
0001
1000
,
1000
0001
0010
1100
,
0010
0001
0001
1000
,
1000
0001
0010
1100
,
0010
0001
0001
0010
,
1000
1000
1000
0000
;

//--------------- dance-single - jenro-2020 ----------------
#NOTES:
     dance-single:
     jenro-2020:
     Medium:
     9:
     0,0,0,0,0:
0000
0000
0000
0000
,
0000
0000
0000
0000
,
0000
0000
0000
0000
,
0000
0000
0000
0000
,
0000
0000
0000
0000
1000
0001
0100
0000
,
0000
0000
0000
0000
0010
1000
0100
0000
,
0000
0000
0000
0000
0010
0001
0010
0000
,
0000
0000
0000
0000
0100
0100
1000
0000
,
0000
0000
0000
0000
1000
0001
0010
0000
,
0000
0000
0000
0000
0001
0001
0100
0000
,
0010
1000
0001
0100
,
0010
1000
0001
0200
,
0300
0010
1000
0001
0100
0010
1000
0001
,
0000
0100
0001
1000
0010
0100
0002
0000
,
1003
0001
1000
0001
,
0001
1000
1000
0001
,
0000
0001
0100
0010
1000
0001
0100
0010
,
0000
1000
1000
0010
0010
0100
0100
0001
,
0102
1000
0000
0010
,
0100
0000
2003
0000
,
3002
0100
0000
0010
,
1000
0100
0000
1000
,
0103
1000
1000
0001
,
0001
0010
0100
0000
,
0000
0001
0001
0010
,
0010
1000
0010
0001
,
0102
1000
0000
0010
,
0100
0000
2003
0000
,
3002
0100
0000
0010
,
1000
0100
0000
1000
,
0103
0001
0001
0010
,
0010
1000
0100
0000
,
0000
0001
0001
0010
,
0010
1000
0010
0001
,
1001
0001
0100
0010
,
1000
0001
0101
0110
,
0000
1000
0010
0100
,
0001
1000
1010
0110
,
0000
0001
0010
0100
,
1000
0001
0011
0110
,
0000
1001
1010
1001
,
0011
1001
0110
0110
,
0202
0000
0000
0000
,
0000
0000
0000
0303
,
1000
0001
0100
0010
,
1000
0001
0100
0010
,
0001
1000
0010
0100
,
0001
1000
0010
0100
,
1000
0001
0010
0100
,
1000
0001
0010
0100
,
0001
1001
1010
1001
,
0011
1001
0110
0110
,
0101
1000
0100
0001
,
0001
1000
0001
1000
,
0010
0001
0100
1000
,
0001
0000
0100
0000
0001
0000
1000
0001
,
1000
0010
0010
0001
,
0100
0000
0100
0000
0001
0000
0010
0100
,
1000
0000
1000
0001
1000
0000
0100
0000
,
0100
0000
1000
1000
0001
0001
0000
0000
;

//--------------- dance-single - jenro-2020 ----------------
#NOTES:
     dance-single:
     jenro-2020:
     Hard:
     12:
     0,0,0,0,0:
0000
0000
0000
0000
,
0000
0000
0000
0000
,
0000
0000
0000
0000
,
0000
0000
0000
0000
,
0000
0000
0000
0000
1000
0001
0100
0000
,
0000
0000
0000
0000
0010
1000
0010
0000
,
0000
0000
0000
0000
0100
0010
0001
0000
,
0000
0000
0000
0000
0001
0010
0100
0000
,
0000
0000
2000
3001
,
0000
0000
0002
0013
,
1000
0001
1000
0001
,
1000
0001
0100
0110
,
1000
0001
0001
1000
0010
0100
0001
0110
,
0000
0001
1000
0001
0001
0010
1001
0000
,
0400
0304
0043
0430
,
4300
3040
0430
0304
,
0013
1000
1000
0001
0001
0100
0010
1001
,
0000
1000
0100
0010
0001
1000
0010
0001
,
0101
0000
1000
0000
0000
0001
1000
0000
,
0100
0000
1000
0000
0000
0001
0010
0000
,
1000
0000
1000
0000
0000
0001
0100
0000
,
0010
0000
1000
0000
0000
0001
0100
0000
,
0001
1000
0100
0010
,
0001
1000
0010
0001
,
1000
0001
0100
0010
,
1001
1000
0010
0001
,
1001
0000
0001
0000
0000
0010
0001
0000
,
0100
0000
0010
0000
0000
1000
0100
0000
,
0001
0000
1000
0000
0000
1000
0010
0000
,
0100
0000
0001
0000
0000
1000
0100
0010
,
0001
0100
0001
1000
,
0010
0001
0010
1000
,
0001
1001
0011
1001
,
0110
1010
0110
1001
,
0001
0100
0001
1000
0000
0000
1000
0001
,
0100
0001
0000
0000
0010
0100
1000
0100
,
1000
0010
0100
0001
0000
0000
0001
0100
,
0010
1000
0000
0000
1000
0001
0010
0001
,
0010
0001
0100
0010
0000
0000
0010
1000
,
0001
0100
0000
0000
0100
0001
1000
0010
,
0000
1001
0011
1001
,
1010
0110
1001
0110
,
0202
0000
0000
0000
,
0000
0000
0000
0303
,
1000
0001
0100
0001
1000
0100
0010
0001
,
0100
0001
0010
0100
1000
0010
1000
0100
,
1000
0001
0100
0010
1000
0001
0010
0100
,
1000
0010
0100
0001
0010
0001
1000
0010
,
1000
0001
0010
0001
1000
0010
0100
0001
,
0010
0001
0100
0010
1000
0100
1000
0010
,
1000
1001
0011
1001
,
1010
0110
0110
1001
,
0001
1000
0100
1000
0001
0100
0010
1000
,
0010
1000
0010
0100
0001
0010
0001
0100
,
0001
1000
0100
0010
0001
1000
0010
0100
,
0001
0010
0100
1000
0010
1000
0001
0010
,
0001
1000
0010
1000
0001
0010
0100
1000
,
0010
1000
0100
0010
0001
0100
0001
0010
,
0010
0001
1000
0010
0100
0001
0010
0100
,
1000
0010
1000
1000
1000
0100
0000
0000
;
