#TITLE:Somebody;
#SUBTITLE:;
#ARTIST:Morgan Page;
#TITLETRANSLIT:;
#SUBTITLETRANSLIT:;
#ARTISTTRANSLIT:;
#GENRE:;
#CREDIT:jenro;
#MUSIC:Somebody [jenro].ogg;
#BANNER:Somebody [jenro]-bn.png;
#BACKGROUND:Somebody [jenro]-bg.png;
#CDTITLE:cdtitle.png;
#SAMPLESTART:74.937;
#SAMPLELENGTH:15.000;
#SELECTABLE:YES;
#OFFSET:0.063;
#BPMS:0.000=128.000;
#STOPS:;
#BGCHANGES:0.063=Somebody [jenro].mp4=1.000=0=0=0=StretchNoLoop====,
99999.000=-nosongbg-=1.000=0=0=0=StretchNoLoop====
;
#FGCHANGES:;

//--------------- dance-single - jenro-2024 ----------------
#NOTES:
     dance-single:
     jenro-2024:
     Beginner:
     3:
     0,0,0,0,0:
0000
0000
0000
0000
,
0000
0000
0000
0000
,
0000
0000
0000
0000
,
0000
0000
0000
0000
,
0010
0000
0010
0000
,
1000
0000
1000
0000
,
0010
0000
0010
0000
,
0002
0000
0003
0000
,
0000
1000
0000
0001
,
0000
1000
0000
0001
,
0000
0001
0000
0001
,
0000
0002
0003
1000
,
0000
0010
0000
1000
,
0000
0010
0000
0010
,
0000
0010
0000
0010
,
0000
0010
0000
1000
,
0000
0001
0000
0100
,
0000
0001
0000
0010
,
0000
1000
0000
1000
,
0000
1000
0000
1000
,
0000
0001
0000
0100
,
0000
0010
0000
0001
,
0000
0001
0000
0001
,
0000
0001
0000
0000
,
0010
1000
0010
1000
,
0100
0100
0100
0100
,
0010
0001
0010
0001
,
0100
0100
0100
0100
,
0010
0010
0010
0010
,
0100
0100
0100
0100
,
1000
0001
1000
0001
,
0002
2003
0002
3003
,
0010
0001
1000
0100
,
0010
0010
0010
0010
,
0010
1000
0001
0100
,
0010
0010
0010
0010
,
0100
0100
0001
0001
,
1000
1000
1000
1000
,
0100
0100
1000
1000
,
0001
0001
0001
0001
,
0010
0001
0010
1000
,
0100
0001
0100
1000
,
0001
1000
0001
1000
,
0100
0100
0100
0100
,
0010
1000
0010
0001
,
0100
1000
0100
0001
,
1000
0001
1000
0001
,
0100
0100
0100
0100
,
0100
1000
0100
0001
,
0010
1000
0010
0001
,
1000
0001
1000
0001
,
0010
0010
0010
0010
,
0100
0001
0100
1000
,
0010
0001
0010
1000
,
0001
1000
0001
1000
,
0010
0010
0010
0010
;

//--------------- dance-single - jenro-2024 ----------------
#NOTES:
     dance-single:
     jenro-2024:
     Easy:
     4:
     0,0,0,0,0:
0000
0000
0000
0000
,
0000
0000
0000
0000
,
0000
0000
0000
0000
,
0000
0000
0000
0000
,
0010
0000
0100
0000
,
0100
0000
0001
0000
,
0001
0000
0010
0000
,
0020
0000
0030
0000
,
0000
1000
0000
0001
,
0000
1000
0000
0100
,
0000
0001
0000
1000
,
0000
0010
0000
0010
,
0000
1000
0000
0001
,
0000
0100
0000
0001
,
0000
0010
0000
0010
,
0000
1000
0000
0001
,
1000
0100
0010
0001
,
0001
0010
1000
0100
,
1000
0100
0010
0001
,
0001
0100
0010
1000
,
0001
0100
0001
0100
,
1000
0100
1000
0100
,
0010
0010
0100
0100
,
0002
1003
0000
0000
,
1001
0100
0010
0010
,
0100
0100
0010
0100
,
0001
1000
1000
0001
,
0100
0100
0010
0010
,
1000
0001
0001
1000
,
0100
0100
0010
0010
,
1001
0100
0010
0001
,
1001
0100
0010
1000
,
0001
0001
1000
1000
,
0010
0100
0100
0100
,
0001
1000
0010
0010
,
0001
0100
0100
0100
,
0010
1000
0001
0100
,
0010
0010
0010
0010
,
1001
0100
0010
1000
,
1001
0001
0100
1000
,
0002
1003
0002
0103
,
0002
0013
0001
0001
,
2000
3001
2000
3100
,
2000
3010
1000
1000
,
0020
0130
0002
0103
,
2000
3100
0200
0310
,
0200
0310
2000
3010
,
0002
0013
0020
0130
,
1001
0002
2003
3010
,
1001
2000
3002
0013
,
0200
1300
0200
1300
,
0200
0310
0200
0310
,
1001
2000
3002
0103
,
1001
0002
2003
3100
,
0020
0031
0020
0031
,
0010
0100
0010
0100
0020
0000
0030
0000
;

//--------------- dance-single - jenro-2024 ----------------
#NOTES:
     dance-single:
     jenro-2024:
     Medium:
     8:
     0,0,0,0,0:
0000
0000
0000
0000
,
0000
0000
0000
0000
,
0000
0000
0000
0000
,
0000
0000
0000
0000
,
0002
0000
1003
0010
0200
0000
0310
0100
,
0002
0000
0013
0100
2000
0000
3001
0100
,
0002
0000
0013
0100
2000
0000
3001
0100
,
0001
0100
0001
0100
0002
0000
0000
0000
,
0013
0100
0000
0100
,
0000
0100
0000
0100
,
0000
1000
0000
0001
,
0000
0200
0000
0310
,
0000
1000
0000
0001
,
0000
0100
0000
0010
,
0000
0100
0000
0100
,
0000
0000
0100
0000
0000
0010
0000
1000
,
0000
0001
0000
1001
0000
0001
1000
0100
,
0000
1000
0000
1001
0000
1000
0001
0100
,
0000
0001
0000
1000
0000
0010
0000
1020
,
0000
0000
0130
0000
0000
0001
0000
1000
,
0000
1000
0000
0100
0000
1000
0001
0001
,
0000
0001
0000
0100
0000
0010
0010
0010
,
0000
0110
0000
0010
0000
0010
0000
2002
,
0000
0000
3003
0000
0000
1000
0001
0010
,
0000
0000
0001
0000
1000
0000
0010
0000
0000
0000
0100
0000
0000
0001
0000
0000
,
1000
0000
0000
0100
0000
0000
0110
0000
0000
0000
0010
0000
0001
0000
0010
0000
,
0000
0000
0100
0000
1000
0000
0100
0000
0000
0000
1000
0000
0000
0001
0000
0000
,
0001
0000
0000
1000
0000
0000
1001
0000
0000
0000
0100
0000
0010
0000
1000
0000
,
0000
0000
1000
0000
0001
0000
0100
0000
0000
0000
0001
0000
0000
0010
0000
0000
,
0100
0000
0000
1000
0000
0000
1010
0000
0000
0000
0100
0000
0001
0000
0101
0000
,
0000
0001
0001
1000
0010
0010
0000
1010
,
0000
1000
0001
0100
0001
2000
0000
3100
,
0000
0000
0010
0000
0001
0000
0100
0000
0000
0000
0010
0000
0000
1000
0000
0000
,
0001
0000
0000
0100
0000
0000
0101
0000
0000
0000
0001
0000
0010
0000
0100
0000
,
0000
0000
0100
0000
0010
0000
0001
0000
0000
0000
1000
0000
0000
0001
0000
0000
,
0100
0000
0000
0010
0000
0000
1001
0000
0000
0000
1000
0000
0010
0000
0100
0000
,
0000
0000
0100
0000
0010
0000
1000
0000
0000
0000
0001
0000
0000
0100
0000
0000
,
1000
0000
0000
0100
0000
0000
1001
0000
0000
0000
0010
0000
0100
0000
0110
0000
,
0000
0010
0001
0010
0100
2000
0000
0000
,
0002
0000
0000
3003
,
1001
0000
0100
0010
1000
0000
0100
0010
,
0001
0000
0100
0010
1000
0000
0101
0000
,
1100
0000
0001
0100
0001
0000
1000
0100
,
1000
0100
0010
0100
1000
0000
0101
0000
,
1001
0000
0001
0100
0001
0000
1000
0010
,
1000
0000
0001
1000
0001
0000
1000
0001
,
1000
0000
0110
0000
1001
0000
0001
0100
,
0001
1000
0100
1000
0002
0000
1003
0000
,
1001
0000
0010
0100
0001
0000
0010
0100
,
1000
0000
0010
0100
0001
0000
1010
0000
,
0011
0000
1000
0010
1000
0000
0001
0010
,
0001
0010
0100
0010
0001
0000
1010
0000
,
1001
0000
1000
0010
1000
0000
0001
0100
,
0001
0000
1000
0001
1000
0000
0001
1000
,
0001
0000
0110
0000
1001
0000
1000
0010
,
1000
0001
0010
0001
2000
0000
3001
0100
;

//--------------- dance-single - jenro-2024 ----------------
#NOTES:
     dance-single:
     jenro-2024:
     Hard:
     10:
     0,0,0,0,0:
0000
0000
0000
0000
,
0000
0000
0000
0000
,
0000
0000
0000
0000
,
0000
0000
0000
0000
,
0100
0010
1000
0000
0001
0100
0010
0000
,
0100
0010
1000
0001
0100
0010
0100
0000
,
0001
1000
0100
0000
1000
0001
0010
0000
,
0001
1000
0100
1000
0001
0010
0100
2000
,
0000
3100
0000
1000
,
0000
0001
0000
0100
,
0000
1000
0000
1000
,
0000
0001
00M0
1000
,
0000
0100
0000
0001
,
0000
1000
0000
0001
,
0000
1000
0000
1000
,
0000
0001
0M00
1000
,
0010
1000
0001
0100
0000
0001
0010
0100
,
0000
1000
0010
0100
0000
0001
1000
0100
,
0000
1000
0001
0100
0000
0001
1000
0002
,
0000
0000
1MM3
0000
0000
1000
0100
0010
,
0000
0010
0100
1000
0000
0001
0100
0010
,
0000
0010
0100
0001
0000
0001
1000
0100
,
0000
1000
0001
0100
0000
0010
1000
0020
,
0000
0000
0M00
0030
0000
1000
0001
1000
,
0100
0010
0001
1000
0100
1000
0010
0100
,
0001
0100
0001
0100
0001
0001
0001
0000
,
1000
0100
1000
0001
0100
0010
0100
0001
,
1000
1000
1000
0100
0010
0100
1000
0000
,
0010
0100
0001
0100
0010
1000
0010
1000
,
0100
0100
0100
0010
0001
0010
0100
0000
,
1001
0001
1000
0001
1000
1000
0000
1001
,
0000
0100
0010
0001
0010
0200
0000
0301
,
0000
0000
0100
0000
0001
0000
0010
0000
0000
0000
0100
0000
0000
1000
0000
0000
,
0001
0000
0000
0010
0000
0000
M011
0000
0000
0000
0001
0000
0100
0000
0010
0000
,
0000
0000
0010
0000
0100
0000
0001
0000
0000
0000
1000
0000
0000
1000
0000
0000
,
0010
0000
0000
1000
0000
0000
10M1
0000
0000
0000
1000
0000
0100
0000
0010
0000
,
0000
0000
0010
0000
0100
0000
1000
0000
0000
0000
0001
0000
0000
1000
0000
0000
,
1001
0000
0000
0001
0000
0000
10M1
0000
0000
0000
0100
0000
0010
0000
0110
0000
,
0000
0100
0001
0100
0010
2020
3030
0000
,
0001
0000
0000
0000
0000
0000
0000
0000
0000
1000
0000
0000
0000
0000
0000
0000
0000
0000
0010
0000
0000
0000
0000
0000
0100
0000
0000
0000
0001
0000
0000
0000
0100
0000
0000
0000
0010
0000
0000
0000
1000
0000
0000
0000
0001
0000
0000
0000
,
0100
0010
0100
0001
1000
0100
0010
0001
,
0100
0010
0100
0001
1000
0010
0100
0001
,
0001
0010
0100
1000
0001
0010
0100
1000
,
0001
0100
0010
1000
0001
0100
0010
1000
,
0001
1000
01M0
1000
1000
0001
01M0
0001
,
0001
1000
0M10
1000
1000
0001
0M10
0001
,
1000
0100
0001
0100
1000
0001
1000
0001
,
0100
0100
M010
0100
010M
0010
0010
0110
,
0100
0010
0100
0001
1000
0010
0100
0001
,
0100
0010
0100
0001
1000
0100
0010
0001
,
1000
0001
0100
0010
1000
0100
0010
0001
,
1000
0010
0100
0001
1000
0010
0100
0001
,
1000
0001
0M10
0001
0001
1000
0M10
1000
,
1000
0001
01M0
0001
0001
1000
01M0
1000
,
0001
1000
0001
1000
1000
0001
1000
0001
,
0010
0010
M100
0010
001M
0100
0100
0200
,
0300
0000
0000
0000
;
