#TITLE:Seesaw;
#SUBTITLE:;
#ARTIST:Ummet Ozcan;
#TITLETRANSLIT:;
#SUBTITLETRANSLIT:;
#ARTISTTRANSLIT:;
#GENRE:Trance;
#CREDIT:jenro;
#MUSIC:Seesaw [jenro].ogg;
#BANNER:Seesaw [jenro]-bn.png;
#BACKGROUND:Seesaw [jenro]-bg.png;
#CDTITLE:cdtitle.png;
#SAMPLESTART:39.938;
#SAMPLELENGTH:13.241;
#SELECTABLE:YES;
#OFFSET:-0.249;
#BPMS:0.000=145.000;
#STOPS:;
#BGCHANGES:-0.249=Seesaw [jenro].avi=1.000=0=0=0=StretchNoLoop====,
99999.000=-nosongbg-=1.000=0=0=0=StretchNoLoop====
;
#FGCHANGES:;

//--------------- dance-single - jenro-2020 ----------------
#NOTES:
     dance-single:
     jenro-2020:
     Beginner:
     2:
     0.15889,0.202751,0.041194,0,0,108,104,4,0,0,0,0.15889,0.202751,0.041194,0,0,108,104,4,0,0,0:
0000
0000
0000
0000
,
0000
0000
0000
0000
,
0000
0000
0000
0000
,
0000
0000
0000
0000
,
0010
0000
0000
0000
,
0100
0000
0000
0000
,
1000
0000
0000
0000
,
0001
0000
0000
0000
,
0010
0000
0000
0000
,
0100
0000
0000
0000
,
1000
0000
0000
0000
,
0001
0000
0000
0000
,
0010
0000
0100
0000
,
0000
0000
0000
0000
,
1000
0000
0001
0000
,
0000
0000
0000
0000
,
0010
0000
0100
0000
,
0000
0000
0000
0000
,
1000
0000
0001
0000
,
1000
0000
0001
0000
,
0100
0000
0000
0000
,
0100
0000
0000
0000
,
0100
0000
0000
0000
,
0100
0000
0000
0000
,
0010
0000
0100
0000
,
0010
0000
0100
0000
,
1000
0000
0001
0000
,
1000
0000
0001
0000
,
0010
0000
0100
0000
,
0010
0000
0100
0000
,
0001
0000
1000
0000
,
0001
0000
1000
0000
,
0010
0000
0100
0000
,
0010
0000
0100
0000
,
1000
0000
0001
0000
,
1000
0000
0001
0000
,
0010
0000
0100
0000
,
0010
0000
0100
0000
,
0001
0000
1000
0000
,
0001
0000
1000
0000
,
0100
0000
0000
0000
,
0100
0000
0000
0000
,
0100
0000
0000
0000
,
0100
0000
0000
0000
,
0001
0001
0001
0000
,
1000
1000
1000
0000
,
0100
0000
0010
0000
,
0100
0000
0100
0000
,
0100
0100
0100
0000
,
0010
0010
0010
0000
,
0001
0000
1000
0000
,
0001
0000
0001
0000
,
0010
0000
0000
0000
,
0100
0000
0000
0000
,
0001
0000
0000
0000
,
1000
0000
0000
0000
,
0100
0000
0000
0000
;

//--------------- dance-single - jenro-2020 ----------------
#NOTES:
     dance-single:
     jenro-2020:
     Easy:
     3:
     0.260404,0.376537,0.082388,0.041194,0,177,169,8,4,0,0,0.260404,0.376537,0.082388,0.041194,0,177,169,8,4,0,0:
0000
0000
0000
0000
,
0000
0000
0000
0000
,
0000
0000
0000
0000
,
0000
0000
0000
0000
,
0010
0000
0000
0000
,
0100
0000
0000
0000
,
1000
1000
0000
0000
,
0001
0001
0000
0000
,
0010
0000
0000
0000
,
0100
0000
0000
0000
,
0001
0001
0000
0000
,
0001
0001
0000
0000
,
0010
0000
0100
0000
,
0010
0000
0100
0000
,
1000
0001
0000
0000
,
0100
0100
0000
0000
,
0010
0000
0100
0000
,
0010
0000
0100
0000
,
0001
1000
0000
0000
,
0001
1000
0000
0000
,
0100
0000
0100
0000
,
0100
0000
0100
0000
,
0100
0000
0100
0000
,
0100
0000
0200
0300
,
0010
0000
0100
0000
,
0010
0000
0100
0000
,
1000
0001
1000
0001
,
0100
0100
0100
0100
,
0010
0000
0100
0000
,
0010
0000
0100
0000
,
1000
0001
1000
1000
,
0001
1000
0001
0001
,
0010
0100
0010
0100
,
0010
0100
0010
0100
,
1000
1000
1000
1000
,
0100
0100
0100
0100
,
0010
0100
0010
0100
,
0010
0100
0010
0100
,
0001
0001
1000
0001
,
0001
0001
1000
0001
,
0100
0000
0100
0000
,
0100
0000
0100
0000
,
0100
0000
0100
0000
,
0100
0000
0000
0000
,
1001
0000
0010
0000
,
1001
0000
0010
0000
,
1000
1000
1000
1000
,
0010
0001
0100
0000
,
1001
0000
0010
0000
,
1001
0000
0010
0000
,
0001
0001
0001
0001
,
0010
1000
0100
0000
,
0010
0000
0100
0000
,
0010
0000
0100
0000
,
1000
0001
0000
0000
,
0100
0100
0000
0000
;

//--------------- dance-single - jenro-2020 ----------------
#NOTES:
     dance-single:
     jenro-2020:
     Medium:
     9:
     0.381043,0.492395,0.32955,0.205969,0.144178,259,227,32,20,0,0,0.381043,0.492395,0.32955,0.205969,0.144178,259,227,32,20,0,0:
0000
0000
0000
0000
,
0000
0000
0000
0000
,
0000
0000
0000
0000
,
0000
0000
0000
0000
,
0010
0001
0100
0000
,
0010
0000
0100
0000
,
2000
3001
0000
0000
,
0100
0100
0000
0000
,
0010
1000
0100
0000
,
0001
0000
1000
0001
,
0002
1003
0010
0010
,
0002
1003
0010
0010
,
0010
0001
0100
1000
,
0010
0001
0100
1000
,
2000
3001
0010
0001
,
0100
0100
0001
1000
,
0010
0000
0100
0000
,
0001
0000
1000
0001
,
0002
1003
0010
0010
,
0002
1003
0010
0010
,
0001
0000
0000
0001
0000
0000
0001
0000
1000
0100
0000
0000
,
1000
0000
0000
1000
0000
0000
1000
0000
1000
0010
0000
0000
,
0001
0000
0000
0001
0000
0000
0001
0000
1000
0100
0000
0000
,
1001
0000
0000
1001
0000
0000
1000
0010
1000
0010
0000
0000
,
0012
0010
0103
0001
,
0012
0010
0103
0001
,
2000
0000
0000
3001
0000
0000
0010
0000
0001
0010
0000
0000
,
0100
0000
0000
0100
0000
0000
1000
0000
1000
0001
0000
0000
,
2010
0001
3100
0001
,
2010
0001
3100
1000
,
0002
0000
0000
1003
0000
0000
0010
0000
0100
0010
0000
0000
,
0002
1003
0010
0010
,
0011
0000
0000
0101
0000
0000
0110
0000
1000
0001
0000
0000
,
0011
0000
0000
0101
0000
0000
0110
0000
1000
0001
0000
0000
,
2000
0000
0000
3001
0000
0000
0010
0000
0001
0010
0000
0000
,
0100
0000
0000
0100
0000
0000
1000
0000
1000
0001
0000
0000
,
1010
0000
0000
1001
0000
0000
1100
0000
0001
1000
0000
0000
,
1010
0000
0000
1001
0000
0000
1100
0000
0001
1000
0000
0000
,
0002
0000
0000
1003
0000
0000
0010
0000
0100
0010
0000
0000
,
0002
1003
0010
0010
,
0100
0000
1000
0100
0000
0000
0010
0000
0001
0010
0000
0000
,
0100
0000
0001
0100
0000
0000
0010
0000
1000
0010
0000
0000
,
0100
0000
0001
1000
0000
0000
0010
0000
1000
0001
0000
0000
,
0010
0000
0000
0000
,
1001
0000
0000
1001
0000
0000
0010
0000
1000
0010
0000
0000
,
1001
0000
0000
1001
0000
0000
0010
0000
0001
0010
0000
0000
,
1000
0000
0001
0100
0000
0000
1000
0000
0001
0100
0000
0000
,
0010
0001
0100
1000
,
1001
0000
0000
1001
0000
0000
0010
0000
1000
0010
0000
0000
,
1001
0000
0000
1001
0000
0000
0100
0000
0001
0100
0000
0000
,
0001
0000
1000
0100
0000
0000
0001
0000
1000
0100
0000
0000
,
0010
1000
0100
0001
,
0010
0000
0100
0000
,
0010
0000
0100
0000
,
1000
0001
0000
0000
,
0100
0100
0000
0010
,
0100
0000
0000
0000
;

//--------------- dance-single - jenro-2020 ----------------
#NOTES:
     dance-single:
     jenro-2020:
     Hard:
     11:
     0.503153,0.666181,0.40164,0.041194,0.535519,342,303,39,4,0,0,0.503153,0.666181,0.40164,0.041194,0.535519,342,303,39,4,0,0:
0000
0000
0000
0000
,
0000
0000
0000
0000
,
0000
0000
0000
0000
,
0000
0000
0000
0000
,
0010
0001
0100
1000
,
0010
1000
0100
0001
,
1000
0000
0000
0001
0000
0000
0010
0000
0001
0100
0000
0000
,
0100
0000
0000
0110
0000
0000
0001
0000
0001
1000
0000
1000
,
0010
1001
0100
0001
,
0100
1000
0010
0100
,
0001
1000
0010
0100
,
0001
0000
0000
1000
0000
0000
0010
0000
0100
0010
0000
0100
,
0010
0001
0100
1000
,
0010
1000
0100
0001
,
1000
0000
0000
0001
0000
0000
0010
0000
0001
0100
0000
0000
,
0100
0000
0000
0110
0000
0000
0001
0000
0001
1000
0000
1000
,
0010
1001
0100
0001
,
0100
0000
0000
1000
0000
1000
0010
0000
0010
0100
0000
0100
,
0001
0000
0000
1001
0000
0000
0010
0000
0010
0100
0000
0100
,
1000
0000
0000
1001
0000
0000
0010
0000
0100
0010
0000
0100
,
0020
0031
0200
1300
,
0002
0103
0020
1030
,
0002
2003
3002
2003
,
3020
0100
0100
0130
,
0011
0101
0110
0001
,
0011
0101
0110
0001
,
1001
0000
0000
1100
0000
0000
0010
0000
0001
0010
0000
0000
,
1100
0000
0000
1100
0000
0000
1000
0000
1000
0001
0000
0000
,
1010
1001
1100
1000
,
1010
1001
1100
1000
,
0101
0000
0000
0101
0000
0000
0010
0000
0100
0010
0000
0000
,
0101
0000
0000
0101
0000
0000
0010
0000
0100
0010
0000
0000
,
0011
0000
0001
0100
0000
0100
0010
0000
0010
1000
0000
0000
,
0011
0000
0001
0100
0000
0100
0010
0000
0010
1000
0000
0000
,
1001
0000
0000
1100
0000
0000
0010
0000
0001
0010
0000
0000
,
1100
0000
0000
1100
0000
0000
1000
0000
1000
0001
0000
0000
,
1010
0000
1000
0001
0000
0001
0100
0000
0100
0010
0000
0000
,
1010
0000
1000
0001
0000
0001
0100
0000
0100
0010
0000
0000
,
0101
0000
0000
0101
0000
0000
0010
0000
0100
0010
0000
0000
,
1100
0000
0000
1100
0000
0000
0010
0000
0100
0010
0000
0000
,
1000
0000
0001
0100
0000
0000
0001
0000
1000
0100
0000
0000
,
0010
0001
0010
0100
0000
0000
0010
1000
0010
0100
0000
0000
,
1000
0100
0010
0001
1000
0001
1000
0010
0100
0010
1000
0001
,
0000
0000
0000
0000
,
1000
0000
1000
0001
0000
0001
0100
0000
0100
0010
0000
0010
,
1000
0000
1000
0001
0000
0001
0010
0000
0001
0100
0000
0001
,
1000
0000
0001
0100
0000
0001
1000
0000
0001
0100
0000
0100
,
0010
0000
0010
1000
0000
1000
0001
0000
0100
0000
1000
0000
,
1000
0000
1000
0001
0000
0001
0010
0000
0010
0100
0000
0100
,
1000
0000
1000
0001
0000
0001
0100
0000
0100
0001
0000
0001
,
0010
0000
0010
0100
0000
0100
1000
0000
1000
0100
0000
0100
,
0010
0001
0010
0001
1000
0100
1000
0001
0100
0001
0000
0000
,
0020
0001
0130
0000
,
0020
0000
0130
0000
,
2000
3001
1000
0001
,
0200
0310
0100
0010
,
0100
0000
0000
0000
;
