#TITLE:Rise Up;
#SUBTITLE:;
#ARTIST:Blasterjaxx;
#TITLETRANSLIT:;
#SUBTITLETRANSLIT:;
#ARTISTTRANSLIT:;
#GENRE:;
#CREDIT:Jenro;
#MUSIC:Rise Up [jenro].ogg;
#BANNER:Rise Up [jenro]-bn.png;
#BACKGROUND:Rise Up [jenro]-bg.png;
#CDTITLE:cdtitle.png;
#SAMPLESTART:60.090;
#SAMPLELENGTH:13.333;
#SELECTABLE:YES;
#OFFSET:-0.090;
#BPMS:0.000=144.000;
#STOPS:;
#BGCHANGES:;
#FGCHANGES:;

//--------------- dance-single - jenro-2024 ----------------
#NOTES:
     dance-single:
     jenro-2024:
     Beginner:
     3:
     0,0,0,0,0:
0000
0000
0000
0000
,
0000
0000
0000
0000
,
0000
0000
0000
0000
,
0000
0000
0000
0000
,
0000
0000
0000
0000
,
0001
0000
1000
0000
,
0001
0000
0001
0000
,
0001
0000
0010
0000
,
0100
0000
1000
0000
,
0100
0000
0001
0000
,
0010
0000
1000
0000
,
0100
0000
0001
0000
,
0010
0000
0010
0000
,
0001
0000
0100
0000
,
1000
0000
0001
0000
,
1000
0000
0001
0000
,
0100
0000
0100
0000
,
0010
0000
1100
0000
,
0100
0000
0100
0000
,
0010
0000
0101
0000
,
1000
0000
0001
0000
,
0010
0000
0011
0000
,
0001
0000
1000
0000
,
0010
0000
1010
0000
,
0001
0000
0100
0000
,
0100
0000
1000
0000
,
1000
0000
0100
0000
,
0100
0000
0001
0000
,
0010
0000
0010
0000
,
1001
0000
0010
0000
,
0100
0000
0100
0000
,
1001
0000
0100
0000
,
0010
0000
1001
0000
,
0010
0000
1001
0000
,
0010
0000
0010
0000
,
0010
0000
0001
0000
,
1000
0000
1010
0000
,
0001
0000
0011
0000
,
1000
0000
1001
0000
,
0001
0000
1001
0000
,
0010
0000
0011
0000
,
0010
0000
1010
0000
,
0100
0000
0010
0000
,
1001
0000
0000
0000
,
0001
0000
0101
0000
,
1000
0000
1100
0000
,
0001
0000
1001
0000
,
1000
0000
1001
0000
,
0100
0000
1100
0000
,
0100
0000
0101
0000
,
0010
0000
0100
0000
,
1001
0000
0000
0000
;

//--------------- dance-single - jenro-2024 ----------------
#NOTES:
     dance-single:
     jenro-2024:
     Easy:
     7:
     0,0,0,0,0:
0000
0000
0000
0000
,
0000
0000
0000
0000
,
0000
0000
0000
0000
,
0000
0000
0000
0000
,
0000
0000
0000
0000
,
2000
3000
0020
0030
,
0002
0003
0000
0000
,
0000
0000
0000
0000
,
1000
0100
0001
0001
,
1000
1000
0001
0001
,
0010
1000
0020
0130
,
0100
0010
0100
0100
,
0001
0010
1000
0100
,
1000
0010
0001
0100
,
0001
0001
1000
1000
,
0010
0100
0001
1000
,
0100
0100
0100
1000
,
1000
1000
0020
0030
,
0100
0100
0100
0001
,
0001
0001
0020
0030
,
1001
0010
1001
0002
,
1003
2000
3001
0100
,
0010
0010
0100
0010
,
0010
2000
3001
0000
,
0100
0100
0100
0001
,
0001
0001
0020
0030
,
0100
0100
0100
1000
,
1000
1000
0020
0030
,
1001
0010
1001
2000
,
3001
0002
1003
0100
,
0010
0010
0100
0010
,
0010
0002
1003
0100
,
2000
3001
0100
0002
,
0013
2000
3010
0200
,
0310
0010
0010
1001
,
0020
0030
1000
0001
,
2100
3001
0001
1000
,
0102
1003
1000
0001
,
0210
0310
0120
0130
,
1001
1001
0002
2003
,
3000
0000
0010
0000
0001
0100
0001
0000
,
0100
0000
0010
0000
1000
0100
1000
0000
,
1001
1001
0020
0130
,
0020
0000
0000
0030
,
0012
1003
1000
0001
,
2010
3001
0001
1000
,
0120
0130
0210
0310
,
1001
1001
2000
3002
,
0003
0000
0100
0000
1000
0010
1000
0000
,
0010
0000
0100
0000
0001
0010
0001
0000
,
1001
0000
1001
0000
0100
0010
0100
0000
,
0020
0000
0000
0000
0000
0030
0000
0000
;

//--------------- dance-single - jenro-2024 ----------------
#NOTES:
     dance-single:
     jenro-2024:
     Medium:
     10:
     0,0,0,0,0:
0000
0000
0000
0000
,
0000
0000
0000
0000
,
0000
0000
0000
0000
,
0000
0000
0000
0000
,
0000
0000
0000
0000
0000
0010
0000
0001
,
0000
0001
0000
0100
0000
1000
0000
0001
,
0000
0001
1000
0000
0100
0000
1000
0000
,
0001
0000
0010
0000
0100
0000
1000
0100
,
0010
0002
0103
0010
,
1020
0130
0201
0310
,
1000
0001
1000
0000
0100
0010
0000
0012
,
0000
1003
0000
0001
0000
1000
0000
0000
,
0010
0000
0010
0000
0100
0010
1000
0100
,
0000
0001
0010
0100
0000
0010
1000
0100
,
0000
0001
0100
0001
0000
0001
0001
0001
,
0010
0100
2000
3000
,
1000
0001
0100
0001
0010
0001
0100
0001
,
1000
0001
0010
0001
0100
0000
0110
0000
,
0001
1000
0100
1000
0010
1000
0100
1000
,
0001
1000
0010
1000
0100
0000
0110
0000
,
1001
0000
1000
0001
0010
0000
0001
1000
,
0020
0100
0130
0110
,
1001
0000
0001
1000
0010
0000
1000
0001
,
0020
0000
0100
0000
0130
0200
0300
0000
,
0001
0010
0100
1000
0100
0000
1000
0010
,
0100
0001
0100
0000
0001
0001
0001
0000
,
1000
0010
0100
0001
0100
0000
0001
0010
,
0100
1000
0100
0000
1000
1000
1000
0000
,
1002
0013
0120
0130
,
2001
3010
0210
0310
,
0001
1000
0001
1000
0002
0000
0013
0000
,
1000
0001
1000
0001
2000
0000
3010
0000
,
0001
1000
0001
0010
0001
0100
0002
0000
,
1003
0001
1000
0010
1000
0100
2000
0000
,
3001
0010
0100
1000
0001
0010
0100
1000
,
0200
0020
0330
0000
0220
0000
0330
0000
,
0011
0000
0101
0000
1000
0100
1000
0010
,
1000
0000
1001
0000
0001
0010
0001
0100
,
0001
0000
1001
0000
0010
0100
0010
0100
,
0010
0000
1001
0000
0100
0010
0100
0020
,
0030
1000
0001
0000
1000
0100
0001
0100
,
2000
0000
3010
0000
0001
0100
1000
0100
,
0002
0000
0013
0000
1000
0010
0001
0010
,
2000
0000
0000
3000
,
1010
0000
1100
0000
0001
0100
0001
0010
,
0001
0000
1001
0000
1000
0010
1000
0100
,
1000
0000
1001
0000
0010
0100
0010
0100
,
0010
0000
1001
0000
0100
0010
0100
0020
,
0030
0001
1000
0000
0001
0100
1000
0100
,
0002
0000
0013
0000
1000
0100
0001
0100
,
2000
0000
3010
0000
0001
0010
1000
0010
,
0002
0000
0000
0003
;

//--------------- dance-single - jenro-2024 ----------------
#NOTES:
     dance-single:
     jenro-2024:
     Hard:
     10:
     0,0,0,0,0:
0000
0000
0000
0000
,
0000
0000
0000
0000
,
0000
0000
0000
0000
,
0000
0000
0000
0000
,
0001
0010
0100
1000
,
0001
0001
1000
1000
,
0001
0010
0100
1000
,
0001
0000
0001
0000
1000
0000
0001
1000
,
0010
1000
0001
0100
0000
0001
0010
0100
,
0000
0001
0100
0001
0000
1000
0100
0010
,
0001
1000
0010
0000
0100
0010
0000
1001
,
0000
0000
0010
0000
0100
0000
1000
0000
0000
0000
0002
0000
0000
0100
0000
0000
,
0103
0000
0000
0000
0000
1000
0001
0010
,
0000
0001
0000
0100
0000
1000
0000
0102
,
0000
0000
0013
0000
0100
0000
1000
0010
,
0100
0010
2002
3003
,
1000
0001
0100
0001
0100
0000
1000
0100
,
1000
0100
0000
0010
0100
0000
0001
0000
,
1000
0001
0010
0001
0010
0000
1000
0010
,
1000
0000
0010
0000
0000
0000
0100
0000
0010
0000
0100
0000
0000
0100
0000
0000
,
1000
0000
0001
0010
0011
0000
0200
0000
,
1300
0020
0000
0000
0000
1030
0000
0001
,
0011
0000
0001
1000
0001
0000
0100
0001
,
0100
0010
0000
1000
0100
0010
0000
0001
,
1001
0100
0001
0010
,
1000
0001
0000
0001
2000
0000
3010
0000
,
0100
0000
0001
1000
0001
0000
1000
0100
,
0010
0100
0010
0001
0100
0010
0000
1000
,
1100
0200
0310
0200
,
1300
0000
0100
0001
0000
1000
0100
0000
,
0101
0010
1010
1001
,
0002
2003
3001
0100
,
0010
1000
0010
0000
0010
0010
0010
0000
,
0010
1000
0010
0000
0010
0010
0010
0000
,
0020
0100
1000
0031
,
0220
0330
0000
0000
0001
0100
0100
0100
,
1100
0000
0101
0000
0001
0100
0001
0100
,
0010
0000
0110
0000
0100
0001
0100
0001
,
0010
0000
0110
0000
0100
1000
0100
1000
,
0010
0000
0110
0000
1000
0100
1000
0200
,
0000
1300
0001
0000
0001
1000
0010
0100
,
0010
0000
1001
0000
0100
0010
0100
0010
,
0100
0000
1001
0000
0010
0100
0010
0100
,
2000
0000
3000
0000
,
0101
0001
1100
0000
1000
0100
1000
0100
,
0010
0100
0110
0000
0100
1000
0100
1000
,
0010
0100
0110
0000
0100
0001
0100
0001
,
0010
0100
0110
0000
0001
0100
0001
0200
,
0000
0301
1001
0000
1001
0001
0010
0100
,
0010
0100
1001
0000
0100
0010
0100
0010
,
0100
0100
1001
0000
0010
0100
0010
0100
,
0200
0000
0300
0000
;
