#TITLE:Remember You (Chill Mix);
#SUBTITLE:;
#ARTIST:Conro;
#TITLETRANSLIT:;
#SUBTITLETRANSLIT:;
#ARTISTTRANSLIT:;
#GENRE:Chill;
#CREDIT:jenro;
#MUSIC:Remember You Chill Mix [jenro].ogg;
#BANNER:Remember You Chill Mix [jenro]-bn.png;
#BACKGROUND:Remember You Chill Mix [jenro]-bg.png;
#CDTITLE:cdtitle.png;
#SAMPLESTART:62.146;
#SAMPLELENGTH:17.455;
#SELECTABLE:YES;
#OFFSET:-1.055;
#BPMS:0.000=110.000;
#STOPS:;
#BGCHANGES:;
#FGCHANGES:;

//--------------- dance-single - jenro-2020 ----------------
#NOTES:
     dance-single:
     jenro-2020:
     Beginner:
     4:
     0,0,0,0,0:
0000
0000
0000
0000
,
0000
0000
0000
0000
,
0000
0000
0000
0000
,
0000
0000
0000
0000
,
0000
1000
0000
1000
,
0000
0001
0000
0100
,
0000
0010
0000
0001
,
0000
1000
0000
0010
,
0100
0001
0000
1000
,
0000
1000
0000
0001
,
0100
0100
0100
0100
,
0010
0010
0100
0000
,
1000
1000
0001
0001
,
1000
1000
0010
0000
,
0001
0001
1000
1000
,
0001
0001
0100
0000
,
0010
0001
0010
0001
,
0010
1000
0100
0000
,
0010
1000
0010
1000
,
0010
0001
0100
0000
,
0010
0000
0100
0000
,
0001
0000
1000
0000
,
0010
0000
0010
0000
,
0100
0000
0100
0000
,
0001
0001
1000
0010
,
1000
0100
1000
0001
,
0010
0100
0001
0001
,
0000
1000
0001
1001
,
0010
0000
0100
0000
,
0001
1000
0001
1000
,
0010
0000
0100
0000
,
0001
1000
0001
1001
,
0010
0000
0100
0000
,
0001
1000
0001
0000
,
0100
0000
0010
0000
,
0100
0100
0100
1001
,
1000
0000
0001
0000
,
0100
0010
0100
1000
,
1100
0010
0010
0010
,
0101
0010
0010
0010
,
1000
0000
0001
0000
,
0100
0010
0010
0000
,
1000
0000
1000
0000
,
0100
0000
0100
0000
,
0001
0010
0001
0010
,
0010
0010
0010
0010
,
1000
0010
1000
0010
,
0010
0010
0010
0010
,
0100
0001
0100
0001
,
0100
0100
0100
0100
,
1001
0100
1001
0100
,
0010
0100
0100
0100
;

//--------------- dance-single - jenro-2020 ----------------
#NOTES:
     dance-single:
     jenro-2020:
     Easy:
     6:
     0.210386,0.240414,0.087923,0,0,134,126,8,0,0,0,0.210386,0.240414,0.087923,0,0,134,126,8,0,0,0:
0000
0000
0000
0000
,
0000
0000
0000
0000
,
0000
0000
0000
0000
,
0000
0000
0000
0000
,
0001
0000
0000
0000
,
0001
1000
0100
0000
,
0001
1000
0100
0000
0000
0000
0000
0000
,
0100
1000
0100
0000
0000
0000
0100
0000
,
0100
0000
0000
0000
,
1010
0000
1001
0000
,
2100
0000
0100
0000
,
3001
0100
0100
0000
,
1000
0001
0010
0000
0010
0000
0000
0000
,
0010
0000
0010
0000
,
0010
0001
0010
0000
0010
0000
0000
0000
,
0010
0000
0000
0000
,
0100
0000
0010
0100
,
0000
0000
0000
0000
,
1000
0000
0001
0000
0010
0010
0010
0000
,
1001
0000
0000
0000
,
1000
0001
0010
0000
0010
0001
0010
0000
,
0010
0010
0010
0000
0001
0000
0010
0000
,
0100
0100
0011
1001
,
0101
0001
0001
0001
,
1000
0100
1000
1000
,
0001
0001
0010
0010
,
1010
0110
0101
0001
,
0000
0001
0100
1000
,
1000
1000
1100
0000
0001
0001
0101
0000
,
0010
0000
0100
0000
0001
1000
0100
0000
,
0010
1001
0100
1001
,
1000
0001
1000
0000
0010
0100
0110
0000
,
0001
1001
0001
0100
,
0001
0000
0010
0000
0100
0100
0100
0000
,
1000
1001
1000
1010
,
1000
1100
1000
1000
,
0001
0001
0001
0000
0010
0010
0010
0000
,
0001
0000
1000
0000
0001
0100
1000
0000
,
0001
0000
0010
0000
0001
0010
0100
0000
,
0001
0000
1000
0000
0001
0100
0001
0000
,
0100
0010
1000
0010
,
1000
0000
0001
0000
0100
0001
0100
0000
,
0010
1000
0001
0100
,
0101
0110
1010
0100
,
1000
0001
0010
0000
0010
0001
0010
0000
,
0010
0010
0010
0000
0001
0000
0010
0000
,
0100
0100
0011
1001
,
0101
0001
0001
0001
,
1000
0100
1000
1000
,
0001
0001
0010
0010
,
1010
0110
0101
0001
,
0000
0001
0100
1000
;

//--------------- dance-single - jenro-2020 ----------------
#NOTES:
     dance-single:
     jenro-2020:
     Medium:
     7:
     0.32971,0.418045,0.219807,0.186836,0.071437,210,190,20,17,0,0,0.32971,0.418045,0.219807,0.186836,0.071437,210,190,20,17,0,0:
0000
0000
0000
0000
,
0000
0000
0000
0000
,
0000
0000
0000
0000
,
0000
0000
0000
0000
,
0010
0000
0001
1000
0010
0000
0010
0100
,
0001
1000
0100
0000
0001
1000
0100
0000
,
1000
0100
1000
0000
1000
0000
0010
0000
,
1001
1010
1100
1000
,
0010
0000
0100
0000
0001
1000
0100
0000
,
0101
0000
0100
0010
1000
0001
0010
0000
,
0100
0000
0100
0100
0100
0000
0001
0001
,
0001
0001
0001
0000
0000
0000
0000
0000
,
0100
0000
1000
0001
0100
0000
0100
0010
,
1000
0001
0010
0000
1000
0001
0010
0000
,
0001
0010
0001
0000
0001
0000
0100
0000
,
1001
0101
0011
0001
,
0100
0000
0010
0000
1000
0001
0010
0000
,
1010
0000
0010
0100
0001
1000
0100
0000
,
0010
0000
0010
0010
1000
1000
1000
1000
,
1000
0000
0000
0000
,
0100
0000
0001
0000
,
1000
0000
0000
0000
0001
0001
0010
0000
,
1000
0100
0000
0000
0010
0010
1000
0000
,
0001
0001
0100
0000
0000
0000
1001
0000
,
0010
0100
0100
0001
,
1000
0000
0001
0000
0010
1000
1000
0000
,
0100
0100
1000
0000
0001
0000
1001
0000
,
0000
0011
1001
0101
,
0020
0000
0130
0001
0002
0000
1003
0010
,
0020
0000
0130
0000
0001
1000
0010
0100
,
0101
0000
1001
0000
0011
0000
1000
1000
,
0101
1001
0011
0000
,
0200
0000
0310
1000
2000
0000
3001
0100
,
0200
0000
0310
0000
1000
0001
0100
0010
,
1010
0000
1001
0000
1100
0000
0001
0001
,
1010
1001
1100
0000
,
1000
1000
0010
0100
0010
0100
0001
0000
,
0001
0001
0100
0010
0100
0010
1000
0000
,
1000
0001
0100
0010
1000
1000
1000
0000
,
1000
0001
0100
0010
1000
1000
1001
0000
,
0001
0001
0100
0010
0100
0010
1000
0000
,
1000
1000
0010
0100
0010
0100
0001
0000
,
0001
1000
0010
0100
0001
0001
0001
0000
,
0001
1000
0010
0100
0001
0001
1001
0000
,
0100
0000
0001
0000
,
1000
0000
0000
0000
0001
0001
0010
0000
,
1000
0100
0000
0000
0010
0010
1000
0000
,
0001
0001
0100
0000
0000
0000
1001
0000
,
0010
0100
0100
0001
,
1000
0000
0001
0000
0010
1000
1000
0000
,
0100
0100
1000
0000
0001
0000
1001
0000
,
0000
0011
1001
0101
;

//--------------- dance-single - jenro-2020 ----------------
#NOTES:
     dance-single:
     jenro-2020:
     Hard:
     8:
     0.477295,0.590181,0.483575,0.076932,0.093418,304,260,44,7,0,0,0.477295,0.590181,0.483575,0.076932,0.093418,304,260,44,7,0,0:
0000
0000
0000
0000
,
0000
0000
0000
0000
,
0000
0000
0000
0000
,
0000
0000
0000
0000
,
0002
0000
0000
0000
1003
0001
0010
1000
,
0000
0010
0001
0100
0010
0000
1000
0100
,
0001
0000
0000
0000
0000
1000
0010
0100
,
0000
1000
0000
0001
0010
0000
0100
0101
,
1100
0000
0000
0000
0000
1000
0100
1001
,
0000
0001
0100
0000
0001
0000
0101
0000
,
0001
0001
0100
0100
0010
0000
1000
1000
,
0100
0100
1000
0000
0001
0000
1000
0010
,
1000
0000
0100
0000
0010
0010
0010
0100
,
0100
0100
0100
0000
1000
0001
1000
0000
,
0100
0001
0010
0000
0011
0000
1010
0000
,
0100
0000
0010
0000
0000
1000
0010
1001
,
0000
1000
0100
0000
0001
0000
1010
0000
,
1100
0000
0001
0000
0001
0100
0001
0100
,
0000
0000
1000
0000
0001
0001
0100
0000
,
2000
0000
0000
0000
,
3010
0001
0000
0001
0010
0100
0000
0100
,
0001
0010
0001
0100
0001
1000
0001
0000
,
0100
0001
0100
1000
0000
1000
1000
0000
,
0001
0000
0100
0000
1000
0000
0000
0010
,
1000
0000
0100
0000
0001
0010
0100
0100
,
0000
1001
0010
0000
,
0010
0001
0001
0000
0100
0010
1010
0000
,
0000
0000
0001
0000
1010
0000
1100
1000
,
1000
0000
0000
0001
0000
0000
0001
0000
1000
0000
0000
0100
0000
0000
0010
0000
,
1000
0000
0000
0001
0000
0000
0001
0000
0000
0000
0100
0000
0010
0000
1000
0000
,
1010
0000
1100
0000
1000
0000
0001
0001
,
0001
0000
0100
0000
0001
0010
1000
0000
,
0001
0000
0000
1000
0000
0000
1000
0000
0001
0000
0000
0010
0000
0000
0100
0000
,
0001
0000
0000
1000
0000
0000
1000
0000
0000
0000
0010
0000
0100
0000
0001
0000
,
0101
0000
0011
0000
0001
0000
1000
1000
,
1000
0000
0010
0000
1000
0100
0001
0000
,
1001
0001
0101
0100
0110
0010
1010
0100
,
1000
0100
1000
1000
0001
0001
0100
0000
,
0010
0000
0000
1000
0000
0000
0001
0000
0100
0000
0001
0000
0001
0000
0000
0000
,
0010
0000
0000
0001
0000
0000
1000
0000
0100
0000
0100
0000
0110
0000
0000
0000
,
1001
1000
1100
0100
0110
0010
0011
0010
,
0001
0010
0001
0001
1000
1000
0010
0000
,
0100
0000
0000
0001
0000
0000
1000
0000
0010
0000
1000
0000
1001
0000
0000
0000
,
0100
0000
0000
1000
0000
0000
0001
0000
0010
0000
0010
0000
0110
0000
0000
0000
,
0101
0000
0010
0000
0010
0010
0000
1000
,
0001
0001
0001
0000
1000
0100
0001
0100
,
1000
0100
0000
0010
0001
1000
0100
1000
,
0100
0001
0000
0000
0010
0000
1100
0000
,
0010
0010
1001
0000
1001
1000
1010
0000
,
1100
0000
0101
0000
0001
0000
0000
0000
1000
0000
0000
0100
0000
0000
0001
0000
,
0000
0100
0100
0001
0001
1000
1000
0000
,
0000
0001
0001
1010
1000
1100
1000
0000
;
