#TITLE:Origami;
#SUBTITLE:;
#ARTIST:Rone;
#TITLETRANSLIT:;
#SUBTITLETRANSLIT:;
#ARTISTTRANSLIT:;
#GENRE:;
#CREDIT:jenro;
#MUSIC:Origami [jenro].ogg;
#BANNER:Origami [jenro]-bn.png;
#BACKGROUND:Origami [jenro]-bg.png;
#CDTITLE:cdtitle.png;
#SAMPLESTART:116.900;
#SAMPLELENGTH:13.714;
#SELECTABLE:YES;
#OFFSET:-0.329;
#BPMS:0.000=140.000;
#STOPS:;
#BGCHANGES:-0.329=Origami [jenro].avi=1.000=1=0=0=StretchNoLoop==CrossFade==,
99999.000=-nosongbg-=1.000=0=0=0=StretchNoLoop====
;
#FGCHANGES:;

//--------------- dance-single - jenro-2022 ----------------
#NOTES:
     dance-single:
     jenro-2022:
     Beginner:
     4:
     0,0,0,0,0:
0000
0000
0000
0000
,
0000
0000
0000
0000
,
0000
0000
0000
0000
,
0000
0000
0000
0000
,
0000
0000
0000
0000
,
0000
0000
0000
0000
,
0000
0000
0000
0000
,
0000
0000
0000
0000
,
2000
0000
3000
0000
,
0002
0000
0003
0000
,
0200
0000
0300
0000
,
0020
0000
0030
0000
,
2000
0000
3001
0000
,
0200
0000
0310
0000
,
2000
3000
1000
0000
,
0200
0300
0010
0000
,
2000
0000
3001
0000
,
0200
0000
0310
0000
,
2000
3000
1000
0000
,
0200
0300
0010
0000
,
2000
0000
0000
3000
2000
0000
0000
0000
,
3200
0000
0020
0300
,
2030
0000
0000
3000
2000
0000
0000
0000
,
3200
0010
0020
0300
,
2030
0000
0000
3000
2000
0000
0000
0000
,
3200
0000
0020
0300
,
2030
0000
0000
3000
2000
0000
0000
0000
,
3200
0010
0020
0300
,
2030
0000
0001
0000
,
3200
0000
0010
0000
,
2300
0000
0100
0000
,
3020
0001
0001
0000
,
2030
0000
0000
3000
2000
0000
0000
0000
,
3020
0100
0100
0000
,
2030
0000
0000
3000
2000
0000
0000
0000
,
3020
0100
0100
0000
,
2030
0000
3001
0000
,
2000
0000
3010
0000
,
2000
0000
3100
0000
,
2000
0000
0000
3000
1001
0000
0000
0000
,
0002
0000
1003
0000
,
0002
0000
0103
0000
,
0002
0000
0013
0000
,
0002
0000
0000
0003
1001
0000
0000
0000
,
2000
0001
3002
0003
,
2000
0010
3020
0030
,
2000
0100
3200
0300
,
2000
3000
2000
3000
2000
0000
3000
0000
,
0002
1000
2003
3000
,
0002
0100
0203
0300
,
0002
0010
0023
0030
,
0002
0003
0002
0003
0002
0000
0003
0000
,
2000
0100
3002
0003
,
2000
0100
3002
0003
,
0002
0100
2003
3000
,
0002
0100
2003
3000
,
2000
0001
3020
0030
,
2000
0001
3020
0030
,
0002
1000
0023
0030
,
0002
1000
0023
0030
,
2000
0010
3200
0300
,
2000
0010
3200
0300
,
0002
0100
0023
0030
,
0002
0100
0023
0030
,
2000
0001
0001
0000
,
0001
0001
0001
0000
,
0001
0001
0010
0000
,
0001
0001
0010
3000
,
0020
0100
0001
0130
,
0200
0010
1000
0310
,
0020
0001
1000
0031
,
0200
1000
0001
1300
,
0020
0100
1000
0130
,
0200
0010
0001
0310
,
0020
1000
0001
1030
,
0200
0001
1000
0301
,
0200
0010
0001
0310
,
0020
0100
1000
0130
,
0200
0001
1000
0301
,
0020
1000
0001
1030
,
0200
0010
1000
0310
,
0020
0100
0001
0130
,
0200
1000
0001
1300
,
0020
0001
1000
0031
;

//--------------- dance-single - jenro-2022 ----------------
#NOTES:
     dance-single:
     jenro-2022:
     Easy:
     6:
     0,0,0,0,0:
0000
0000
0000
0000
,
0000
0000
0000
0000
,
0000
0000
0000
0000
,
0000
0000
0000
0000
,
0000
0000
0000
0000
,
0000
0000
0000
0000
,
0000
0000
0000
0000
,
0000
0000
0000
0000
,
1000
0000
0100
0000
,
1000
0000
0010
0000
,
0010
0000
0001
0000
,
0010
0000
0010
0000
,
0100
1000
0001
0010
,
0100
1000
0010
0000
,
0100
1000
0001
0010
,
0100
1000
0010
0000
,
0010
0001
1000
0100
,
0010
0001
0100
0000
,
0010
0001
1000
0100
,
0010
0001
0100
0000
,
0002
1000
0100
0013
,
0002
1000
0010
0103
,
2000
0001
0010
3100
,
2000
0001
0100
3010
,
0200
0001
0010
1300
,
0020
1000
0100
0031
,
0020
1000
0100
0031
,
0200
0001
0010
1300
,
0002
1003
0002
0013
,
0002
0103
0101
0001
,
2000
3001
2000
3100
,
2000
3010
1010
1000
,
2001
0001
0100
3010
,
1002
1000
0100
0013
,
0012
0100
1000
0013
,
2010
0100
0001
3010
,
1000
0000
0100
0000
,
0000
0100
0110
0000
,
0001
0000
0100
0000
,
0000
0100
0110
0000
,
0001
0000
0010
0000
,
0000
0010
0110
0000
,
1000
0000
0010
0000
,
0000
0010
0110
0000
,
2000
0100
3001
2000
,
0010
3001
2000
0001
,
3100
2000
0001
3010
,
2000
0010
3010
2000
,
3200
0320
0230
0302
,
0203
0320
0230
2300
,
3020
0230
0320
0032
,
0023
0230
0320
2030
,
3002
0100
2003
0000
,
3100
0010
0202
0303
,
2000
0100
3002
0000
,
0103
0010
2200
3300
,
0002
0010
2003
0000
,
3010
0100
0022
0033
,
2000
0010
3002
0000
,
0013
0100
2020
3030
,
2000
3001
2000
3100
,
0002
1003
0002
0103
,
0002
0013
2000
3100
,
0002
0010
1000
0103
,
0002
1003
0002
0013
,
2000
3001
2000
3010
,
2000
3100
0002
0013
,
2000
0100
0001
3010
,
0010
1000
0120
0130
,
0100
0001
0210
0310
,
0100
0001
0210
0310
,
0010
1000
0120
0130
,
1000
0100
0021
0031
,
0001
0100
1020
1030
,
0001
0010
1200
1300
,
1000
0010
0201
0301
,
1010
0100
2010
3010
,
0011
0100
0012
0013
,
0101
0010
0102
0103
,
1100
0010
2100
3100
,
0101
0010
0102
0103
,
1100
0010
2100
3100
,
1010
0100
2010
3010
,
0011
0100
0012
0020
,
0000
0000
0033
0000
;

//--------------- dance-single - jenro-2022 ----------------
#NOTES:
     dance-single:
     jenro-2022:
     Medium:
     10:
     0,0,0,0,0:
0000
0000
0000
0000
,
0000
0000
0000
0000
,
0000
0000
0000
0000
,
0000
0000
0000
0000
,
0000
0000
0000
0000
,
0000
0000
0000
0000
,
0000
0000
0000
0000
,
0000
0000
0000
0000
,
1000
1000
0100
0100
,
1000
1000
0010
0010
,
1000
1000
0001
0001
,
1000
1000
0010
0100
,
0001
0100
0010
0000
1000
0100
0010
0000
,
0001
1000
0010
0000
1000
0001
0000
0000
,
1000
0100
0010
0000
0001
0100
0010
0000
,
1000
0001
0010
0000
0001
1000
0000
0000
,
0001
1000
0010
0000
1000
0001
0010
0000
,
0001
0100
0010
0000
1000
0100
0000
0000
,
1000
0001
0010
0000
0001
1000
0010
0000
,
1000
0100
0010
0000
0001
0100
0000
0000
,
0010
1000
0010
0000
0010
1000
0010
0000
,
1000
0001
0100
0000
0100
0001
0100
0000
,
0100
0001
0010
0000
0010
0001
0010
0000
,
0010
0100
1000
0000
1000
0100
1000
0000
,
0100
1000
0100
0000
0100
1000
0100
0000
,
1000
0001
0010
0000
0010
0001
0010
0000
,
0010
0001
0100
0000
0100
0001
0100
0000
,
0100
0010
1000
0000
1000
0010
1000
0000
,
1000
0001
0100
0010
1000
0001
0100
0000
,
0010
1000
0100
0000
0010
0001
0000
0000
,
1000
0001
0010
0100
1000
0001
0010
0000
,
0100
1000
0010
0000
0100
0001
0000
0000
,
0001
1000
0010
0100
0001
1000
0010
0000
,
0100
0001
0010
0000
0100
1000
0000
0000
,
0001
1000
0100
0010
0001
1000
0100
0000
,
0010
0001
0100
0000
0010
1000
0000
0000
,
0001
0000
0100
0000
0000
0010
0000
0000
1000
0000
0000
0001
0000
0000
0100
0000
,
0000
1000
0000
0000
0001
0000
0000
0100
0000
0000
1000
0000
0000
0001
0000
0000
,
0100
0000
0000
1000
0000
0000
0001
0000
0000
0100
0000
0000
1000
0000
0000
0001
,
0000
0000
0100
0000
0000
1000
0000
0000
0010
0000
0000
0010
0000
0000
0010
0000
,
1000
0000
0010
0000
0000
0100
0000
0000
0001
0000
0000
1000
0000
0000
0010
0000
,
0000
0001
0000
0000
1000
0000
0000
0010
0000
0000
0001
0000
0000
1000
0000
0000
,
0010
0000
0000
0001
0000
0000
1000
0000
0000
0010
0000
0000
0001
0000
0000
1000
,
0000
0000
0010
0000
0000
0001
0000
0000
0100
0000
0000
0100
0000
0000
0100
0000
,
0010
1000
0010
1000
0001
0100
0010
0100
,
0010
0100
0001
0100
0010
1000
0010
1000
,
0001
0100
0010
0100
0010
0100
0001
0100
,
0010
0100
0001
1000
0100
0010
0001
0000
,
0100
0001
0100
0001
1000
0010
0100
0010
,
0100
0010
1000
0010
0100
0001
0100
0001
,
1000
0010
0100
0010
0100
0010
1000
0010
,
0100
0010
1000
0001
0010
0100
1000
0000
,
0001
0100
0010
0000
1000
0100
0010
0000
,
0001
1000
0010
0000
1000
1001
0000
0000
,
1000
0100
0010
0000
0001
0100
0010
0000
,
1000
0001
0010
0000
0001
1001
0000
0000
,
0001
1000
0010
0000
1000
0001
0010
0000
,
0001
0100
0010
0000
1000
1100
0000
0000
,
1000
0001
0010
0000
0001
1000
0010
0000
,
1000
0100
0010
0000
0001
0101
0000
0000
,
0001
0100
0020
0000
1030
0100
0020
0000
,
0031
1000
0010
0000
1000
1001
0000
0000
,
1000
0100
0020
0000
0031
0100
0020
0000
,
1030
0001
0010
0000
0001
1001
0000
0000
,
0001
1000
0020
0000
1030
0001
0020
0000
,
0031
0100
0010
0000
1000
1100
0000
0000
,
1000
0001
0020
0000
0031
1000
0020
0000
,
1030
0100
0010
0000
0001
0101
0000
0000
,
0001
0000
0100
0000
0000
0101
0000
0000
0001
0000
0000
0100
0000
0000
0001
0000
,
1000
0000
0100
0000
0000
1100
0000
0000
1000
0000
0000
0100
0000
0000
1000
0000
,
0010
0000
1000
0000
0000
1010
0000
0000
0010
0000
0000
1000
0000
0000
0010
0000
,
0001
0000
0010
0000
0000
0011
0000
0000
0010
0000
0000
0001
0000
0000
0010
0000
,
1000
0000
0100
0000
0000
1100
0000
0000
1000
0000
0000
0100
0000
0000
1000
0000
,
0001
0000
0100
0000
0000
0101
0000
0000
0001
0000
0000
0100
0000
0000
0001
0000
,
0010
0000
0001
0000
0000
0011
0000
0000
0010
0000
0000
0001
0000
0000
0010
0000
,
1000
0000
0010
0000
0000
1010
0000
0000
0010
0000
0000
1000
0000
0000
0010
0000
,
0100
0000
0001
0000
0010
0001
0000
0000
0100
0000
0001
0000
0000
0001
0010
0100
,
0000
0000
1000
0000
0010
1000
0000
0000
0100
0000
1000
0000
0000
1000
0010
0100
,
0000
0000
0001
0000
0000
0001
0000
0000
1001
0000
0000
1000
0000
0000
1000
0000
,
0010
0000
0100
0000
0000
0100
0000
0000
0110
0000
0000
0010
0000
0000
0010
0000
,
0010
0000
1000
0000
0100
1000
0000
0000
0010
0000
1000
0000
0000
1000
0100
0010
,
0000
0000
0001
0000
0100
0001
0000
0000
0010
0000
0001
0000
0000
0001
0100
0010
,
0000
0000
1000
0000
0000
1000
0000
0000
1001
0000
0000
0001
0000
0000
0001
0000
,
0100
0000
0010
0000
0000
0010
0000
0000
0110
0000
0000
0100
0000
0000
0200
0000
,
0000
0000
0000
0300
0000
0000
0000
0000
;

//--------------- dance-single - jenro-2022 ----------------
#NOTES:
     dance-single:
     jenro-2022:
     Hard:
     15:
     0,0,0,0,0:
0000
0000
0000
0000
,
0000
0000
0000
0000
,
0000
0000
0000
0000
,
0000
0000
0000
0000
,
0000
0000
0000
0000
,
0000
0000
0000
0000
,
0000
0000
0000
0000
,
0000
0000
0000
0000
,
0001
0000
1000
0000
0000
0010
0000
0000
1000
0000
0000
0001
0000
0000
0100
0000
,
0001
0000
1000
0000
0000
0010
0000
0000
1000
0000
0000
0001
0000
0000
0100
0000
,
0001
0000
0010
0000
0000
0010
0000
0000
0100
0000
0000
1000
0000
0000
1000
0000
,
0010
0000
0100
0000
0000
0100
0000
0000
0001
0000
0000
0010
0000
0000
0010
0000
,
0001
0000
0100
0000
0001
0000
1000
0000
0100
1000
0100
0000
0001
0000
1000
0000
,
0100
1000
0100
0000
0001
0000
1000
0000
0100
0000
0100
0000
0000
0000
0000
0000
,
1000
0000
0100
0000
1000
0000
0001
0000
0100
0001
0100
0000
1000
0000
0001
0000
,
0100
0001
0100
0000
1000
0000
0001
0000
0100
0000
0100
0000
0000
0000
0000
0000
,
0001
0000
0010
0000
0001
0000
1000
0000
0010
1000
0010
0000
0001
0000
1000
0000
,
0010
1000
0010
0000
0001
0000
1000
0000
0010
0000
0010
0000
0000
0000
0000
0000
,
1000
0000
0010
0000
1000
0000
0001
0000
0010
0001
0010
0000
1000
0000
0001
0000
,
0010
0001
0010
0000
1000
0000
0001
0000
0010
0000
0010
0000
0000
0000
0000
0000
,
0001
0010
0100
0000
0100
1000
0000
1000
0100
0000
0100
0010
0000
0001
0010
0001
,
0000
0001
0100
0000
0100
0001
0000
0001
0010
0000
0010
0100
0000
1000
0100
1000
,
0000
1000
0010
0000
0010
0100
0000
0100
0001
0000
0001
1000
0000
1000
0001
0100
,
0000
0010
0100
0000
0100
0010
0000
0010
0100
0000
0100
0010
0000
0100
0010
1000
,
0000
0100
0010
0000
0010
0001
0000
0001
0010
0000
0010
0100
0000
1000
0100
1000
,
0000
1000
0010
0000
0010
1000
0000
1000
0100
0000
0100
0010
0000
0001
0010
0001
,
0000
0001
0100
0000
0100
0010
0000
0010
1000
0000
1000
0001
0000
0001
1000
0010
,
0000
1000
0010
0000
1000
0100
0000
0100
0010
0000
0010
0001
0000
0010
0100
1000
,
0000
1000
0001
0000
0100
0001
0000
0010
0001
0000
0100
0001
0000
1000
0001
1000
,
0000
0001
1000
0000
0100
1000
0000
0010
1000
0000
0100
1000
0000
0001
1000
0001
,
0000
1000
0001
0000
0010
0001
0000
0100
0001
0000
0010
0001
0000
1000
0010
1000
,
0000
0001
1000
0000
0010
1000
0000
0100
1000
0000
0010
1000
0000
0001
0010
0001
,
0000
0100
0001
0000
0100
0010
0000
0100
0001
0000
0100
0010
0000
0100
0010
1000
,
0000
0100
1000
0000
0100
0010
0000
0100
1000
0000
0100
0010
0000
0100
0010
0001
,
0000
0010
0001
0000
0010
0100
0000
0010
0001
0000
0010
0100
0000
0010
0100
1000
,
0000
0010
1000
0000
0010
0100
0000
0010
1000
0000
0010
0100
0000
0010
0100
0001
,
0000
0000
0100
0000
0000
0010
0000
0000
1001
0000
0000
0001
0000
0000
0100
0000
,
0000
1000
0000
0000
0001
0000
0000
0100
0000
0000
1000
0000
0000
0001
0000
0000
,
0100
0000
0000
1000
0000
0000
0001
0000
0000
0100
0000
0000
1000
0000
0000
0001
,
0000
0000
0100
0000
0000
1000
0000
0000
0010
0000
0000
0010
0000
0000
0010
0000
,
1000
0000
0010
0000
0000
0100
0000
0000
1001
0000
0000
1000
0000
0000
0010
0000
,
0000
0001
0000
0000
1000
0000
0000
0010
0000
0000
0001
0000
0000
1000
0000
0000
,
0010
0000
0000
0001
0000
0000
1000
0000
0000
0010
0000
0000
0001
0000
0000
1000
,
0000
0000
0010
0000
0000
0001
0000
0000
0100
0000
0000
0100
0000
0000
0100
0000
,
0010
0000
0010
1000
0010
0000
0100
0000
0001
0100
0000
0001
0100
0000
0001
0010
,
0000
0001
0010
0000
0100
0010
0000
0100
0010
0000
0100
1000
0000
0100
1000
0000
,
0010
1000
0000
0010
1000
0000
0001
0100
0000
0001
0100
0000
0010
0100
0000
0010
,
0100
0000
0001
1000
0000
0001
1000
0000
0010
0100
0000
0001
1000
0000
0010
0000
,
1000
0000
0000
0100
0000
0000
0010
0000
0000
1000
0000
0000
0100
0000
0000
0010
,
0000
0000
1000
0000
0000
0100
0000
0000
0010
0000
0000
1000
0000
0000
0100
0000
,
0000
0010
0000
0000
1000
0000
0000
0100
0000
0000
0010
0000
0000
1000
0000
0000
,
0100
0000
0000
0010
0000
0000
1000
0000
0000
0100
0000
0000
0010
0000
0000
0000
,
0001
0100
0001
0000
0100
0000
1000
0000
1000
0100
1000
0000
0001
0000
1000
0000
,
1000
0100
1000
0000
0001
0000
1000
0000
0100
0000
0200
0000
0300
0000
0000
0000
,
1000
0100
1000
0000
1000
0000
0001
0000
0100
0001
0100
0000
1000
0000
0001
0000
,
0100
0001
0100
0000
1000
0000
0001
0000
0100
0000
0200
0000
0300
0000
0000
0000
,
0001
0010
0001
0000
0001
0000
1000
0000
0010
1000
0010
0000
0001
0000
1000
0000
,
0010
1000
0010
0000
0001
0000
1000
0000
0010
0000
0020
0000
0030
0000
0000
0000
,
1000
0010
1000
0000
1000
0000
0001
0000
0010
0001
0010
0000
1000
0000
0001
0000
,
0010
0001
0010
0000
1000
0000
0001
0000
0010
0000
0020
0000
0030
0000
0000
0000
,
1000
0001
1000
0000
0010
0000
0100
0000
1000
0100
1000
0000
0010
0000
0001
0000
,
0010
0100
0010
0000
1000
0000
0100
0000
0001
0000
0200
0000
0300
0000
0000
0000
,
0001
1000
0001
0000
0010
0000
0100
0000
0001
0100
0001
0000
0010
0000
1000
0000
,
0010
0100
0010
0000
0001
0000
0100
0000
1000
0000
0200
0000
0300
0000
0000
0000
,
0001
0010
0001
0000
0010
0000
0010
0000
0100
1000
0100
0000
0100
0000
1000
0000
,
0010
0100
0010
0000
0001
0000
1000
0000
0100
0000
0200
0000
0300
0000
0000
0000
,
1000
0010
1000
0000
0010
0000
0010
0000
0100
0001
0100
0000
0100
0000
0001
0000
,
0010
0100
0010
0000
1000
0000
0001
0000
0100
0000
0200
0000
0300
0000
0000
0000
,
0001
1000
0001
0000
1000
0001
0000
1000
0100
0000
0100
0010
0000
0001
0100
0010
,
0000
0010
1000
0000
1000
0100
0000
0100
0010
0000
0010
0001
0000
0001
0100
0010
,
0000
1000
0100
0000
1000
0100
0000
1000
0001
0000
1000
0001
0000
1000
0100
0010
,
0000
0001
0100
0000
0001
0100
0000
0001
1000
0000
0001
1000
0000
0001
0100
0010
,
1000
0001
1000
0000
0001
1000
0000
0001
0010
0000
0010
0100
0000
1000
0010
0100
,
0000
0100
0001
0000
0001
0010
0000
0010
0100
0000
0100
1000
0000
1000
0010
0100
,
0000
0001
0010
0000
0001
0010
0000
0001
1000
0000
0001
1000
0000
0001
0010
0100
,
0000
1000
0010
0000
1000
0010
0000
1000
0001
0000
1000
0001
0000
1000
0010
0100
,
0001
0100
0001
0000
0100
0001
0000
0100
0010
0000
0100
0001
0000
0100
0001
1000
,
0100
1000
0100
0000
1000
0100
0000
0010
0100
0000
1000
0100
0000
0010
0100
1000
,
0001
1000
0100
0000
0010
0001
0000
1000
0100
0000
0010
0001
0000
0100
0010
0100
,
0001
1000
0100
0000
1000
0010
0000
1000
0001
0000
1000
0100
0000
1000
0010
0100
,
0001
0010
0001
0000
0010
0001
0000
0010
0100
0000
0010
0001
0000
0010
0001
1000
,
0010
1000
0010
0000
1000
0010
0000
0100
0010
0000
1000
0010
0000
0100
0010
1000
,
0001
1000
0010
0000
0100
0001
0000
1000
0010
0000
0100
0001
0000
0010
0100
0010
,
0001
1000
0010
0000
1000
0100
0000
1000
0001
0000
1000
0010
0000
1000
0200
0000
,
0000
0000
0000
0300
0000
0000
0000
0000
;
