#TITLE:Mean It;
#SUBTITLE:;
#ARTIST:Manila Killa, San Holo feat. Nick Lopez;
#TITLETRANSLIT:;
#SUBTITLETRANSLIT:;
#ARTISTTRANSLIT:;
#GENRE:;
#CREDIT:Jenro;
#MUSIC:Mean It [jenro].ogg;
#BANNER:Mean It [jenro]-bn.png;
#BACKGROUND:Mean It [jenro]-bg.png;
#CDTITLE:cdtitle.png;
#SAMPLESTART:30.708;
#SAMPLELENGTH:15.118;
#SELECTABLE:YES;
#OFFSET:-0.472;
#BPMS:0.000=127.000
,31.000=254.000
,32.000=127.000
;
#STOPS:31.000=0.236
,92.000=0.945
,186.000=1.417
;
#DISPLAYBPM:127.000;
#BGCHANGES:;
#FGCHANGES:;

//--------------- dance-single - jenro-2022 ----------------
#NOTES:
     dance-single:
     jenro-2022:
     Beginner:
     1:
     0,0,0,0,0:
0000
0000
0000
0000
,
0000
0000
0000
0000
,
0000
0000
0000
0000
,
0000
0000
0000
0000
,
0000
0000
0000
0000
,
0000
0000
0000
0000
,
0000
0000
0000
0000
,
0000
0000
0000
0000
,
0000
0010
0000
0010
,
0000
0010
0000
0010
,
0000
0010
0000
0010
,
0000
0010
0000
1000
,
0000
0010
0000
0010
,
0000
0010
0000
0010
,
0000
0100
0000
0100
,
0000
0001
0000
0000
,
1000
0000
0100
0000
,
1000
0000
0001
0000
,
0010
0000
0010
0000
,
0010
0000
0010
0000
,
0001
0000
0010
0000
,
0001
0000
0100
0000
,
1000
0000
0001
0000
,
0100
0000
0000
0010
,
0000
0010
0000
1000
,
0000
1000
0000
0001
,
0000
0001
0000
0100
,
0000
0001
0000
0010
,
0000
0010
0000
0001
,
0000
0001
0000
1000
,
0000
1000
0000
0100
,
0000
1000
0000
0000
,
0000
0000
0000
0010
,
0000
0100
0000
0001
,
0000
1000
0000
0100
,
0000
0001
0000
0010
,
0000
0100
0000
0001
,
0000
0100
0000
1000
,
0000
0100
0000
0001
,
0000
0100
0000
0000
,
0010
0000
0000
0000
,
0010
0000
0000
0000
,
0010
0000
0000
0000
,
0000
0000
0010
0000
,
0010
0000
0010
0000
,
0010
0000
0010
0000
,
0010
0000
0000
1000
,
0000
1000
0000
1000
,
0000
1000
0000
1000
,
0000
0001
0000
1000
,
0000
1000
0000
0001
,
0000
1000
0000
1000
,
0000
0001
0000
1000
,
0000
1000
0000
0001
,
0000
1000
0000
0001
,
0000
0001
0000
1000
,
0000
1000
0000
0001
,
0000
1000
0000
0001
,
0000
1000
0000
1000
,
0000
1000
0000
1000
,
0000
0001
0000
1000
,
0000
0001
0000
1000
,
0000
0010
0000
0001
;

//--------------- dance-single - jenro-2022 ----------------
#NOTES:
     dance-single:
     jenro-2022:
     Easy:
     4:
     0,0,0,0,0:
0000
0000
0000
0000
,
0000
0000
0000
0000
,
0000
0000
0000
0000
,
0000
0000
0000
0000
,
0000
0000
0000
0000
,
0000
0000
0000
0000
,
0000
0000
0000
0000
,
0000
0000
0000
0000
,
0000
0000
0010
1000
,
0100
0000
0010
1000
,
0100
0000
0100
1000
,
0010
0000
0020
0032
,
0003
0000
0010
0001
,
0100
0000
0100
0001
,
0010
0000
0010
1000
,
0100
0000
0200
2300
,
3000
1000
1000
1000
,
0000
0001
0001
0001
,
0000
0100
0100
0100
,
0000
0010
0010
0100
,
1000
1000
1000
0100
,
0001
0001
0001
0100
,
0100
0001
0010
1000
,
0000
0000
1000
0001
,
0100
0010
1000
0001
,
0100
0010
1000
0001
,
0100
0010
0010
0100
,
0001
1000
0001
1000
,
0100
0010
0001
1000
,
0100
0010
0001
1000
,
0100
0010
0010
0100
,
1000
0001
0200
0000
,
0000
0300
0010
1000
,
0010
1000
0001
0100
,
0001
0100
0010
0100
,
0010
0100
0010
0001
,
0010
0001
1000
0100
,
1000
0100
0010
0100
,
0010
0100
0100
0001
,
0100
1000
0000
0001
,
0000
0000
0001
0000
,
0000
0000
0001
0000
,
0000
0000
0001
0000
,
0000
0000
0100
0000
,
0100
0000
0100
0000
,
0100
0000
0100
0010
,
1001
1001
0000
1100
,
0001
0010
1000
1100
,
0001
0010
1000
1100
,
0001
0010
1000
1100
,
0101
0010
0001
0101
,
1000
0010
0001
0101
,
1000
0010
0001
0101
,
1000
0010
0001
0101
,
1100
0020
0001
1030
,
0100
0110
0010
0001
,
0110
1000
0110
0101
,
0100
0010
0002
1003
,
0010
0100
0011
1010
,
0200
1300
0001
1000
,
0010
1001
0100
0010
,
0010
0100
0100
1001
,
0100
1000
0020
0130
;

//--------------- dance-single - jenro-2022 ----------------
#NOTES:
     dance-single:
     jenro-2022:
     Medium:
     9:
     0,0,0,0,0:
0000
0000
0000
0000
,
0000
0000
0000
0000
,
0000
0000
0000
0000
,
0000
0000
0000
0000
,
0000
0000
0000
0000
,
0000
0000
0000
0000
,
0000
0000
0000
0000
,
0000
0000
0000
0000
,
0001
1000
1000
0000
1000
0100
0100
0000
,
0100
0001
0100
1000
,
1000
0010
0010
0000
0010
0100
0100
0000
,
0100
0000
0010
0000
0100
0001
1000
0000
,
0001
1000
1000
0000
1000
0010
0010
0000
,
0010
1000
0001
0010
,
0100
1000
1000
0000
0001
0100
0100
0000
,
0010
0220
0330
0000
,
0001
0000
0100
0000
1000
0001
0100
0000
,
0001
0010
0001
0010
,
1000
0000
0100
0000
0001
1000
0100
0000
,
1000
0010
1000
0010
,
0120
0000
0130
0000
0100
0100
0100
0000
,
0102
0013
0010
0010
,
0001
0001
0010
1000
1000
0100
0010
0200
,
M3M0
0000
1100
0000
1000
0000
0001
0100
,
0001
0100
0010
0000
1000
0000
0001
0100
,
0001
0100
0010
0000
1000
0001
0001
0100
,
0001
0100
0020
0000
1030
0001
0001
0100
,
0001
0100
0020
0000
1030
0000
0100
1000
,
0010
1000
0100
0000
1000
0000
0100
1000
,
0010
1000
0100
0000
1000
1000
0100
1000
,
0010
1000
0200
0000
1300
1000
0100
1000
,
0010
1000
0110
0000
1000
1000
0001
1000
,
1000
0002
0100
0010
0013
0000
1000
0100
,
0010
2000
0100
0100
3010
0000
0001
0001
,
0001
2000
0010
0100
3100
0002
0100
0100
,
0013
2000
0010
0100
3100
0000
1000
0010
,
0001
0100
0002
0000
1003
0000
0001
0010
,
1000
0100
2000
0000
3001
0000
1000
1000
,
0010
0200
0001
0302
0103
0020
1000
2030
,
3000
0001
1000
0001
0200
0000
0000
0000
,
0000
0000
0302
0000
,
0000
0000
2003
0000
,
0000
0000
3020
0000
,
0000
0000
0000
0000
0130
0001
0100
0010
,
0100
0001
0100
0010
0100
1000
0100
1000
,
0100
0010
0100
0010
0100
0001
0100
0001
,
1000
0001
0100
0010
1000
0001
0000
0000
0000
11MM
0000
0000
,
0010
0001
0001
0010
0010
0010
0010
0000
,
0010
110M
0000
0000
1100
0000
0101
0000
,
0010
0010
0010
1000
0001
1000
0000
0100
,
1000
0100
0000
0010
0001
0010
1100
0000
,
0010
0010
M011
0000
0010
0010
0010
0010
,
0010
110M
0000
0000
1100
0000
0101
0000
,
1000
1000
1000
0001
0000
0100
0000
1000
,
0000
0100
0000
0001
0000
0100
M11M
0000
,
1000
1000
0101
0000
0100
0100
0100
0000
,
0100
M101
0000
0000
1100
0000
0110
0000
,
0010
1000
1000
0001
0100
1000
0000
0001
,
0100
1000
0000
0001
0100
1000
10M0
0000
,
0001
0001
0101
0100
0000
0101
0000
0100
,
0010
M110
0000
0000
1001
0000
0110
0000
,
1000
1000
1000
0001
0000
0100
0000
0010
,
0000
1000
0000
0100
0000
0010
0000
0000
;

//--------------- dance-single - jenro-2022 ----------------
#NOTES:
     dance-single:
     jenro-2022:
     Hard:
     15:
     0,0,0,0,0:
0000
0000
0000
0000
,
0000
0000
0000
0000
,
0000
0000
0000
0000
,
0000
0000
0000
0000
,
0000
0000
0000
0000
,
0000
0000
0000
0000
,
0000
0000
0000
0000
,
0000
0000
0000
0000
,
0001
1000
0100
1000
0100
1000
0001
0000
,
1000
0000
0100
0001
0100
0000
1000
0000
,
0010
0100
1000
0100
0010
0100
1000
0000
,
0100
0000
0001
0010
0001
0100
0001
0000
,
0001
1000
0010
1000
0010
1000
0001
0000
,
1000
0000
0010
0001
0010
0000
1000
0000
,
0100
0010
1000
0010
0100
0010
1000
0000
,
0010
0000
0001
0100
0001
0000
0002
0000
,
1003
0100
1000
0010
0100
0010
1000
0000
,
0001
0100
0001
0010
0100
0010
0001
0000
,
1000
0010
0100
0001
0010
0100
1000
0000
,
0001
0100
0010
1000
0100
0010
0001
0000
,
1000
0100
0010
0100
1000
0010
1000
0000
,
0001
0010
0100
0010
0001
0100
0001
0000
,
0100
0100
0010
0010
1000
1000
0001
0001
,
MMMM
0000
0000
0000
2000
3000
0000
0000
0100
0000
0010
0000
0001
0100
0001
0000
,
0010
0000
0100
0000
1000
0100
1000
0000
0100
0000
0010
0000
0001
0100
0001
0000
,
0010
0000
0100
0000
1000
0100
1000
0000
0001
0000
0100
0000
0001
1000
0001
0000
,
1000
0000
0100
0000
1000
0001
1000
0000
0010
0000
1000
0000
0001
0000
0100
0000
,
0001
0000
0010
0000
0100
0000
0000
0000
0100
0000
0010
0000
1000
0100
1000
0000
,
0010
0000
0100
0000
0001
0100
0001
0000
0100
0000
0010
0000
1000
0100
1000
0000
,
0010
0000
0100
0000
0001
0100
0001
0000
1000
0000
0100
0000
1000
0001
1000
0000
,
0001
0000
0100
0000
0001
1000
0001
0000
0010
0000
0001
0000
1000
0000
0100
0000
,
1000
0010
0100
0000
1000
1000
1000
1000
,
1000
0000
0001
0000
0000
0000
0101
0000
0100
0000
0000
0000
0010
1000
0010
1000
,
0100
0000
1000
0000
0000
0000
1100
0000
0000
0000
0000
0000
0010
0001
0010
0001
,
0100
0001
1000
0101
0000
1000
0001
1100
,
0000
0000
0001
0000
0100
0000
0101
0000
0100
0000
0000
0000
0010
1000
0001
0100
,
0010
0000
0010
0000
0100
0000
1010
0000
0000
0000
0000
0000
0010
0001
1000
0100
,
0010
0000
0010
0000
0001
0000
0101
0000
0000
0000
0000
0000
0100
1000
0001
1000
,
0100
0010
0001
0011
0000
1000
0010
1010
,
0000
0001
0100
1001
0100
0000
0100
0000
,
0100
0100
1000
1000
,
1000
1000
0001
0001
,
0001
0001
0100
0100
,
0100
0000
0100
0000
0010
0010
0010
0010
,
1000
2000
3001
1000
0001
0001
0001
0001
,
0100
0000
0100
0000
0020
0000
0130
0000
1000
0100
1000
0001
0100
0010
1000
0001
,
0100
0000
0000
0000
1000
0000
0000
0000
0010
0000
0000
0000
0001
0000
0000
0000
0100
0000
0000
0000
0010
0000
0000
0000
MMMM
0000
0000
0000
0000
0000
0000
0000
0000
0000
0000
0000
1000
0000
0000
0001
0000
0000
1000
0000
0000
0001
0000
0000
,
1000
0000
1100
0000
0110
0000
0001
0000
0000
0000
0101
0000
0000
0000
0100
0010
,
0100
0000
0110
0000
0101
0000
0000
0000
0110
0000
0000
0000
1010
0000
1000
0001
,
1000
1001
1100
0001
0100
0101
0000
1100
,
1000
0000
0100
0000
1000
0100
1000
0000
0100
0010
0100
0000
1100
0000
0000
0000
,
0110
0011
1001
0101
0000
1010
0000
1001
,
1001
0000
0110
0000
1001
0000
0100
0000
0010
0100
0010
0000
1010
0000
0000
0000
,
0101
1100
0101
0110
0100
1001
0000
0110
,
1010
0000
0000
0000
0000
0000
0110
0000
0000
0000
0000
0000
0000
0000
0000
0000
0000
0000
0101
0000
0000
0000
0000
0000
0010
0000
0000
0000
1000
0000
0000
0000
0001
0000
0000
0000
0100
0000
0000
0000
0000
0000
0001
0000
0000
1000
0000
0000
,
0100
0000
0100
0000
1010
0000
0000
0000
0010
0000
1010
0000
0000
0000
0010
0100
,
0001
0000
0010
0000
0101
0000
0100
0000
0110
0000
0010
1000
0010
0000
0000
0000
,
1000
0001
1000
0000
0011
0000
1010
0000
1000
0000
1001
0000
1000
0100
1000
0000
,
0010
0000
0101
0000
0001
0000
0100
0000
0010
1000
0010
0000
1010
0000
0000
0000
,
1000
0100
0010
0000
0101
0000
0100
0000
0110
0000
0100
0000
0001
0100
0001
1000
,
0001
0000
0101
0000
0001
0010
0001
0000
1001
0000
1000
0000
0110
0000
0000
0000
,
0010
0100
0010
0001
1000
0000
0010
0000
1000
0000
0011
0000
0010
0000
0100
0010
,
0100
1010
0010
1000
0011
1100
0101
0000
;
