#TITLE:Made of Stars;
#SUBTITLE:;
#ARTIST:Marnik ft. PollyAnna;
#TITLETRANSLIT:;
#SUBTITLETRANSLIT:;
#ARTISTTRANSLIT:;
#GENRE:;
#CREDIT:jenro;
#MUSIC:Made of Stars [jenro].ogg;
#BANNER:Made of Stars [jenro]-bn.png;
#BACKGROUND:Made of Stars [jenro]-bg.png;
#CDTITLE:cdtitle.png;
#SAMPLESTART:31.335;
#SAMPLELENGTH:15.238;
#SELECTABLE:YES;
#OFFSET:-0.383;
#BPMS:0.000=126.000;
#STOPS:;
#BGCHANGES:;
#FGCHANGES:;

//--------------- dance-single - jenro-2020 ----------------
#NOTES:
     dance-single:
     jenro-2020:
     Beginner:
     2:
     0,0,0,0,0:
0000
0000
0000
0000
,
0000
0000
0000
0000
,
0000
0000
0000
0000
,
0000
0000
0000
0000
,
0000
1000
0000
0001
,
0000
0100
0000
0000
,
0001
0010
0000
0000
,
0000
1001
0000
0000
,
0000
0100
0000
0100
,
0000
1000
0000
1000
,
0000
0001
0000
0010
,
0000
0001
0001
0001
,
0000
0010
0000
0010
,
0000
0001
0000
0001
,
0000
1000
0000
0100
,
0000
1000
1000
1000
,
0000
0001
0010
1000
,
0010
0001
0010
1000
,
0010
0001
0000
1000
,
1000
0001
0000
1001
,
0000
1000
0010
0001
,
0010
1000
0010
0001
,
0010
1000
0000
0001
,
0001
1000
0000
1001
,
0000
0010
0000
1000
,
0000
0001
0000
0100
,
0000
0001
0000
1000
,
0000
0010
0000
0100
,
0000
1000
0000
0001
,
0000
0100
0000
0000
,
0001
0010
0000
0000
,
0001
0010
0000
0000
,
0000
0100
0000
0001
,
0000
1000
0000
0010
,
0000
1000
0000
0001
,
0000
0100
0000
0010
,
0000
0001
0000
1000
,
0000
0010
0000
0000
,
1000
0100
0000
0000
,
0000
1001
0000
0000
,
0000
0002
0003
0000
,
0000
2000
3000
0000
,
0000
0002
0003
0000
,
0000
0020
0000
0031
,
0000
2000
3000
0000
,
0000
0002
0003
0000
,
0000
2000
3000
0000
,
0000
0020
0000
1030
,
0000
0100
0000
0100
,
0000
1000
1000
1000
,
0000
0001
0000
0010
,
0000
0001
0001
0001
,
0000
0010
0000
0010
,
0000
0001
0001
0001
,
0000
1000
0000
0100
,
0000
1000
1000
1000
,
0000
0001
0010
1000
,
0010
0001
0010
1000
,
0010
0001
0000
1000
,
1000
0001
0000
1001
,
0000
1000
0010
0001
,
0010
1000
0010
0001
,
0010
1000
0000
0001
,
0001
1000
0000
1001
,
0000
1000
0100
0001
,
0100
1000
0100
0001
,
0100
1000
0000
0001
,
0001
1000
0000
1001
;

//--------------- dance-single - jenro-2020 ----------------
#NOTES:
     dance-single:
     jenro-2020:
     Easy:
     3:
     0,0,0,0,0:
0000
0000
0000
0000
,
0000
0000
0000
0000
,
0000
0000
0000
0000
,
0000
0000
0000
0000
,
0000
2000
3000
0002
,
0003
0200
0000
0300
,
0002
0020
0033
0000
,
0000
0011
0000
0000
,
0000
0010
0010
1000
,
0000
0001
0001
0010
,
0000
0001
0000
1000
,
0100
0010
0000
0022
,
0033
0100
0100
0001
,
0000
1000
1000
0100
,
0000
1000
0000
0001
,
0010
0100
0000
2200
,
3300
0001
0001
0010
,
0010
0001
0010
0200
,
0300
1000
1000
0001
,
0001
0100
0100
0010
,
0000
1000
1000
0100
,
0100
1000
0100
0020
,
0030
0001
0001
1000
,
1000
0010
0010
0100
,
0000
1000
1000
0001
,
0000
0001
0001
1000
,
0000
1000
1000
0010
,
0000
0001
0001
0100
,
0000
1000
0001
0100
,
0001
0100
0001
0010
,
0002
0020
0033
0000
,
0002
0020
0033
0000
,
0000
1000
1000
0001
,
0100
0001
0001
1000
,
0010
1000
1000
0010
,
0100
0001
0001
0100
,
0010
1000
0001
0100
,
0001
0100
0001
0010
,
0002
0020
0033
0000
,
0002
0020
0033
0000
,
0000
0011
0000
1000
,
0000
0001
0000
0100
,
0000
1010
0000
0001
,
0000
1000
0000
0100
,
0000
1100
0000
0001
,
0000
1000
0000
0010
,
0000
0101
0000
1000
,
0000
0001
0000
0010
,
0000
0010
0010
1000
,
0000
0001
0001
0010
,
0000
0001
0000
1000
,
0100
0010
0000
0022
,
0033
0100
0100
0001
,
0000
1000
1000
0100
,
0000
1000
0000
0001
,
0010
0100
0000
2200
,
3300
1000
1000
0100
,
0100
1000
0100
0020
,
0030
0001
0001
1000
,
1000
0010
0010
0100
,
0000
0001
0001
0010
,
0010
0001
0010
0200
,
0300
1000
1000
0001
,
0001
0100
0100
0010
,
0000
0001
1000
0010
,
0100
1000
0001
0010
,
0100
0001
0001
0100
,
0010
1000
1000
0010
;

//--------------- dance-single - jenro-2020 ----------------
#NOTES:
     dance-single:
     jenro-2020:
     Medium:
     8:
     0,0,0,0,0:
0000
0000
0000
0000
,
0000
0000
0000
0000
,
0000
0000
0000
0000
,
0000
0000
0000
0000
,
0000
0002
0203
0302
,
2003
3002
0010
0013
,
0002
0020
0033
0000
,
0100
1000
0100
1000
0100
1000
0011
0000
,
1100
0000
1000
0001
0100
0000
0020
0000
,
0130
0000
0001
1000
0100
0000
0020
0000
,
0130
0000
1000
0100
1000
0000
0002
0000
,
0013
0000
0001
0100
0001
1000
0100
1000
,
0011
0000
0001
1000
0010
0000
0200
0000
,
0310
0000
1000
0001
0010
0000
0200
0000
,
0310
0000
0001
0010
0001
0000
2000
0000
,
3100
0000
1000
0010
1000
0001
0010
0000
,
0011
0000
1000
0100
0100
0000
1000
0010
,
0010
0000
1000
0001
0001
0000
0001
0001
,
0100
0000
0010
1000
0001
0100
0010
0010
,
0010
0100
0010
1000
0001
0010
0100
0000
,
0011
0000
0001
0010
0010
0000
0001
0100
,
0100
0000
0001
1000
1000
0000
1000
1000
,
0010
0000
0100
0001
1000
0010
0100
0100
,
0100
0010
0100
0001
1000
0100
0010
0000
,
1100
0001
0001
1000
,
1000
0010
1000
0001
,
0000
1000
1000
0001
,
0001
0100
1000
0001
,
0000
0010
0100
1001
,
0100
0010
0100
0100
,
0020
0002
0033
0000
,
0020
0002
0033
0000
,
0000
0000
0001
1000
0001
0000
1000
0001
,
1000
0000
0010
1000
1000
0001
0001
0000
,
0000
0000
1000
0001
1000
0000
0001
1000
,
0001
0000
0100
1000
1000
0001
0001
0000
,
0000
0000
0010
0100
0010
0000
1001
0000
,
0100
0000
0010
0100
0010
0000
0100
0000
,
0020
0002
0033
0000
,
0020
0002
0033
0000
,
0000
0000
0001
1000
0010
0000
0200
0000
,
0310
0000
1000
0001
0010
0000
0200
0000
,
0310
0000
0001
0010
0001
0000
2000
0000
,
3100
0000
1000
0010
1000
0001
0010
0001
,
1100
0000
1000
0001
0100
0000
0020
0000
,
0130
0000
0001
1000
0100
0000
0020
0000
,
0130
0000
1000
0100
1000
0000
0002
0000
,
0013
0000
0001
0100
0001
1000
0100
0000
,
1100
0000
0010
0001
0010
0001
0010
0000
,
0001
0011
0001
0011
,
0000
0000
0100
1000
0100
1000
0100
0000
,
0100
1100
0100
1100
,
0000
0000
0010
0001
0010
0001
0010
0000
,
0001
0011
0001
0011
,
0000
0000
0100
1000
0100
1000
0100
0000
,
0100
1100
0100
1100
,
1001
0000
0001
0010
0010
0000
0001
0100
,
0100
0000
0001
1000
1000
0000
1000
1000
,
0010
0000
0100
0001
1000
0010
0100
0100
,
0100
0010
0100
0001
1000
0100
0010
0000
,
1100
0000
1000
0100
0100
0000
1000
0010
,
0010
0000
1000
0001
0001
0000
0001
0001
,
0100
0000
0010
1000
0001
0100
0010
0010
,
0010
0100
0010
1000
0001
0010
0100
0000
,
0011
1000
1000
0001
,
0001
0100
0001
1000
,
1001
0001
0001
1000
,
1000
0010
0001
1000
;

//--------------- dance-single - jenro-2020 ----------------
#NOTES:
     dance-single:
     jenro-2020:
     Hard:
     10:
     0,0,0,0,0:
0000
0000
0000
0000
,
0000
0000
0000
0000
,
0000
0000
0000
0000
,
0000
0000
0000
0000
,
0000
2000
3200
2300
,
3020
0230
0302
2003
,
3002
0020
0033
0000
,
1000
1100
0011
0001
,
2000
0000
3001
0100
0010
0000
1000
0000
,
0001
0000
0010
0100
1000
0000
0100
0000
,
1000
0010
0100
0000
0001
0000
0100
0000
,
0010
0100
0010
0000
1100
0000
0011
0000
,
0002
0000
1003
0010
0100
0000
0001
0000
,
1000
0000
0100
0010
0001
0000
0010
0000
,
0001
0100
0010
0000
1000
0000
0010
0000
,
0100
0010
0100
0000
0011
0000
2200
0000
,
3300
0000
1000
0010
0100
0001
1000
0010
,
0100
0001
1000
0100
0010
0001
1000
0100
,
0010
0001
1000
0010
0100
0001
1000
0100
,
0010
0000
0001
1000
0000
0010
0000
0010
0000
0000
1100
0000
0011
0000
0000
0000
,
0000
0000
0001
0100
0010
1000
0001
0100
,
0010
1000
0001
0010
0100
1000
0001
0010
,
0100
1000
0001
0100
0010
1000
0001
0010
,
0100
0000
1000
0001
0000
0100
0000
0100
0000
0000
0011
0000
1100
0000
0000
0000
,
0000
0001
0100
0010
0100
1000
0100
0010
,
0100
0001
1000
0100
0010
0001
0002
0000
,
0003
0000
1000
0100
0010
0001
1000
0010
,
1000
0010
0100
0010
0001
0010
0200
0000
,
0300
0000
1000
0100
0010
0001
0100
0010
,
1000
0001
1000
0001
1000
0001
2000
0000
,
3002
0020
0033
0000
,
0002
0020
0033
0000
,
0000
1000
0010
0100
0010
0001
0010
0100
,
0010
1000
0001
0010
0100
1000
2000
0000
,
3000
0000
0001
0010
0100
1000
0001
0100
,
0001
0100
0010
0100
1000
0100
0020
0000
,
0030
0000
0001
0010
0100
1000
0010
0100
,
0001
1000
0001
1000
0001
1000
0002
0000
,
2003
0200
3300
0000
,
1000
1100
0011
0001
,
2000
0000
0000
0000
3001
0000
0001
0100
0000
0000
0100
0010
0000
0000
0010
1000
,
0000
0000
1000
0100
0000
0000
0100
1000
0000
0000
1000
0001
0000
0000
0001
0010
,
0000
0000
0010
0100
0000
0000
1000
0010
0000
0000
0010
0100
0000
0000
0100
0001
,
0000
0000
0001
0010
0000
0000
0010
0001
0000
0000
0001
1000
0000
0000
1000
0100
,
0000
0000
0100
0010
0000
0000
0001
0100
0000
0000
0100
0010
0000
0000
0010
1000
,
0000
0000
1000
0100
0000
0000
0100
1000
0000
0000
1000
0001
0000
0000
0001
0010
,
0000
0000
0010
0100
0000
0000
1000
0010
0000
0000
0010
0100
0000
0000
0001
0000
,
0100
0001
0010
0010
0001
0001
1000
1000
,
1001
0000
1000
1000
1100
0000
0011
0000
,
0001
0000
0001
0000
0011
0000
1100
1000
,
0100
0000
0001
0000
0001
0001
0010
1000
,
0001
0000
1000
0001
0000
0100
0000
0010
0000
0000
1000
0000
0001
0000
1000
0000
,
1000
0000
1000
1000
1100
0000
0011
0000
,
0001
0000
0001
0001
0011
0000
1100
0000
,
1000
0000
0000
0000
0001
0100
0001
0100
0001
1000
0001
1000
0001
0010
0100
1000
,
0001
1000
0010
0100
0001
0000
0000
0000
0000
0000
0000
0000
0000
0000
0000
0100
,
0001
0000
1000
0010
0100
0001
1000
0010
,
0100
0001
1000
0100
0010
0001
1000
0100
,
0010
0001
1000
0010
0100
0001
1000
0100
,
0010
0000
0001
1000
0000
0010
0000
0010
0000
0000
1100
0000
0011
0000
0000
0000
,
0000
0000
0001
0100
0010
1000
0001
0100
,
0010
1000
0001
0010
0100
1000
0001
0010
,
0100
1000
0001
0100
0010
1000
0001
0010
,
0100
0000
1000
0001
0000
0100
0000
0100
0000
0000
0011
0000
1100
0000
0000
0000
,
0000
0001
0011
1100
,
1000
1000
1010
0101
,
0001
0001
0011
1100
,
1000
0001
0011
2200
,
3300
0000
0000
0000
;
