#TITLE:Keygen 19;
#SUBTITLE:(from the video game "Old School Musical");
#ARTIST:Dubmood;
#TITLETRANSLIT:;
#SUBTITLETRANSLIT:;
#ARTISTTRANSLIT:;
#GENRE:;
#CREDIT:jenro ;
#MUSIC:Keygen 19 [Jenro].ogg;
#BANNER:Keygen 19 [Jenro]-bn.png;
#BACKGROUND:Keygen 19 [Jenro]-bg.png;
#CDTITLE:cdtitle.png ;
#SAMPLESTART:72.563;
#SAMPLELENGTH:19.200;
#SELECTABLE:YES;
#OFFSET:-7.763;
#BPMS:0.000=125.000;
#STOPS:;
#BGCHANGES:;
#FGCHANGES:;

//--------------- dance-single - jenro-2023 ----------------
#NOTES:
     dance-single:
     jenro-2023:
     Beginner:
     2:
     0,0,0,0,0:
0000
0000
0000
0000
,
0000
0000
0000
0000
,
0000
0000
0000
0000
,
0000
0000
0000
0000
,
0000
0001
0000
1000
,
0000
0010
0000
0010
,
0000
1000
0000
0001
,
0000
0010
0000
0010
,
0000
0100
0000
0100
,
0000
0100
0000
0100
,
0000
0001
0000
0010
,
0000
1000
0000
0010
,
0000
0001
0000
0001
,
0000
0001
0000
0010
,
0000
0001
0000
1000
,
0000
0010
0000
1000
,
0000
0001
0000
0001
,
0000
0001
0000
0010
,
0000
0100
0000
0100
,
0000
1000
0000
0001
,
0000
0010
0000
0010
,
0000
0010
0000
0001
,
0000
1000
0000
0001
,
0000
0010
0000
0100
,
0000
1001
0000
0010
,
0000
0001
0000
0001
,
0000
1000
0000
0001
,
0000
1000
0000
0001
,
0000
0010
0000
0010
,
0000
0001
0000
0100
,
0000
1000
0000
0001
,
0000
0010
0000
0001
,
0000
0100
0000
0100
,
0000
0010
0000
1001
,
0000
0100
0000
1000
,
0000
1000
0000
0010
,
0000
0001
0000
0001
,
0000
1000
0000
0001
,
0000
0100
0000
0000
,
0000
0010
0000
0010
,
0000
0010
0000
0001
,
0000
0100
0000
0100
,
0000
0100
0000
1000
,
0000
0001
0000
1001
,
0000
0010
0000
0001
,
0000
1000
0000
1000
,
0000
0001
0000
0001
,
0000
0010
0000
0001
,
0000
0100
0000
0100
,
0000
1000
0000
0001
,
0000
0100
0000
0100
,
0000
0001
0000
0010
,
0000
0001
0000
0100
,
0000
0010
0000
0010
,
0000
1000
0000
0001
,
0000
1000
0000
0010
,
0000
0001
0000
1001
,
0000
0010
0000
1001
,
0000
0001
0000
0100
,
0000
1000
0000
0100
;

//--------------- dance-single - jenro-2022 ----------------
#NOTES:
     dance-single:
     jenro-2022:
     Easy:
     2:
     0,0,0,0,0:
0000
0000
0000
0000
,
0000
0000
0000
0000
,
0000
0000
0000
0000
,
0000
0000
0000
0000
,
0010
0001
0020
0030
,
0010
0100
0020
0030
,
0010
0100
2000
3000
,
0001
0010
0020
0030
,
0010
0001
0020
0030
,
0010
0010
0002
0003
,
2000
3000
0002
0003
,
0001
0100
0200
0300
,
0020
0030
0020
0030
,
0020
0030
0010
0100
,
0020
0030
0010
0001
,
0020
0030
0010
0100
,
0020
0030
0010
0100
,
0002
0003
0002
0003
,
0010
0001
0020
0030
,
0010
0100
0020
0030
,
0010
0001
0020
0030
,
0002
0003
0002
0003
,
0010
0001
0020
0030
,
0200
0300
0010
0001
,
2000
3000
2000
3000
,
1000
0100
2000
3000
,
0010
0010
0020
0030
,
0010
0010
0020
0030
,
0010
0010
0020
0030
,
0010
0100
0020
0030
,
0010
0001
0020
0030
,
0010
0100
0002
0003
,
0010
0100
2000
3000
,
0001
0001
0010
1001
,
0100
0100
0200
0300
,
0001
1000
0002
0003
,
2000
3000
0010
0010
,
2000
3000
0002
0003
,
0200
0300
0200
0300
,
0010
0001
0100
1000
,
0020
0030
0200
0300
,
0002
0003
2000
3000
,
0100
0100
0200
0300
,
1000
1000
2000
3000
,
0100
0001
0020
0030
,
0001
0001
0020
0030
,
0100
0001
2000
3000
,
0001
0001
0002
0003
,
0100
0001
0200
0300
,
1000
0010
0001
0100
,
0020
0030
2000
3000
,
0002
0003
0200
0300
,
0100
0100
0200
0300
,
0010
0100
0100
0200
,
0300
0001
0001
2000
,
3000
0001
0001
2000
,
3000
1000
0010
0200
,
0300
0001
0010
0200
,
0300
0001
1000
2000
,
3000
0000
0000
0000
;

//--------------- dance-single - jenro-2022 ----------------
#NOTES:
     dance-single:
     jenro-2022:
     Medium:
     6:
     0,0,0,0,0:
0000
0000
0000
0000
,
0000
0000
0000
0000
,
0000
0000
0000
0000
,
0000
0000
0000
0000
,
0000
0100
0001
0100
,
0000
0100
1000
0001
,
0000
0100
0010
1000
,
0000
1000
0010
0001
,
0000
0010
0001
0010
,
0000
0100
1000
0100
,
0000
1000
0010
1000
,
0000
0002
0000
0000
0010
0000
1003
0000
,
0101
0000
0000
0011
0000
0000
1100
0000
,
0000
0000
0000
0000
1000
0000
0000
0000
1000
0000
0000
0000
0100
0000
0000
1001
,
0000
0001
0100
1000
,
0000
0000
1000
0000
0010
0001
0010
0001
,
0000
0010
0100
0001
,
0000
0001
0100
1000
,
0000
0100
1000
0100
,
0000
0010
0001
0010
,
0000
0001
0100
0001
,
0000
2000
0000
0000
0100
0000
3001
0000
,
1010
0000
0000
1100
0000
0000
0011
0000
,
0000
0000
0000
0000
0001
0000
0000
0000
0001
0000
0000
0000
0010
0000
0000
1001
,
0000
1000
0010
0001
,
0000
0000
0001
0000
0100
1000
0100
1000
,
0000
0000
0001
0000
0001
0000
0000
0000
1000
0000
0000
0010
0000
0000
0001
0000
,
0000
1000
1000
0000
0001
0010
0000
1000
,
0000
0001
0001
0000
1000
0100
0000
0001
,
0000
1000
1000
0000
0001
0100
0000
1000
,
0000
0000
0010
0000
0010
0000
0000
0000
0100
0000
0000
0001
0000
0000
0100
0000
,
0000
0010
0010
0000
0100
1000
0000
0100
,
0000
0010
0010
0000
0001
0010
0000
0001
,
0000
0010
0010
0000
1000
0010
0000
1000
,
0000
0100
0001
1000
,
0000
0100
1000
0001
,
0101
0001
0010
1000
,
0000
0100
1000
0010
,
1001
0100
0001
0010
,
0000
0100
0100
0100
,
1000
0001
0001
1000
,
0000
0000
0010
0000
1000
0000
0010
0000
1000
0000
0010
0000
1000
0000
0000
0100
,
0000
0010
0001
0100
,
0010
1000
0100
1001
,
0100
0001
0100
0010
,
0010
1000
0010
0100
,
0100
1000
0010
0001
,
0100
0001
0010
1000
,
0001
0001
1000
1000
,
0000
0010
1000
0001
0100
0000
0010
0000
,
1001
0000
0000
1100
0000
0000
0101
0000
,
0000
0000
0010
0000
0010
0000
0000
0000
0100
0000
0000
0000
0001
0000
0000
1000
,
0000
0100
1000
0010
,
0100
0001
0010
1001
,
0010
1000
0010
0100
,
0100
0001
0100
0010
,
0010
0001
0100
1000
,
0010
1000
0100
0001
,
1000
1000
0001
0001
,
0100
1000
0010
0001
,
1000
1000
0001
0001
;

//--------------- dance-single - jenro-2022 ----------------
#NOTES:
     dance-single:
     jenro-2022:
     Hard:
     11:
     0,0,0,0,0:
0000
0000
0000
0000
,
0000
0000
0000
0000
,
0000
0000
0000
0000
,
0000
0000
0000
0000
0000
0000
0000
0000
0000
0000
0000
0000
0000
0000
0000
2000
,
3000
0000
0010
0000
0100
0000
0010
0000
2000
0000
0000
0200
3000
0000
0310
0000
,
0000
0000
0001
0000
0100
0000
0010
0000
0002
0000
0000
0203
0000
0000
1300
0000
,
1001
0000
0100
0000
1001
0010
0001
0100
,
2000
0000
0200
0000
3310
0001
0100
0002
,
0100
0000
1000
0003
0100
0010
0010
1000
,
0002
0000
0020
0000
0233
2300
3200
1300
,
0110
0011
0100
1000
,
0000
1000
0100
0001
1000
0001
0100
0100
,
0020
0000
1000
0032
0000
0103
1000
0000
,
0100
1100
0001
0011
,
1000
0000
0100
0000
1000
0000
0000
0010
0000
0100
0000
0001
0000
0000
1000
0000
,
0000
0000
1000
0000
0100
0000
0000
0010
0000
0001
0000
1000
0000
0100
0000
0000
,
1010
0000
0101
0000
0110
0001
1000
0001
,
0200
0000
0310
0000
1000
1000
0100
0002
,
0000
0010
0103
0000
0001
0001
1000
0001
,
1100
0000
0110
0000
1100
1100
0101
0010
,
0200
0000
0001
0000
1300
0000
0100
0001
,
0000
0010
0100
1000
0100
1000
0100
0010
,
2000
0000
3002
0103
0000
0020
1030
0000
,
0101
1010
0101
1010
,
2002
0000
0000
3003
,
0000
0000
0000
0000
0001
1001
0001
0011
,
0110
0000
0100
0000
1000
0000
0000
0000
0010
0000
0100
0001
0000
1000
0100
0000
,
0000
0010
0100
1000
0001
0002
0013
0020
,
0030
1000
0100
1000
0010
0002
0103
1000
,
0000
0100
0001
0010
1000
0001
0100
1000
,
0000
0000
0010
0000
0001
0000
0000
0000
0100
0000
0010
1000
0000
0001
0010
0000
,
0000
0100
0010
0001
1000
2000
3100
0200
,
0300
0001
0010
0001
0100
2000
3010
0001
,
0000
0010
1000
0100
0001
1000
0010
0001
,
2000
0000
0010
0000
0001
0100
0100
0100
,
3200
0000
0301
0000
2000
3200
0320
0031
,
0101
0000
0110
0000
1001
1000
0100
0010
,
0002
0000
0013
0000
2000
3200
2300
3020
,
0031
2000
0000
0000
3001
0000
0101
0000
,
0001
1000
0100
0010
0001
0001
0101
0001
,
1002
0000
1003
1200
0000
2300
0020
3030
,
0110
1001
0101
1100
,
0110
0100
1000
0100
1000
1000
0002
0000
,
0003
0100
0001
0100
0001
0001
1001
1001
,
2000
0000
0100
0000
3001
2000
3020
0032
,
2003
0000
3002
0000
0103
0100
0110
0110
,
0010
0000
1001
0000
0010
0100
1001
0010
,
0200
0000
1300
0000
0100
0200
1300
0200
,
2300
0010
3001
0100
,
0000
0001
0100
1000
0010
0001
1000
0001
,
0200
0000
0000
0310
0000
1000
0001
0000
,
0000
0000
0100
0000
0010
0001
0010
0100
0010
0000
0001
0000
1000
0000
1000
0100
,
0000
0000
0001
0000
0001
0010
0001
0010
0000
0100
0000
1000
0000
1000
0001
0000
,
0000
0000
0100
0000
0001
0010
0100
1000
0000
0100
0000
1001
0000
0100
0000
0000
,
0000
0000
0100
0000
1000
0000
0000
0000
0010
0000
0100
0001
0000
1000
0100
0000
,
0000
0010
0100
1000
0001
0002
0013
0020
,
0030
1000
0100
1000
0010
0002
0103
1000
,
0000
0001
0100
0001
1000
1000
0001
0001
,
0000
0000
0100
0000
1000
0000
0000
0000
0010
0000
0100
0001
0000
1000
0100
0000
,
0000
0010
0100
1000
0001
0002
0013
0020
,
0030
1000
0100
1000
0010
0002
0103
1000
;
