#TITLE:Iris In The Dark;
#SUBTITLE:;
#ARTIST:Just A Gent feat. McCall;
#TITLETRANSLIT:;
#SUBTITLETRANSLIT:;
#ARTISTTRANSLIT:;
#GENRE:House;
#CREDIT:jenro;
#MUSIC:Iris In The Dark [jenro].ogg;
#BANNER:Iris In The Dark [jenro]-bn.png;
#BACKGROUND:Iris In The Dark [jenro]-bg.png;
#CDTITLE:cdtitle.png;
#SAMPLESTART:61.295;
#SAMPLELENGTH:17.455;
#SELECTABLE:YES;
#OFFSET:-0.204;
#BPMS:0.000=110.000;
#STOPS:;
#BGCHANGES:;
#FGCHANGES:;

//--------------- dance-single - jenro-2020 ----------------
#NOTES:
     dance-single:
     jenro-2020:
     Beginner:
     3:
     0.170505,0.220544,0.017298,0,0,138,136,2,0,0,0,0.170505,0.220544,0.017298,0,0,138,136,2,0,0,0:
0000
0000
0000
0000
,
0000
0000
0000
0000
,
0000
0000
0000
0000
,
0000
0000
0000
0000
,
0002
0000
0013
0000
,
1000
0100
1000
0000
,
2000
3000
2000
3000
2000
3000
0000
0000
,
0002
0003
0002
0003
0002
0003
0000
0000
,
0100
1000
0001
0010
,
0100
1000
0001
0010
,
2000
0000
3001
0000
,
0002
0000
1003
0000
,
0001
0010
0100
1000
,
0001
0010
0100
1000
,
0002
0000
1003
0000
,
2000
0000
3001
0000
,
0010
0000
0000
0000
,
0100
0000
0000
0000
,
1000
0000
0000
0000
,
0001
0000
0000
0000
,
0100
0000
0000
0000
,
0010
0000
0000
0000
,
1000
0000
0000
0000
,
0001
0000
0000
0000
,
0010
0000
0010
0000
,
0010
0000
0010
0000
,
0010
0010
0010
0010
,
0010
0010
0100
0000
,
1000
0001
1000
0001
,
1000
0100
0010
0001
,
0001
1000
0001
1000
,
0001
0010
0100
1000
,
1000
0100
0001
0010
,
0001
0100
1000
0100
,
1000
0100
0010
0001
,
0001
1000
0001
0100
,
0010
0000
0010
0000
,
1001
1000
0001
0100
,
0001
1000
0010
0100
,
0001
0100
1000
0001
,
0010
1001
0100
0100
,
1000
0001
0100
0001
,
1000
0010
0100
0001
,
1000
0001
0100
0010
,
1000
0000
0001
0000
,
1000
0000
0100
0000
,
0001
0000
1000
0000
,
0001
0000
0100
0000
,
0010
0000
0100
0000
,
1000
0000
0001
0000
,
1000
0000
0001
0000
,
0100
0000
0000
0000
;

//--------------- dance-single - jenro-2020 ----------------
#NOTES:
     dance-single:
     jenro-2020:
     Easy:
     7:
     0.315063,0.396007,0.06919,0.095137,0.056217,255,247,8,11,0,0,0.315063,0.396007,0.06919,0.095137,0.056217,255,247,8,11,0,0:
0000
0000
0000
0000
,
0000
0000
0000
0000
,
0000
0000
0000
0000
,
0000
0000
0000
0000
,
0100
0000
0100
0000
0010
1000
0001
0000
,
0001
0100
0001
0000
0001
0000
0001
0100
,
0100
1000
0001
0001
,
0010
0000
0001
0001
0100
0000
0010
0000
,
0001
0000
0000
1000
0000
0000
0001
0000
0010
0000
0000
0100
0000
0000
1000
0000
,
0001
0000
0000
0010
0000
0000
1000
0000
1000
0000
0000
0100
0000
0000
0001
0000
,
0100
0001
0100
0001
,
1000
0000
0010
0100
0100
0000
1010
0000
,
1000
0000
0000
0010
0000
0000
0100
0000
1000
0000
0000
0100
0000
0000
0001
0000
,
0010
0000
0000
0100
0000
0000
1000
0000
0001
0000
0000
0010
0000
0000
0100
0000
,
0010
1000
0100
1000
,
0100
0000
0001
0001
0010
0000
1001
0000
,
2000
3200
0320
2030
,
3200
0302
0023
0030
,
0000
0000
0000
0000
,
0002
0000
0003
0000
,
2000
3002
0023
0230
,
0302
0003
0000
0000
,
0000
2000
0000
0000
,
0002
3003
0002
0003
,
0100
0100
1000
0001
,
1000
1000
1000
0000
0001
0000
0010
0000
,
0010
0000
0010
0000
0100
1000
0001
0000
1000
0001
0000
1000
0001
0000
0000
0000
,
1000
0000
0001
0000
1000
0001
1000
0000
0200
0000
0000
0000
0300
0000
0000
0000
,
1000
0100
0010
0001
0100
0010
1000
1000
,
1000
0100
0010
0001
0100
0010
1000
1000
,
1000
0100
0010
0001
0100
0001
1000
0010
,
0100
0001
1000
0010
1000
0001
0100
0100
,
0001
0100
0010
1000
0100
0010
0001
0001
,
0001
0100
0010
1000
0100
0010
0001
0001
,
0001
1000
0010
0100
0001
1000
0001
1000
,
0100
1000
0010
1000
0001
0100
0001
0000
,
2000
0000
0000
3000
,
1000
0100
1000
0100
1000
0010
0100
0100
,
0001
0100
0001
0100
0010
0100
0001
1000
,
0010
1000
0001
0010
0100
0010
0100
0000
,
1000
0010
0100
1000
0100
0001
1000
0001
,
1000
0010
0100
0001
0100
0001
1000
0001
,
0010
0001
1000
0010
1000
0001
0010
0100
,
1000
0100
1000
0100
0001
0100
0001
0000
,
1000
0001
1000
0001
,
0100
0000
0100
0000
,
0001
1000
0001
1000
,
0100
0000
0100
0010
,
0001
0000
0100
0000
,
1000
0000
0010
0000
,
0000
0100
0000
0100
0000
0100
0000
0100
;

//--------------- dance-single - jenro-2024 ----------------
#NOTES:
     dance-single:
     jenro-2024:
     Medium:
     11:
     0,0,0,0,0:
0000
0000
0000
0000
,
0000
0000
0000
0000
,
0000
0000
0000
0000
,
0000
0000
0000
0000
,
0001
0000
0001
0000
,
0001
0000
0100
0000
,
1000
1000
1000
0000
,
1000
0001
0001
0000
,
0010
0000
0001
0000
,
1000
0000
0100
0010
,
1001
0100
0001
1000
,
0100
0010
1001
0100
,
0001
0000
1000
0000
,
0100
0000
0010
0100
,
1001
0010
1000
0001
,
0010
0000
0000
0000
0000
0000
0000
0000
0100
0000
0000
0000
0000
0000
0000
0000
1001
0000
0000
0000
0000
0000
0000
0000
0010
0000
0000
0000
0000
0001
0000
0000
,
1000
0000
0000
0000
0000
0100
0000
0000
1000
0000
0000
0000
0000
0001
0000
0000
0010
0000
0000
0000
0000
0010
0000
0000
0001
0000
0000
0000
0000
0001
0000
0000
,
0100
0000
0000
0000
0000
0000
0000
0000
0010
0000
0000
0000
0000
0100
0000
0000
0010
0000
0000
0000
0000
1000
0000
0000
0010
0000
0000
0000
0000
1000
0000
0000
,
0100
0000
0000
0000
0000
0000
0000
0000
0010
0000
0000
0000
0000
0000
0000
0000
0001
0000
0000
0000
0000
0000
0000
0000
0000
0000
0000
0001
0000
1000
0000
0000
,
0001
0000
0000
0000
0000
0000
0000
0000
0000
0000
0000
0000
0000
0000
0000
0000
1000
0000
0000
0000
0000
0000
0000
0000
0001
0000
0000
0000
0000
1000
0000
0000
,
0010
0000
0000
0000
0000
1000
0000
0000
0100
0000
0000
0000
0000
0001
0000
0000
0010
0000
0000
0000
0000
0001
0000
0000
0100
0000
0000
0000
0000
0010
0000
0000
,
0100
0000
0001
0000
,
1000
0000
0000
0000
0000
0000
0000
0000
0001
0000
0000
0000
0000
0100
0000
0000
0010
0000
0000
0000
0000
1000
0000
0000
0000
0000
0000
1000
0000
0100
0000
0000
,
1000
0010
0001
0000
,
0100
0000
0001
0000
0100
0100
0100
0000
,
0001
0001
0001
0000
0100
0100
0010
0000
,
0100
0000
0010
0000
1000
0001
0001
0000
1000
0100
0000
1000
0100
0000
0000
0100
,
0010
0000
0001
0000
0001
0001
1000
0000
1001
0000
0000
0000
0000
0000
0000
0000
,
1000
0100
0010
0001
0100
0010
1000
1000
,
0001
0100
0010
1000
0100
0010
0001
0001
,
1000
0100
1000
0001
0100
0001
1000
0001
,
0001
0100
0100
0010
1000
0001
0010
0100
,
0001
0100
1000
0100
0001
0100
0010
0010
,
0001
0100
1000
0100
0001
0100
0010
0010
,
0001
1000
0010
0100
0001
1000
0001
1000
,
0100
1000
0010
1000
1000
0001
0001
0000
,
2000
0000
0000
3000
,
1000
0100
1000
0100
0001
0000
0001
0100
0001
0100
0010
0000
0100
0000
0100
0000
,
0001
0100
1000
0100
0010
1000
0001
1000
,
0010
1000
0001
0010
0100
0010
0100
0000
,
1000
0010
1000
0010
0100
0000
0001
0010
0001
0010
0100
0000
1000
0000
0001
0000
,
1000
0001
1000
0010
0100
0000
0001
1000
0001
0010
0100
0000
1000
0000
0100
0000
,
0001
0000
0001
0000
1000
0000
1000
0000
0100
0000
0001
0000
0010
0100
0010
0100
,
0010
0100
0010
1000
0001
0000
0100
0001
1000
0100
1000
0000
0001
0100
0001
0000
,
1000
0001
0001
0000
1000
0010
0001
0000
,
0100
0001
1000
0100
0100
0010
0100
1000
,
0002
2003
3002
2003
,
3100
0100
0100
0100
0100
0000
0011
0000
,
0101
1000
0100
1000
0100
0001
0100
0001
,
1000
1000
0010
0100
0010
0100
0001
0010
,
0100
0100
1000
0100
1000
0100
0001
0100
,
1000
0000
0001
0000
;

//--------------- dance-single - jenro-2020 ----------------
#NOTES:
     dance-single:
     jenro-2020:
     Hard:
     14:
     0.554759,0.661633,0.250815,0.034595,0.454062,449,420,29,4,0,0,0.554759,0.661633,0.250815,0.034595,0.454062,449,420,29,4,0,0:
0000
0000
0000
0000
,
0000
0000
0000
0000
,
0000
0000
0000
0000
,
0000
0000
0000
0000
,
0001
0000
0100
0000
0010
1000
0100
0000
,
1000
0000
0000
0000
0000
0000
0000
0000
0100
0000
0000
0000
0000
0000
0000
0000
0010
0000
0000
0000
0000
0000
0000
0001
0010
0000
0000
0000
0100
0000
0000
0000
,
1000
0001
0010
0001
0001
1000
0001
0000
,
0001
1000
0010
1000
1000
1000
0001
0000
,
1000
0000
0000
0001
0000
0000
0100
0000
0010
0000
0000
0100
0000
0000
0001
0000
,
1000
0000
0000
0000
0000
0000
0001
0000
0000
0000
0000
0000
1000
0000
0000
0000
0100
0000
0000
0000
0000
0000
0000
0001
1000
0000
0000
0000
0010
0000
0000
0000
,
0100
0001
1000
0000
0010
0100
0001
0000
,
0001
0100
0010
1000
1000
0001
1000
0000
,
0001
0000
0000
0010
0000
0000
0100
0000
1000
0000
0000
0010
0000
0000
0001
0000
,
1000
0000
0000
0000
0000
0000
0010
0000
0000
0000
0000
0000
1000
0000
0000
0000
0001
0000
0000
0000
0000
0000
0000
0010
0100
0000
0000
0000
1000
0000
0000
0000
,
0001
0001
1000
0000
1000
1000
0010
0000
,
0010
0000
0000
0000
0001
0000
0000
0000
0100
0000
0000
0000
0100
0000
0000
0000
0010
0000
0000
0000
0010
0000
0000
0000
1000
0000
0000
0000
0000
0010
0000
0000
,
1000
0000
0000
0000
0000
1000
0000
0000
0100
0000
0000
0000
0000
0100
0000
0000
0010
0000
0000
0000
0000
0010
0000
0000
0001
0000
0000
0000
0000
0001
0000
0000
,
0100
0000
0000
0000
0000
0000
0000
0000
0100
0000
0000
0000
0000
0001
0000
0000
1000
0000
0000
0000
0000
0000
0000
0000
0010
0000
0000
0000
0000
0000
0000
0000
,
0001
0000
0000
0000
0000
0000
0000
0000
0000
0000
0000
0000
0000
0000
0000
0000
0000
0000
0000
0000
0000
0000
0000
0000
0000
0000
0000
0100
0000
0010
0000
0000
,
0100
0000
0000
0000
0000
0000
0000
0000
0000
0000
0000
0000
0000
0000
0000
0000
0001
0000
0000
0000
0000
0000
0000
0000
1000
0000
0000
0000
0000
1000
0000
0000
,
0100
0000
0000
0000
0000
1000
0000
0000
0010
0000
0000
0000
0000
0001
0000
0000
0100
0000
0000
0000
0000
0001
0000
0000
0010
0000
0000
0000
0000
0100
0000
0000
,
0100
0000
0010
0000
,
0001
0000
0000
0000
0000
0000
0000
0000
0010
0000
0000
0000
0000
0100
0000
0000
0010
0000
0000
0000
0000
0000
0000
0000
0000
0000
0000
0001
0000
1000
0000
0000
,
0001
0000
1000
0000
,
1000
0000
1000
0000
1000
1000
1000
0000
,
1000
0000
0100
0000
0001
0000
0000
0001
1000
0010
0000
0000
0001
0000
0000
0000
,
0010
0000
0001
0000
1000
0010
0100
0000
0001
0010
0000
0001
0100
0000
0000
0010
,
1000
0000
0010
0000
0001
1000
0100
0000
0100
0000
0000
0000
0000
0000
0000
0000
,
1000
0100
0010
0001
0000
0000
0001
0100
0010
1000
0000
0000
0001
0000
0001
0000
,
1000
0010
0100
0001
0000
0000
0001
0010
0100
1000
0000
0000
1000
0000
1000
0000
,
1000
0001
1000
0010
0000
0000
0001
1000
0001
0010
0001
0000
0001
1000
0001
1000
,
0001
0010
0100
1000
0000
0000
1000
0010
0100
0001
0010
0000
1000
0001
1000
0001
,
1000
0001
0100
0010
0000
0000
1000
0100
1000
0010
0000
0000
0001
0000
0001
0000
,
0100
0010
1000
0010
0000
0000
0010
0100
0001
0100
0010
0000
1000
0000
1000
0000
,
0001
1000
0001
1000
0100
0000
1000
0001
1000
0001
0010
0000
0010
0001
0010
0001
,
1000
0100
1000
0100
1000
0000
1000
0100
0010
0001
0100
0000
0010
0100
0010
0100
,
0001
1000
1000
1000
1000
0000
1000
0001
0001
0001
0001
0000
0100
0000
0010
0000
,
1000
0001
1000
0100
0010
0000
0001
1000
0001
0100
0010
0000
1000
0000
0100
0000
,
0001
1000
0010
0100
0010
0000
1000
0001
0100
0010
0100
0000
0001
1000
0001
0010
,
0100
1000
0010
0100
0001
0000
0001
0100
0010
1000
0001
0000
1000
0001
1000
0001
,
1000
0100
1000
0001
1000
0000
0001
0100
0001
1000
0001
0000
0001
0000
1000
0000
,
0010
0100
0010
0100
0001
0000
0010
0001
1000
0100
0010
0000
0100
0000
1000
0000
,
1000
0010
0100
0001
0010
0000
0001
0010
0100
1000
0010
0000
0100
0001
0100
0001
,
1000
0100
1000
0001
0010
0000
0001
1000
0010
0100
0001
0000
0001
1000
0100
1000
,
0100
0000
0100
0000
0100
0000
0100
0100
,
1000
0001
1000
0001
1000
0001
1000
0001
,
0001
0010
0001
0010
0001
0010
0001
0100
,
0001
0010
0100
1000
0001
0000
0011
0000
,
1001
1000
0001
0010
0100
1000
0010
0100
,
0001
1000
0100
0010
0001
0100
1000
0100
,
0001
0010
0100
1000
0001
0010
0100
1000
0001
0000
0100
0000
1000
0000
0100
0000
,
0001
0000
1000
0000
;
