#VERSION:0.83;
#TITLE:High Like The Sky;
#SUBTITLE:;
#ARTIST:Killen.;
#TITLETRANSLIT:;
#SUBTITLETRANSLIT:;
#ARTISTTRANSLIT:;
#GENRE:Stutter House;
#CREDIT:Jenro;
#MUSIC:High Like The Sky [Jenro].ogg;
#BANNER:High Like The Sky [Jenro]-bn.png;
#BACKGROUND:High Like The Sky [Jenro]-bg.png;
#JACKET:High Like The Sky [Jenro]-jacket.jpg;
#DISCIMAGE:;
#CDIMAGE:;
#SELECTABLE:YES;
#LYRICSPATH:;
#CDTITLE:cdtitle.png;
#SAMPLESTART:91.346131;
#SAMPLELENGTH:13.521127;
#OFFSET:-0.923594;
#BPMS:0.000000=142.000000,
140.000000=284.000000,
141.000000=284.000000,
142.000000=284.000000,
143.000000=284.000000,
144.000000=71.000000,
148.000000=142.000000
;
#STOPS:140.000000=0.211268,
141.000000=0.211268,
142.000000=0.211268,
143.000000=0.211268
;
#WARPS:;
#DELAYS:;
#SPEEDS:;
#SCROLLS:;
#TICKCOUNTS:;
#TIMESIGNATURES:;
#LABELS:;
#COMBOS:;
#FAKES:;
#BGCHANGES:;
#FGCHANGES:;
#ATTACKS:;

//---------------dance-single - Jenro---------------
#NOTEDATA:;
#CHARTNAME:;
#CHARTSTYLE:;
#CREDIT:;
#STEPSTYPE:dance-single;
#DESCRIPTION:Jenro;
#DIFFICULTY:Challenge;
#METER:14;
#METERF:14;
#RADARVALUES:0,0,0,0,0;
#NOTES:
// measure 0
0000
0000
0000
0000
,  // measure 1
0000
0000
0000
0000
,  // measure 2
0000
0000
0000
0000
,  // measure 3
0000
0000
0000
1000
0100
0010
0001
0000
,  // measure 4
1001
0000
0000
0000
1000
0010
0100
0002
,  // measure 5
0000
0000
2003
3020
,  // measure 6
0230
0000
0302
0000
1003
0010
0100
0002
,  // measure 7
0000
0003
0000
0001
0100
0010
1000
0000
,  // measure 8
1001
0000
0000
0001
0010
0100
1000
2000
,  // measure 9
0000
0000
3002
0023
,  // measure 10
0230
0000
2300
0000
3001
0010
0100
2000
,  // measure 11
0000
0000
0000
3000
0000
0000
0000
0000
,  // measure 12
0001
0100
0010
1000
0001
0100
0010
1000
,  // measure 13
0001
0100
0010
1000
0001
0100
0010
1000
,  // measure 14
0001
0100
0010
1000
0001
0100
0010
1000
,  // measure 15
M000
0000
0110
1001
,  // measure 16
0110
0000
0000
0000
1000
0100
0010
0001
,  // measure 17
0000
0000
0000
0000
1000
1000
0100
0100
,  // measure 18
0010
0010
0001
0001
1000
0100
0010
0002
,  // measure 19
0000
0000
0003
1000
,  // measure 20
0001
0100
0010
0000
1000
0010
0100
0000
,  // measure 21
0001
0100
0010
0000
1000
0010
0100
0000
,  // measure 22
0001
0100
0010
0001
,  // measure 23
1000
0010
0100
1000
,  // measure 24
1000
0100
0010
0000
0001
0010
0100
0000
,  // measure 25
1000
0100
0010
0000
0001
0010
0100
0000
,  // measure 26
1000
0100
0010
1000
,  // measure 27
0002
2003
3001
1001
,  // measure 28
0001
0000
0010
0001
0000
0000
0100
1000
,  // measure 29
0000
0000
0010
0001
0000
0000
0100
1000
,  // measure 30
0000
0000
0010
0001
0000
0000
0100
M001
,  // measure 31
0000
0000
0000
0001
0010
0100
1000
0000
,  // measure 32
1001
0000
0000
0000
1000
0010
0100
0002
,  // measure 33
0000
0000
0003
0000
1000
1000
0010
0010
,  // measure 34
0100
0100
0001
0001
0010
0010
0100
0000
,  // measure 35
0010
1000
0001
0010
,  // measure 36
0001
0000
1000
0000
0010
0000
0100
0000
0001
0000
0001
0000
M001
0000
0000
0000
0001
0100
0001
0100
0001
0100
0001
0100
0001
0100
0001
0100
0001
0100
0001
0100
,  // measure 37
0001
0010
0100
0000
1000
0010
0100
0000
,  // measure 38
0001
0010
0100
1000
0010
0100
0001
1000
,  // measure 39
0001
0000
0010
0000
0000
0001
0000
0000
0010
0000
0000
0001
0000
0000
1000
0000
,  // measure 40
0000
0000
0100
0000
0000
1000
0000
0000
0100
0000
0000
1000
0000
0000
0001
0000
,  // measure 41
0001
0010
0100
0000
1000
0010
0100
0000
,  // measure 42
0001
0010
0100
1000
0010
0100
0001
0001
,  // measure 43
0001
0000
0010
0000
0000
0001
0000
0000
0010
0000
0000
0001
0000
0000
1000
0000
,  // measure 44
0000
0000
0100
0000
0000
1000
0000
0000
0100
0000
0000
1000
0000
0000
0001
0000
,  // measure 45
0101
0011
1000
1100
,  // measure 46
0012
0103
0011
1010
,  // measure 47
1100
1001
0001
1001
,  // measure 48
0010
2000
3100
0001
,  // measure 49
0001
0001
0002
0000
1003
1000
2000
0000
,  // measure 50
3100
0100
0100
0100
0100
0000
1001
0000
,  // measure 51
0110
0000
1000
0001
0100
0001
0001
0010
,  // measure 52
0100
1000
0010
0100
0001
1000
0001
0000
,  // measure 53
1001
0000
0000
0000
1000
0010
0100
0100
,  // measure 54
0000
0000
0000
0000
0001
0100
0100
1000
,  // measure 55
0100
0100
0001
0010
0010
1000
0010
0001
,  // measure 56
0000
0000
0000
1000
0001
0100
1000
0000
,  // measure 57
0101
0000
0000
0001
0001
1000
0010
0001
,  // measure 58
0000
0000
0000
0000
0010
0100
0100
0100
,  // measure 59
0100
0010
1000
0001
0100
2000
0000
3200
,  // measure 60
0000
0000
0300
0000
0001
0000
1000
0000
0000
0000
0001
0000
0000
1000
0000
0000
,  // measure 61
0001
0100
0010
0000
1000
0000
0100
0000
0010
0000
0001
0000
0010
0001
0000
0000
,  // measure 62
0100
0001
1000
0000
0001
0000
1000
0000
0010
0000
0100
0000
0010
1000
0000
0000
,  // measure 63
0001
1000
0001
0000
0100
0000
0010
0000
1000
0000
0001
0000
0100
0010
0000
0000
,  // measure 64
000M
0000
0000
1000
0001
1000
0010
0000
,  // measure 65
0011
0000
0000
0000
0010
1000
1000
2000
,  // measure 66
0000
0000
0000
0000
3010
0001
1000
1000
,  // measure 67
0001
0001
0001
0010
0001
0001
0001
1000
,  // measure 68
0002
0000
0003
0000
0001
0000
0001
0001
0001
0000
0001
0000
2000
0000
3000
0000
,  // measure 69
0001
0000
1000
0000
0000
0100
0000
0000
0001
0000
0000
0010
0000
0000
1000
0000
,  // measure 70
0000
0000
0001
0000
0000
0100
0000
0000
1000
0000
0000
0000
0110
0000
0000
0000
,  // measure 71
0100
0000
1000
0000
0001
0000
0100
0000
0001
0000
0100
0000
0001
0100
0001
0100
,  // measure 72
0001
0000
1000
0000
0001
0000
0100
0000
0001
0000
0100
0000
0001
0010
0001
0010
,  // measure 73
0001
0000
0100
0000
0010
0000
1000
0000
0001
0000
1000
0000
0010
1000
0010
1000
,  // measure 74
0001
0000
1000
0000
0010
0000
1000
0000
0010
0000
1000
0000
0100
1000
0100
1000
,  // measure 75
0001
0000
1000
0000
0010
0000
1000
0000
0010
0000
1000
0000
0010
1000
0010
1000
,  // measure 76
0001
0000
1000
0000
0010
1000
0010
0100
0010
0000
0200
0000
0301
0000
0000
0000
,  // measure 77
0001
0000
0100
0000
0010
0000
1000
0000
0001
0000
0010
0000
0100
1000
0001
0010
,  // measure 78
0001
0000
0010
0000
0100
0000
1000
0000
0001
0000
0100
0000
0010
1000
0001
0100
,  // measure 79
0001
0000
0010
0000
0100
0000
1000
0000
0001
0000
0100
0000
0001
1000
0010
0100
,  // measure 80
M001
0000
0000
0100
0001
1000
0100
0000
,  // measure 81
0010
0000
0000
0000
0100
1000
0001
0100
,  // measure 82
0000
0000
0000
0000
0100
0001
1000
0100
,  // measure 83
0010
0010
0001
1000
0001
0100
0001
1000
,  // measure 84
0001
1000
0100
0010
0001
0000
1000
0000
0001
0000
0100
0000
1000
0000
0000
0000
,  // measure 85
0101
0000
0000
0000
;
