#TITLE:Friday;
#SUBTITLE:;
#ARTIST:MOTi (feat. JGUAR);
#TITLETRANSLIT:;
#SUBTITLETRANSLIT:;
#ARTISTTRANSLIT:;
#GENRE:Trap;
#CREDIT:jenro;
#MUSIC:Friday [jenro].ogg;
#BANNER:Friday [jenro]-bn.png;
#BACKGROUND:Friday [jenro]-bg.png;
#CDTITLE:cdtitle.png;
#SAMPLESTART:30.600;
#SAMPLELENGTH:15.238;
#SELECTABLE:YES;
#OFFSET:-0.123;
#BPMS:0.000=126.000
,75.000=63.000
,76.000=126.000
,84.000=63.000
,88.000=126.000
,227.000=63.000
,228.000=126.000
,236.000=63.000
,240.000=126.000
;
#STOPS:60.000=1.429
,212.000=1.429
;
#BGCHANGES:;
#FGCHANGES:;

//--------------- dance-single - jenro-2020 ----------------
#NOTES:
     dance-single:
     jenro-2020:
     Beginner:
     3:
     0,0,0,0,0:
0000
0000
0000
0000
,
0000
0000
0000
0000
,
0000
0000
0000
0000
,
0000
0000
0000
0000
,
0002
0000
0003
0000
,
0020
0000
0030
0000
,
0200
0000
0300
0000
,
0200
0000
0300
0000
,
1000
0000
0001
0000
,
0001
0000
1000
0000
,
1000
0000
0001
0000
,
0010
0000
1000
0000
,
0001
0000
1000
0000
,
0001
0000
1000
0000
,
0010
0010
0010
0010
,
0000
0001
0000
0100
,
0000
1000
0000
0010
,
0000
1000
0000
0100
,
0000
0001
0000
0010
,
0001
0000
0100
0000
,
1000
0000
0010
0000
,
1000
0100
0001
0010
,
0001
0001
0001
0000
,
1000
1000
1000
0000
,
0001
0001
0001
0000
,
1000
0001
1000
0001
,
1000
1000
1000
0000
,
0001
0001
0001
0000
,
0010
0000
0001
0000
,
0100
0000
1000
0000
,
0000
0110
0110
0110
,
0000
0000
0000
0000
,
0000
0110
0110
0110
,
0000
0000
0000
0000
,
0000
1001
1001
1001
,
0000
0000
0000
0000
,
0000
1001
1001
1001
,
0000
0000
0000
0000
,
0002
0003
0002
0003
,
0020
0030
0020
0030
,
0200
0300
0200
0300
,
1000
0001
0001
1000
,
0020
0030
0020
0030
,
0002
0003
0002
0003
,
0200
0300
0200
0300
,
2000
3000
2000
3000
,
0001
1000
0001
0000
,
0001
1000
0001
0000
,
0001
1000
0001
0000
,
0001
1000
0001
0000
,
0100
0000
0100
0000
,
0100
0100
0100
0100
,
0110
0110
0110
0110
,
0000
0010
0001
0100
,
1000
0000
1001
0000
,
1001
0000
0010
1000
,
0100
0000
0001
1000
,
0010
0001
0100
1000
,
0000
1001
0000
1001
,
0010
0001
0100
1000
,
0001
1000
0001
0000
,
1000
0001
1000
0000
,
0001
0001
0001
0000
,
1000
1000
1000
0000
,
0001
0000
0010
0000
,
0001
0010
0100
0000
,
1000
0100
0010
0000
,
1001
0000
1001
0000
;

//--------------- dance-single - jenro-2020 ----------------
#NOTES:
     dance-single:
     jenro-2020:
     Easy:
     4:
     0.228892,0.219859,0,0,0,223,223,0,0,0,0,0.228892,0.219859,0,0,0,223,223,0,0,0,0:
0000
0000
0000
0000
,
0000
0000
0000
0000
,
0000
0000
0000
0000
,
0000
0000
0000
0000
,
0001
0000
1000
0000
,
0001
0000
1000
0000
,
0010
0000
0100
0000
,
1000
0000
0001
0000
,
1000
1000
0100
0100
,
0001
0001
0010
0010
,
0001
0001
0100
0100
,
1000
1000
0010
0010
,
0100
0000
1000
0000
,
0010
0000
0001
0000
,
1000
1000
0100
0100
,
0000
1000
0001
1000
,
0000
1000
0001
1000
,
0000
0010
0000
0100
,
0000
0001
0000
1000
,
0001
0000
0010
0000
,
0100
0000
1000
0000
,
0001
0010
1000
0001
,
1000
0001
1000
0000
,
0001
1000
0010
0100
,
1000
1000
0001
0001
,
0100
0000
0010
0000
,
1000
0001
1000
0000
,
0010
1000
0001
0000
,
0100
0001
1000
0000
,
0010
0001
1000
0000
,
0000
1000
0100
1000
,
0100
0010
0100
0010
,
0000
0001
0010
0001
,
0010
0001
0100
0000
,
0000
1000
0010
1000
,
0010
1000
0100
1000
,
0000
0001
0010
0001
,
0000
1000
0001
0001
,
1000
0001
1000
0010
,
0001
1000
0001
0010
,
0001
0100
0100
1000
,
0000
1000
0001
0010
,
0001
0000
0010
0001
,
0001
1000
0001
0010
,
0001
0100
0100
1000
,
0000
1000
0001
0010
,
0001
0001
0100
0100
,
1000
1000
0010
0010
,
0001
0001
0100
0100
,
1000
1000
0010
0010
,
1000
0001
1000
0001
,
0010
0100
0010
0100
,
1000
1000
0001
0001
,
0000
1000
1000
0010
,
0010
0001
1000
0001
,
1000
0001
0001
0010
,
0010
1000
0001
1000
,
1000
1000
0100
0001
,
0001
0001
0100
1000
,
1000
0100
0001
0001
,
0001
0100
1000
0100
,
0010
0001
0010
0001
,
0100
0100
0010
0010
,
1000
0001
1000
0010
,
1000
0100
0010
0100
,
0001
0001
1000
1000
,
0010
0100
0001
1000
,
0010
0100
0010
0001
;

//--------------- dance-single - jenro-2020 ----------------
#NOTES:
     dance-single:
     jenro-2020:
     Medium:
     7:
     0.336666,0.511119,0.05748,0,0.010777,328,320,8,0,0,0,0.336666,0.511119,0.05748,0,0.010777,328,320,8,0,0,0:
0000
0000
0000
0000
,
0000
0000
0000
0000
,
0000
0000
0000
0000
,
0000
0000
0000
0000
,
0001
0000
0010
0010
,
0001
1000
0001
0010
,
0001
0100
0100
1000
,
0000
1000
0001
0010
,
0001
0100
0010
0000
1000
0100
0010
0000
,
1000
0100
1000
0000
1000
0010
1000
0000
,
0001
0100
0001
0000
1000
0100
1000
0000
,
0001
0100
1000
0000
1000
0100
0001
0000
,
0001
0010
0100
1000
,
0001
0010
0100
1000
,
2000
0001
0001
3001
,
0000
0000
1000
0000
0010
0000
0001
1000
,
0001
0000
0100
0000
1000
0000
0010
0001
,
0100
0000
0001
0000
0010
0000
1000
0001
,
1000
0000
0100
0000
1000
0000
0010
0110
,
0100
1000
0100
0000
0100
0001
0100
0000
,
1000
0000
0001
0000
0010
0001
1000
0000
,
0001
0010
1000
0100
0001
0010
1000
0100
,
0001
0100
1000
0000
0001
0100
1000
0000
,
0100
0000
1000
0000
0010
0001
0100
0000
,
0100
0000
0001
0000
0010
0100
1000
0000
,
1000
0001
1000
0000
0001
1000
0010
0000
,
0100
0000
0001
0000
0010
0100
1000
0000
,
0100
0000
1000
0000
0010
0100
0001
0000
,
0001
1000
0100
0000
1000
0001
1000
0000
,
0010
1000
0100
0000
0001
1000
0001
0000
,
1001
0100
0001
0100
,
1000
0100
0001
0100
,
1001
0010
1000
0010
,
0001
0010
1000
0010
,
1001
0100
0001
0100
,
1000
0100
0001
0100
,
1001
0010
0001
0010
,
1000
1000
0001
0010
,
0001
0001
0100
0100
,
1000
1000
0001
0010
,
0001
0100
0100
1000
,
0001
1000
0001
0010
,
0001
0010
0010
0001
,
0001
1000
0001
0010
,
0001
0100
0100
1000
,
0000
1000
0001
0010
,
0001
0002
0103
0200
,
1300
2000
3010
0020
,
0031
0002
0103
0200
,
0301
0002
0013
0020
,
1030
1000
0001
0001
,
1000
0001
1000
0001
,
1000
0001
1000
0001
1000
0001
1000
0001
,
0000
0000
1000
0100
0010
0000
0001
1000
,
0001
0000
0100
0001
1000
0000
0010
0010
,
0100
0000
0001
1000
0010
0000
0010
0100
,
1000
0000
0001
0001
1000
0000
0010
0110
,
0100
1000
0100
0001
0100
1000
0100
0000
,
1000
0001
0010
0001
1000
0001
0010
0000
,
0001
0000
1000
1000
0100
0000
0010
0000
0010
1000
0001
1000
0001
0000
1001
0000
,
1000
0100
0100
0000
0010
0001
0010
0000
,
0010
0100
1000
0000
1000
0010
0100
0001
,
1000
0001
0010
0000
0100
0010
0100
0000
,
0100
1000
0001
0000
0100
0010
0100
0000
,
1000
0001
0100
0001
0010
0100
0010
0000
,
1000
0010
1000
0010
0100
0010
1000
0000
,
1000
0100
0010
0001
1000
0001
1000
0000
,
0010
0010
0001
0001
;

//--------------- dance-single - jenro-2020 ----------------
#NOTES:
     dance-single:
     jenro-2020:
     Hard:
     11:
     0,0,0,0,0:
0000
0000
0000
0000
,
0000
0000
0000
0000
,
0000
0000
0000
0000
,
0000
0000
0000
0000
,
0001
0000
0000
0000
0001
0000
0000
0000
0000
0000
0010
0000
0000
0010
0000
0000
,
0001
0000
1000
0001
0001
0010
0010
0001
,
0001
0000
0100
1000
0100
0000
1001
0000
,
0000
0000
1000
0001
0001
0010
0010
0001
,
0001
0100
0001
0010
0001
0000
0001
0000
,
1000
0100
1000
0010
1000
0000
1000
0000
,
0001
0100
0010
1000
0001
0000
0010
0000
,
1000
0100
0010
0001
1000
0000
0010
0000
,
0001
0000
0000
0100
0000
0000
1000
0000
0000
0010
0000
0000
0001
0000
0000
1000
,
0001
1000
0001
1000
0001
1000
0001
1000
,
0001
0001
1000
0100
0001
0100
1000
1000
,
0000
0000
1000
0010
1000
0010
0100
0001
,
0100
0000
0100
0001
0010
0001
0100
0010
,
1000
0001
1000
0100
1000
0100
0010
0100
,
0001
0000
0010
0100
1000
0001
0010
0110
,
0100
1000
0010
0100
0001
0010
0100
0000
,
1000
0010
1000
1000
0001
0100
0001
0000
,
0001
0000
0000
0000
1000
0000
1000
0000
0100
0000
0000
0000
0010
0000
0000
1000
0100
0000
1000
0000
0001
0000
0010
0000
0100
0000
0000
0000
1001
0000
0000
0000
,
0001
0001
0010
0010
0100
0100
1000
0000
,
1000
1000
0010
0010
0100
0100
0001
0000
,
0001
1000
0001
1000
0010
1000
0100
0000
,
1000
0001
1000
0001
0010
0001
0100
0000
,
0100
0010
1000
0010
1000
0001
0100
0000
,
0010
0100
0001
0100
0001
1000
0100
0000
,
0100
1000
0100
0000
1000
0001
1000
0000
,
0010
0001
0010
0000
0001
1000
0001
0000
,
0001
0000
0000
0100
0001
0000
0000
0001
0010
0000
0000
0010
0100
0000
0000
0000
,
1000
0100
0001
0100
,
1000
0000
0000
0100
1000
0000
0000
1000
0010
0000
0000
0010
0100
0000
0000
0000
,
0001
0100
1000
0100
,
0001
0000
0000
0010
1000
0000
0000
1000
0100
0000
0000
0100
0010
0000
0000
0000
,
0001
0010
1000
0010
,
0001
0000
0000
0100
0001
0000
0000
0001
0010
0000
0000
0010
0100
0000
0000
0000
,
1000
0000
1000
0001
0001
0010
0010
0001
,
0001
0000
0000
0000
0001
0000
0000
0000
0000
0000
0010
0000
0000
0010
0000
0000
,
0001
0000
1000
0001
0001
0010
0010
0001
,
0001
0000
0100
1000
0100
0000
1001
0000
,
0000
0000
1000
0001
0001
0010
0010
0001
,
0001
0000
0000
0000
0001
0000
0000
0000
0000
0000
0001
0000
0000
0001
0000
0000
,
0001
0000
1000
0001
0001
0010
0010
0001
,
0001
0000
0100
1000
0100
0000
1001
0000
,
0000
0000
1000
0001
0001
0010
0010
0001
,
0001
0100
0001
0010
0001
0100
0001
0000
,
1000
0100
1000
0010
1000
0100
1000
0000
,
0001
0100
0010
1000
0001
0100
0010
0000
,
1000
0100
0010
0001
1000
0100
0010
0000
,
0001
0000
0000
0100
0000
0000
1000
0000
0000
0010
0000
0000
0001
0000
0000
1000
,
0001
1000
0001
1000
0001
1000
0001
1000
,
0001
0100
1000
0100
0001
0100
1000
0100
,
0000
0000
0001
0010
0001
0010
0100
1000
,
0100
0000
0100
1000
0010
1000
0100
0010
,
0001
1000
0001
0100
0001
0100
0010
0100
,
1000
0000
0010
0100
0001
1000
0010
0110
,
0100
0001
0010
0100
1000
0010
0100
0000
,
0001
0010
0001
0001
1000
0100
1000
0000
,
1000
0000
0000
0000
0001
0000
0001
0000
0100
0000
0000
0000
0010
0000
0000
0001
0100
0000
0001
0000
1000
0000
0010
0000
0100
0000
0000
0000
1001
0000
0000
0000
,
1000
1000
0010
0010
0100
0100
0001
0000
,
0001
0001
0010
0010
0100
0100
1000
0000
,
1000
0001
1000
0001
0010
0001
0100
0000
,
0001
1000
0001
1000
0010
1000
0100
0000
,
0100
0010
0001
0010
0001
1000
0100
0000
,
0010
0100
1000
0100
1000
0001
0100
0000
,
0100
0001
0100
0000
0001
1000
0001
0000
,
0010
1000
0010
0000
1000
0001
1000
1000
;

//--------------- dance-single - jenro-2020 ----------------
#NOTES:
     dance-single:
     jenro-2020:
     Challenge:
     16:
     0.714388,0.73219,0.079034,0.04311,0.987929,696,685,11,6,0,0,0.714388,0.73219,0.079034,0.04311,0.987929,696,685,11,6,0,0:
0000
0000
0000
0000
,
0000
0000
0000
0000
,
0000
0000
0000
0000
,
0000
0000
0000
0000
,
0001
0000
0000
0000
0001
0000
0000
0000
0000
0000
0010
0000
0000
0010
0000
0000
,
0001
0000
1000
0001
0001
0010
0010
0001
,
0001
0000
0100
1000
0100
0000
1001
0000
,
0000
0000
1000
0001
0001
0010
0010
0001
,
0001
0100
0001
1000
0100
0010
0001
1000
0001
0100
0001
1000
0000
0000
0000
0000
,
1000
0000
0010
0100
0001
1000
0100
0010
0001
1000
0010
0100
0000
0000
0001
1000
,
0000
0000
0100
1000
0001
1000
0100
0010
0001
1000
0010
0100
0000
0000
0000
0000
,
0001
0000
0001
1000
0001
0010
0001
1000
0100
0010
0001
0100
0000
0000
0000
0000
,
0001
0000
0000
0100
0000
0000
1000
0000
0000
0010
0000
0000
0001
0000
0000
1000
,
0001
1000
0001
1000
0001
1000
0001
1000
,
0001
0010
0100
1000
0001
0010
0100
1000
0001
0010
0100
1000
0001
0010
0100
1000
,
0000
0000
0000
0000
1000
0001
1000
0010
0100
0001
1000
0100
1000
0010
0100
0001
,
0000
0000
0000
0000
1000
0100
0010
0001
0100
0010
1000
0001
0010
0100
0010
0001
,
0100
0001
1000
0100
1000
0010
0100
0001
0010
0100
1000
0001
1000
0010
0100
0001
,
0000
0000
0000
0000
0010
0100
1000
0001
1000
0010
0100
0010
0100
0000
0110
0000
,
0100
0001
0010
0100
1000
0001
0100
0001
0010
0100
0010
0001
0000
0000
0000
0000
,
1000
0010
1000
0100
0010
0001
1000
0010
0100
0001
1000
0100
0010
0001
0010
0100
,
0010
0000
0000
0000
1000
0000
1000
0000
1000
0000
0000
0000
0001
0000
0000
1000
0100
0000
1000
0000
0001
0000
0010
0000
0100
0000
0000
0000
1001
0000
0000
0000
,
1000
0001
1000
0010
0100
0001
1000
0100
1000
0010
0100
0001
0000
0000
0000
0000
,
1000
0100
0010
0001
0100
0010
1000
0001
0010
0100
0010
0001
0100
0001
1000
0100
,
1000
0010
0100
0001
0010
0100
1000
0001
1000
0010
0100
0001
0000
0000
0000
0000
,
0010
0100
1000
0001
1000
0010
0100
0001
0010
0100
1000
0001
1000
0001
0100
0001
,
0010
0001
1000
0010
1000
0100
1000
0001
0100
0001
0010
0100
0000
0000
0000
0000
,
0010
0100
1000
0001
1000
0010
0100
0001
0010
0100
1000
0001
1000
0010
0100
0010
,
1000
0100
0010
0001
1000
0010
1000
0100
1000
0001
0100
0001
0000
0000
0000
0000
,
1000
0001
0010
0001
0100
0001
1000
0100
1000
0010
0100
0010
1000
0100
0010
0001
,
0000
0000
0001
0100
0001
0000
0010
0001
0010
0000
0100
0010
0100
0000
0000
0000
,
2000
3100
0002
0103
,
0000
0000
1000
0001
1000
0000
0010
1000
0010
0000
0100
0010
0100
0000
0000
0000
,
0020
0130
0002
1003
,
0000
0000
1000
0010
1000
0000
0100
1000
0100
0000
0010
0100
0010
0000
0000
0000
,
0002
0013
0020
0031
,
0000
0000
0001
0100
0001
0000
0010
0001
0010
0000
0100
0010
0100
0000
0000
0000
,
0000
0000
1000
0001
0001
0010
0010
0001
,
0001
0000
0000
0000
0001
0000
0000
0000
0000
0000
0010
0000
0000
0010
0000
0000
,
0001
0000
1000
0001
0001
0010
0010
0001
,
0001
0000
0100
1000
0100
0000
1001
0000
,
0000
0000
1000
0001
0001
0010
0010
0001
,
0001
0000
0000
0000
0001
0000
0000
0000
0000
0000
0001
0000
0000
0001
0000
0000
,
0001
0000
1000
0001
0001
0010
0010
0001
,
0001
0000
0100
1000
0100
0000
1001
0000
,
0000
0000
0001
1000
1000
0010
0010
1000
,
1000
0100
1000
0001
0100
0010
1000
0001
1000
0100
1000
0001
0000
0000
0000
0000
,
0001
0000
0010
0100
1000
0001
0100
0010
1000
0001
0010
0100
0000
0000
1000
0001
,
0000
0000
0100
0001
1000
0001
0100
0010
1000
0001
0010
0100
0000
0000
0000
0000
,
1000
0000
1000
0001
1000
0010
1000
0001
0100
0010
1000
0100
0000
0000
0000
0000
,
1000
0000
0000
0100
0000
0000
0001
0000
0000
0010
0000
0000
1000
0000
0000
0001
,
1000
0001
1000
0001
1000
0001
1000
0001
,
1000
0010
0100
0001
1000
0010
0100
0001
1000
0010
0100
0001
1000
0010
0100
0001
,
0000
0000
0000
0000
0001
1000
0001
0010
0100
1000
0001
0100
0001
0010
0100
1000
,
0000
0000
0000
0000
0001
0100
0010
1000
0100
0010
0001
1000
0010
0100
0010
1000
,
0100
1000
0001
0100
0001
0010
0100
1000
0010
0100
0001
1000
0001
0010
0100
1000
,
0000
0000
0000
0000
0010
0100
0001
1000
0001
0010
0100
0010
0100
0000
0110
0000
,
0100
1000
0010
0100
0001
1000
0100
1000
0010
0100
0010
1000
0000
0000
0000
0000
,
0001
0010
0001
0100
0010
1000
0001
0010
0100
1000
0001
0100
0010
1000
0010
0100
,
0010
0000
0000
0000
0001
0000
0001
0000
0001
0000
0000
0000
1000
0000
0000
0001
0100
0000
0001
0000
1000
0000
0010
0000
0100
0000
0000
0000
1001
0000
0000
0000
,
0001
1000
0001
0010
0100
1000
0001
0100
0001
0010
0100
1000
0000
0000
0000
0000
,
0001
0100
0010
1000
0100
0010
0001
1000
0010
0100
0010
1000
0100
1000
0001
0100
,
0001
0010
0100
1000
0010
0100
0001
1000
0001
0010
0100
1000
0000
0000
0000
0000
,
0010
0100
0001
1000
0001
0010
0100
1000
0010
0100
0001
1000
0001
1000
0100
1000
,
0010
1000
0001
0010
0001
0100
0001
1000
0100
1000
0010
0100
0000
0000
0000
0000
,
0010
0100
0001
1000
0001
0010
0100
1000
0010
0100
0001
1000
0001
0010
0100
0010
,
0001
0100
0010
1000
0001
0010
0001
0100
0001
1000
0100
1000
0000
0000
0000
0000
,
0001
1000
0010
1000
0100
1000
0001
0100
0001
0010
0100
0010
0001
0100
0010
1000
;
