#TITLE:Fragments;
#SUBTITLE:;
#ARTIST:Droptek;
#TITLETRANSLIT:;
#SUBTITLETRANSLIT:;
#ARTISTTRANSLIT:;
#GENRE:Drum & Bass;
#CREDIT:jenro;
#MUSIC:Fragments [jenro].ogg;
#BANNER:Fragments [jenro]-bn.png;
#BACKGROUND:Fragments [jenro]-bg.png;
#CDTITLE:cdtitle.png;
#SAMPLESTART:49.552;
#SAMPLELENGTH:16.742;
#SELECTABLE:YES;
#OFFSET:-0.720;
#BPMS:0.000=172.019;
#STOPS:;
#DISPLAYBPM:172.000;
#BGCHANGES:;
#FGCHANGES:;

//--------------- dance-single - jenro-2020 ----------------
#NOTES:
     dance-single:
     jenro-2020:
     Beginner:
     2:
     0.436805,0.595357,0.435125,0.188162,0.094081,260,223,37,16,0,0,0.436805,0.595357,0.435125,0.188162,0.094081,260,223,37,16,0,0:
0000
0000
0000
0000
,
0000
0000
0000
0000
,
0000
0000
0000
0000
,
0000
0000
0000
0000
,
0000
0000
0000
0000
,
0001
0000
0000
0000
,
0000
0000
0000
0000
,
1000
0000
0000
0000
,
0000
0000
0000
0000
,
0010
0000
0000
0000
,
0000
0000
0000
0000
,
0100
0000
0000
0000
,
0000
0000
0000
0000
,
0001
0000
0000
0000
,
0000
0000
0000
0000
,
0010
0000
0000
0000
,
0000
0000
0000
0000
,
0100
0000
0000
0000
,
0000
0000
0000
0000
,
0001
0000
0000
0000
,
0000
0000
0000
0000
,
0010
0000
0000
0000
,
0100
0000
0000
0000
,
0001
0000
0000
0000
,
0000
0000
0000
0000
,
0010
0000
0000
0000
,
1000
0000
0000
0000
,
0001
0000
0000
0000
,
0100
0000
0000
0000
,
0010
0000
0000
0000
,
1000
0000
0000
0000
,
0010
0000
0000
0000
,
0000
0000
0000
0000
,
0001
0000
0000
0000
,
0000
0000
0000
0000
,
1001
0000
0000
0000
,
0010
0000
0000
0000
,
0100
0000
0000
0000
,
0100
0000
0001
0000
,
1001
0000
0000
0000
,
0010
0000
0000
0000
,
0100
0000
0000
0000
,
0001
0000
1000
0000
,
1001
0000
0000
0000
,
0010
0000
0000
0000
,
0100
0000
0000
0000
,
0100
0000
0001
0000
,
1001
0000
0000
0000
,
0010
0000
0000
0000
,
1001
0000
0000
0000
,
0100
0000
0000
0000
,
1001
0000
0000
0000
,
0010
0000
0000
0000
,
0100
0000
0000
0000
,
0100
0000
0000
0000
,
1001
0000
0000
0000
,
0010
0000
0000
0000
,
0100
0000
0000
0000
,
0100
0000
0000
0000
,
1001
0000
0000
0000
,
0010
0000
0000
0000
,
0100
0000
0000
0000
,
0100
0000
0000
0000
,
1001
0000
0000
0000
,
0010
0000
0000
0000
,
0001
0000
0000
0000
,
0001
0000
1000
0000
,
1001
0000
0000
0000
,
0100
0000
0000
0000
,
1001
0000
0000
0000
,
0100
0000
0000
0000
,
1001
0000
0000
0000
,
0100
0000
0000
0000
,
1001
0000
0000
0000
,
0010
0000
0000
0000
;

//--------------- dance-single - jenro-2020 ----------------
#NOTES:
     dance-single:
     jenro-2020:
     Easy:
     5:
     0,0,0,0,0:
0000
0000
0000
0000
,
0000
0000
0000
0000
,
0000
0000
0000
0000
,
0000
0000
0000
0000
,
0000
0000
0000
0000
,
0200
0000
0000
0000
,
0000
0000
0000
0000
,
2000
0000
0300
0000
,
0000
0000
0000
0000
,
0020
0000
3000
0000
,
0000
0000
0000
0000
,
0200
0000
0030
0000
,
0000
0000
0000
0000
,
0002
0000
0300
0000
,
0000
0000
0000
0000
,
0020
0000
0003
0000
,
0000
0000
0000
0000
,
0200
0000
0030
0000
,
0000
0000
0000
0000
0000
0000
0000
0300
,
2002
0000
0000
0000
,
0000
0000
0000
0000
,
3020
0000
0003
0000
,
0200
0000
0030
0000
,
2000
0000
0300
0000
,
0000
0000
0000
0000
,
0020
0000
3000
0000
,
0200
0000
0030
0000
,
0002
0000
0300
0000
,
0200
0000
0003
0000
,
0020
0000
0300
0000
,
2000
0000
0030
0000
,
0020
0000
3000
0000
,
0000
0000
0000
0000
,
0200
0000
0030
0000
,
0000
0000
0300
0000
,
0012
0000
0000
0103
0000
0000
0000
0000
,
0201
0000
0000
0310
0000
0000
0000
0000
,
0001
0000
0000
0100
0000
0000
0010
0000
,
1000
0000
0100
0000
,
1002
0000
0000
0103
0000
0000
0000
0000
,
2100
0000
0000
3001
0000
0000
0000
0000
,
0100
0000
0000
0010
0000
0000
1000
0000
,
0001
0000
1000
0000
,
0001
0000
0000
1010
0000
0000
0100
0000
,
0100
0000
0000
0101
0000
0000
0000
0000
,
1000
0000
0000
0011
0000
0000
0100
0000
,
0100
0000
1100
0000
,
1000
0000
0000
0101
0000
0000
0010
0000
,
0010
0000
0000
1010
0000
0000
0000
0000
,
0001
0000
0000
1100
0000
0000
0010
0000
,
0010
0000
0000
0000
,
1000
0001
0010
0100
,
0001
0010
0100
0000
,
0001
1000
0100
0010
,
1000
0100
0010
0000
,
0001
1000
1000
0010
,
1000
1000
0010
0000
,
1000
0001
0001
0100
,
0001
0001
0100
0000
,
1001
0010
0100
0000
,
1001
0100
0010
0000
,
2001
0000
0000
3001
0000
0000
0000
0000
,
0100
0000
0110
0110
,
1001
0100
0010
0000
,
1001
0010
0100
0000
,
1002
0000
0000
1003
0000
0000
0000
0000
,
0010
0000
0110
0110
,
2002
0000
3000
0000
,
0200
0000
0000
0303
,
2002
0000
0003
0000
,
0200
0000
0000
3300
,
2020
0000
0030
0000
,
0200
0000
0000
3300
,
0202
0000
0300
0000
,
0020
0000
0000
0033
;

//--------------- dance-single - jenro-2020 ----------------
#NOTES:
     dance-single:
     jenro-2020:
     Medium:
     10:
     0,0,0,0,0:
0000
0000
0000
0000
,
0000
0000
0000
0000
,
0000
0000
0000
0000
,
0000
0000
0000
0000
,
0000
0000
0000
0000
,
0200
1000
0000
0001
,
0000
1000
0000
0000
,
2000
0000
0300
0001
,
0000
0010
0000
0001
,
0020
0000
3000
0001
,
0000
0100
0000
0001
,
0200
0000
0030
1000
,
0000
0001
0000
1000
,
0002
0000
0300
1000
,
0000
0010
0000
1000
,
0020
0000
0003
1000
,
0000
0100
0000
1000
,
0200
0000
0030
0000
,
0000
0000
0000
0000
0000
0000
0000
0300
,
2002
0000
0000
0000
,
0000
0000
0000
0000
,
3020
0000
0003
0000
,
0200
0000
0030
0000
,
2000
0000
0300
0001
,
0000
0001
0000
0001
,
0020
0000
3000
0000
,
0200
0000
0030
0000
,
0002
0000
0300
0000
,
0200
0000
0003
0000
,
0020
0000
0300
0000
,
2000
0000
0030
0000
,
0020
0000
3000
0001
,
0000
0100
0000
0001
,
0200
0000
0030
0000
,
0000
0000
0300
0000
,
0011
0000
1000
0100
0000
0000
0000
0000
,
0101
0000
1000
0010
0000
0000
0100
0000
,
1001
0000
0000
0100
0000
0000
0010
0000
,
1100
0100
0101
0010
,
1001
0000
0001
0100
0000
0000
0000
0000
,
1100
0000
0100
0001
0000
0000
0010
0000
,
0101
0000
0000
0010
0000
0000
1000
0000
,
1010
0100
0101
0010
,
1001
0000
0000
0101
0000
0000
0100
0001
,
1000
0000
0000
1100
0000
0010
1000
0000
,
1010
0000
0000
0101
0000
0000
1000
0100
,
0010
0000
0000
1100
0000
0010
1000
0000
,
1001
0000
0000
1010
0000
0000
0010
1000
,
0001
0000
0000
0011
0000
0100
0001
0000
,
0101
0000
0000
1010
0000
0000
0001
0100
,
1000
0000
0100
0000
0000
0010
0000
0000
0100
0000
0000
0000
1001
0000
0000
0000
,
1000
0001
0010
0100
0000
0100
0010
0000
,
1000
0001
0100
0010
0000
0010
0100
0000
,
0001
1000
0100
0010
0000
0010
0100
0000
,
0001
1000
0010
0100
0000
0100
0010
0000
,
1000
0100
0001
0000
1000
0010
0100
0000
,
0001
0100
1000
0000
0001
0010
0100
0000
,
1000
0001
1000
0000
0001
0100
0001
0000
,
0010
1000
0001
0100
0010
1000
0010
0000
,
0001
0010
1000
0000
0001
0100
0010
0000
,
1000
0010
0001
0000
1000
0100
0010
0000
,
0001
1000
0001
0000
1000
0010
1000
0000
,
0100
0001
1000
0010
0100
0001
0100
0000
,
1000
0001
0010
0100
1000
0100
0001
0000
,
0001
1000
0100
0010
0001
0010
1000
0000
,
1002
0000
0000
1003
0000
0000
0000
0000
,
0010
0000
0100
0000
0000
0001
0000
0000
1000
0000
0000
0000
0110
0000
0000
0000
,
2002
0000
3000
0000
,
0200
0000
0000
0303
,
2002
0000
0003
0000
,
0200
0000
0000
3300
,
2020
0000
0030
0000
,
0200
0000
0000
3300
,
0202
0000
0300
0000
,
0020
0000
0000
0033
;

//--------------- dance-single - jenro-2020 ----------------
#NOTES:
     dance-single:
     jenro-2020:
     Hard:
     11:
     0,0,0,0,0:
0000
0000
0000
0000
,
0000
0000
0000
0000
,
0000
0000
0000
0000
,
0000
0000
0000
0000
,
0000
0000
0000
0000
,
0100
0000
1000
0001
0000
0000
0010
0000
,
1000
0000
0001
1000
0000
0000
0010
0000
,
0100
0000
0001
0100
0000
0000
0010
0000
,
1000
0000
0010
0100
0000
0000
0001
0000
,
0010
0000
1000
0010
0000
0000
0100
0000
,
0001
0000
0010
0100
0000
0000
0010
0000
,
1000
0000
0010
0100
0000
0000
0001
0000
,
1000
0000
0010
1000
0000
0000
0001
0000
,
1000
0000
0001
0010
0000
0000
0001
0000
,
1000
0000
1000
0100
0000
0000
0010
0000
,
0100
0000
0001
1000
0000
0000
0010
0000
,
0001
0000
1000
0001
0000
0000
0010
0000
,
1000
0000
0010
0100
0000
0000
0001
0000
,
0010
0000
0001
1000
0000
0000
1000
0000
,
0002
0000
0000
0000
,
0000
0000
0000
0000
,
0020
0000
0003
0000
,
0200
0000
0030
0000
,
2000
0000
0300
0000
,
0000
0000
0000
0000
,
0020
0000
3000
0000
,
0200
0000
0030
0000
,
0002
0000
0300
0000
,
0200
0000
0003
0000
,
0020
0000
0300
0000
,
2000
0000
0030
0000
,
0020
0000
3000
0000
,
0000
0000
0000
0000
,
0200
0000
0000
0000
,
0000
0000
0330
0000
,
1000
0000
1000
0002
0000
0000
0013
0000
,
0100
0000
0010
0100
0000
0001
0100
0001
,
0100
0002
0000
1003
0000
0000
1000
0000
,
0010
0100
0000
0001
0010
0100
1000
0010
,
0100
0000
0001
2000
0000
0000
3100
0000
,
0010
0000
0100
0010
0000
1000
0010
1000
,
0010
2000
0000
3001
0000
0000
0001
0000
,
0100
0010
0000
1100
0000
0101
0000
0101
,
0001
0000
1000
0200
0000
0000
0310
0000
,
1000
0000
0001
0100
0000
0010
1000
0001
,
0100
0010
0000
2000
0000
0000
3001
0000
,
0001
0010
0000
0100
1000
0100
1000
0100
,
1000
0000
0001
0020
0000
0000
0130
0000
,
0001
0000
1000
0010
0000
0100
0001
1000
,
0010
0100
0000
0002
0000
0000
1003
0000
,
1000
0000
0100
0000
0000
0010
0000
0000
0002
0000
0000
0000
1003
0000
0000
0000
,
0010
1000
0010
2000
0000
0000
3001
0000
,
0001
0010
0001
0100
0000
0100
0001
0010
,
0100
0010
0000
1001
0000
0000
0001
0000
,
1000
0100
0001
0100
1000
0010
0100
0001
,
0100
0000
0100
0001
1000
0010
1000
0000
,
1000
0100
1000
0010
0000
0010
1000
0100
,
0010
0100
0000
1001
0000
0000
1000
0000
,
0001
0010
1000
0010
0001
0100
0010
1000
,
0100
0010
0001
0020
0001
0000
0031
0000
,
0100
0010
1000
0010
0000
1000
0001
1000
,
0001
0100
0010
2000
0001
0000
3001
0000
,
0010
0100
0010
0100
1000
0001
0100
0001
,
0010
0100
1000
0200
1000
0000
1300
0000
,
0010
0100
0001
0100
0000
0001
1000
0001
,
1000
0010
0100
0002
1000
0000
1003
0000
,
0100
0000
0010
0000
0000
0010
0000
0000
0010
0000
0000
0000
0101
0000
0000
0000
,
0010
0100
0000
1000
0000
0000
0110
0000
,
0010
0100
0000
0002
0000
0000
0000
0000
,
0103
0010
0000
1000
1000
0000
0110
0000
,
0001
1000
0100
0001
0000
1000
0001
1000
,
0010
0100
0010
0200
0000
0000
0310
0000
,
0001
0001
1000
1000
0000
0000
0000
0000
,
0010
0100
0010
0200
0000
0000
0310
0000
,
0001
0100
1000
0100
0000
0000
0000
0000
;
