#TITLE:Fading;
#SUBTITLE:;
#ARTIST:Shallou;
#TITLETRANSLIT:;
#SUBTITLETRANSLIT:;
#ARTISTTRANSLIT:;
#GENRE:Electronic;
#CREDIT:jenro;
#MUSIC:Fading [jenro].ogg;
#BANNER:Fading [jenro]-bn.png;
#BACKGROUND:Fading [jenro]-bg.png;
#CDTITLE:cdtitle.png;
#SAMPLESTART:51.786;
#SAMPLELENGTH:16.696;
#SELECTABLE:YES;
#OFFSET:0.388;
#BPMS:0.000=115.000;
#STOPS:;
#BGCHANGES:0.388=Fading [jenro].avi=1.000=0=0=0=StretchNoLoop====,
99999.000=-nosongbg-=1.000=0=0=0=StretchNoLoop====
;
#FGCHANGES:;

//--------------- dance-single - jenro-2020 ----------------
#NOTES:
     dance-single:
     jenro-2020:
     Beginner:
     3:
     0,0,0,0,0:
0000
0000
0000
0000
,
0000
0000
0000
0000
,
0000
0000
0000
0000
,
0001
0000
0001
0000
,
0001
0000
0001
0000
,
0100
0000
0001
0000
,
0010
0000
0001
0000
,
1000
0000
1000
0000
,
1000
0000
1000
0000
,
0100
0000
1000
0000
,
0100
0000
1000
0000
,
0001
0000
1000
0000
,
0001
0000
1000
0000
,
0010
0000
0010
0000
,
0010
0000
0010
0000
,
0100
0000
0001
0000
,
1000
0000
0100
0000
,
0010
0000
0010
0000
,
0001
0000
1000
0000
,
0010
0000
0010
0000
,
1000
0000
0001
0000
,
0100
0000
0100
0000
,
0100
0000
0010
0000
,
1000
0000
0001
0000
,
0010
0000
0001
0000
,
0100
0000
0001
0000
,
0100
0000
1000
0000
,
0010
0000
0001
0000
,
0010
0000
1000
0000
,
0100
0000
0001
0000
,
0100
0000
1000
0000
,
0010
0000
0001
0000
,
0010
0000
1000
0000
,
0001
0001
0001
0000
,
0001
0001
0001
0000
,
0001
0001
0001
0000
,
0010
0000
0001
0000
,
1000
1000
1000
0000
,
1000
1000
1000
0000
,
1000
1000
1000
0000
,
0010
0000
0001
0000
,
1000
0000
1000
0000
,
0110
0000
1000
0000
,
0110
0000
1000
0000
,
0010
0100
0100
0000
,
0001
0000
1001
0000
,
1000
0000
1001
0000
,
0100
0000
0001
0001
,
1000
0000
1000
0000
,
0100
0000
0000
0000
;

//--------------- dance-single - jenro-2020 ----------------
#NOTES:
     dance-single:
     jenro-2020:
     Easy:
     4:
     0.228984,0.238753,0.038393,0,0,167,163,4,0,0,0,0.228984,0.238753,0.038393,0,0,167,163,4,0,0,0:
0000
0000
0000
0000
,
0000
0000
0000
0000
,
0000
0000
0000
0000
,
1000
0000
0010
0000
,
1000
0010
0100
0000
,
0010
0000
1000
0000
,
1000
0010
0100
0000
,
0010
0000
0010
0000
,
1000
0010
0100
0000
,
1000
0000
0100
0000
,
0010
0100
1000
0000
,
0100
0000
0100
0000
,
0010
0100
1000
0000
,
1000
0000
0001
0000
,
0100
0001
0100
0000
,
0100
0000
0001
0000
,
1000
0010
0001
0000
,
0100
0010
1000
0100
,
1000
0010
0100
1000
,
0010
0000
1000
0100
,
0001
0000
0001
0100
,
0010
0100
1000
0010
,
0100
1000
0010
1000
,
0010
0000
0010
1000
,
0001
0000
0010
0100
,
0010
1000
0100
0100
,
0001
0100
0001
0001
,
0100
1000
0010
1000
,
0001
0001
0100
0110
,
0010
0001
0100
0100
,
1000
0100
1000
1000
,
0100
0001
0010
0001
,
1000
1000
0100
0110
,
0001
0001
1000
0001
,
1000
1000
0001
1000
,
0001
0001
0010
1000
,
0001
0001
0100
0110
,
0001
0001
1000
0001
,
1000
1000
0001
1000
,
0001
0001
0010
0001
,
1000
1000
0100
0110
,
1000
1000
0100
1000
,
0010
0100
1000
0010
,
1000
1000
0010
1000
,
0100
0100
1000
1000
,
0010
1000
0100
1000
,
0010
0100
1000
0010
,
1000
1000
0010
0010
,
0100
1000
1000
0100
,
1000
1000
1000
1000
;

//--------------- dance-single - jenro-2020 ----------------
#NOTES:
     dance-single:
     jenro-2020:
     Medium:
     8:
     0.349646,0.429756,0.172766,0.038393,0.043192,255,237,18,4,0,0,0.349646,0.429756,0.172766,0.038393,0.043192,255,237,18,4,0,0:
0000
0000
0000
0000
,
0000
0000
0000
0000
,
0000
0000
0000
0000
,
1000
0100
0010
0001
,
1000
0010
0100
0001
,
0010
0100
1000
0001
,
1000
0010
0100
0001
,
0010
0100
0010
0001
,
1000
0010
0100
0001
,
0010
0100
1000
0000
0001
0000
0100
0000
,
0010
0100
0001
0000
0001
0000
0010
0000
,
0100
0010
0001
0000
0001
0000
1000
0000
,
0010
0100
0001
0000
0001
0000
1000
0000
,
0100
0010
0001
1000
0010
0000
1000
0000
,
0010
0100
0001
1000
0100
0000
0001
0000
,
0100
0010
1000
0000
0010
0000
0100
0000
,
0001
1000
0001
0000
0001
0000
0010
0000
,
0100
0010
1010
0000
0100
0010
1010
0000
,
1000
0010
1000
0100
1000
0001
0100
0010
,
0100
0010
0011
0000
0100
0010
0011
0000
,
0001
1000
0100
0010
,
0001
0100
0101
0000
0001
0100
0101
0000
,
0001
0100
0010
1000
0001
0010
0001
1000
,
0001
0100
1100
0000
0001
0100
1100
0000
,
0010
1000
0100
0001
,
2010
0000
3001
0000
1000
0001
0100
0000
,
0001
0010
0001
0000
1000
0010
1000
0000
,
0012
0000
1003
0000
0100
0010
0001
0000
,
0100
0001
0010
0000
0100
1000
0001
0000
,
2010
0000
3001
0000
0100
0001
0010
0000
,
0001
1000
0010
0000
1000
0100
1000
0000
,
0012
0000
0000
0000
1003
0000
0000
0000
0100
0000
0000
0010
0000
0000
0100
0000
,
0010
1000
0001
0100
0001
0010
0100
1000
,
1000
0000
0000
0000
1000
0000
0000
0000
0010
0000
0000
1000
0000
0000
0100
0000
,
1000
0000
0000
0000
0001
0000
0000
0000
0100
0000
0000
0001
0000
0000
0010
0000
,
0001
0000
0000
0000
1000
0000
0000
0000
0100
0000
0000
0010
0000
0000
0100
0000
,
1000
0000
0000
0000
0010
0000
0000
0000
0100
0000
0000
0001
0000
0000
0010
0000
,
0001
0000
0000
0000
1000
0000
0000
0000
0010
0000
0000
1000
0000
0000
0100
0000
,
1000
0000
0000
0000
0001
0000
0000
0000
0010
0000
0000
0100
0000
0000
1000
0000
,
0001
0000
0000
0000
0010
0000
0000
0000
0001
0000
0000
1000
0000
0000
0010
0000
,
1000
0000
0000
0000
0001
0000
0000
0000
0100
0000
0000
0010
0000
0000
0110
0000
,
0000
0000
0001
0000
1000
0010
1000
0010
,
0110
0000
1000
0000
0001
0010
0001
0010
,
0110
0001
0001
1000
,
1000
0000
0100
0010
0001
1000
0100
0010
,
0000
0000
0100
0000
0001
0010
0001
0010
,
1010
0000
0010
0000
1000
0010
1000
0010
,
0011
0000
0001
0000
0010
0001
1000
0000
,
0001
0000
1000
0000
0010
0000
0100
0001
,
0000
0100
0100
0100
;

//--------------- dance-single - jenro-2020 ----------------
#NOTES:
     dance-single:
     jenro-2020:
     Hard:
     10:
     0.42506,0.445653,0.067187,0.019196,0.086383,310,303,7,2,0,0,0.42506,0.445653,0.067187,0.019196,0.086383,310,303,7,2,0,0:
0000
0000
0000
0000
,
0000
0000
0000
0000
,
0000
0000
0000
0000
,
0001
0000
0000
0000
0100
0000
0000
0000
0001
0000
0000
1000
0100
0000
1000
0000
,
0001
0000
0200
0000
0310
0000
1000
1000
,
0100
0000
0000
0000
0010
0000
0000
0000
0001
0000
0000
0100
0010
0000
0100
0000
,
0001
0000
0000
0000
0020
0000
0000
0000
0031
0000
0000
1000
0010
0000
0000
0000
,
1000
0000
0000
0000
0001
0000
0000
0000
0010
0000
0000
0100
1000
0000
0001
0000
,
0001
0000
0000
0000
0100
0000
0000
0000
0001
0000
0000
0000
1000
0100
1000
0100
,
1000
0000
0000
0000
0001
0000
0000
0000
0100
0000
0000
0001
1000
0000
0100
0000
,
0010
0000
0100
0000
1000
0000
0001
0100
,
0001
0000
0000
0000
1000
0000
0000
0000
0100
0000
0000
0010
0001
0000
0100
0000
,
0010
0000
1000
0000
0100
0000
0010
0001
,
0001
0000
0000
0000
1000
0000
0000
0000
0010
0000
0000
1000
0001
0000
0001
0000
,
0001
0000
0010
0000
0100
0000
0010
0001
,
0001
0100
0010
1000
,
0100
0000
0000
0000
0010
0000
0000
0000
0001
0000
0000
0000
0010
0100
0010
0100
,
0010
0001
0010
0100
1000
0001
0100
0010
,
1000
0001
0010
0001
0100
0010
1000
0001
,
0010
0000
0100
0000
1000
0010
0100
0000
,
0001
0000
1000
0000
0001
0010
0100
0000
,
0010
0001
0100
0010
1000
0001
0010
0001
,
0100
0010
1000
0100
0010
0001
1000
0010
,
0100
0000
0001
0000
0010
0100
1000
0000
,
0000
0000
0100
0000
0010
1000
0100
0000
,
0010
0001
1000
0001
0100
0010
0100
0000
,
0001
0010
0100
1000
0001
0010
0001
0000
,
0100
0010
1000
0100
0010
0100
1000
0000
,
0001
0100
0001
0010
0100
1000
0010
0000
,
0010
1000
0001
1000
0100
0010
0100
0000
,
1000
0010
0100
0001
1000
0010
1000
0000
,
0100
0010
0001
0100
0010
0100
0001
0000
,
1000
0100
1000
0010
0100
0001
0100
0000
,
0001
0001
0001
0000
1000
0100
0001
0100
,
1000
1000
1000
0000
0001
0100
1000
0100
,
0001
0001
0001
0000
0010
0100
1000
0000
,
0001
0100
0001
0010
0100
1000
0010
0000
,
0001
0001
0001
0000
1000
0010
0001
0010
,
1000
1000
1000
0000
0001
0010
1000
0010
,
0001
0001
0001
0000
0010
0100
0001
0000
,
1000
0100
1000
0010
0100
0001
0100
0000
,
1000
0000
0000
0100
1000
0000
0001
0000
0100
0000
0001
0000
1000
0000
0100
0000
,
0010
0000
0000
0001
0100
0000
0010
0000
1000
0000
0100
0000
0010
0000
0100
0000
,
1000
0000
0000
0010
1000
0000
0001
0000
0010
0000
0001
0000
1000
0000
0010
0000
,
0100
0000
0000
0001
0100
0000
0001
0000
1000
0000
0100
0000
1000
0000
0100
0000
,
0010
0000
0000
0001
1000
0000
0010
0000
0100
0000
0001
0000
1000
0000
0100
0000
,
0010
0000
0000
0001
0100
0000
0010
0000
1000
0000
0100
0000
0010
0000
0001
0000
,
1000
0000
0010
0000
1000
0000
0001
0000
0010
0000
0000
0100
0000
0000
0010
0000
,
0001
0100
0010
1000
0100
1000
0010
0110
,
0000
0100
0100
0100
;

//--------------- dance-single - jenro-2020 ----------------
#NOTES:
     dance-single:
     jenro-2020:
     Challenge:
     12:
     0,0,0,0,0:
0000
0000
0000
0000
,
0000
0000
0000
0000
,
0000
0000
0000
0000
,
1000
0000
1000
0000
1000
0000
0001
0001
,
0001
0000
0100
0010
1000
0001
0100
0010
,
0100
0000
0001
0000
0010
0100
1000
0100
,
1000
0000
0010
0000
1000
0001
0100
0010
,
1000
0000
0100
0000
0001
1000
0001
0010
,
0001
0000
0100
0000
0010
1000
0100
0100
,
0100
0000
1000
0000
0010
0100
0001
0100
,
0001
0000
0010
0000
0001
1000
0100
0010
,
0001
0000
0100
0000
1000
0001
1000
0010
,
1000
0000
0100
0000
0010
0001
0100
0100
,
0100
0000
1010
0000
0101
0000
1000
0010
,
0001
0000
0100
0000
0001
0010
0100
1000
,
0101
0000
1010
0000
0001
0001
0010
1000
,
0100
0000
0000
0000
1001
0000
0000
0000
1100
0000
0000
0000
0001
0010
0100
0010
,
0100
0000
0000
1100
0000
0000
1001
0000
0100
0000
0010
0000
1001
0000
0000
0000
,
0100
0000
0000
0101
0000
0000
1001
0000
0100
0000
0010
0000
1001
0000
0010
0000
,
1001
0000
0000
1100
0000
0000
1100
0000
0001
0000
0100
0000
0001
0000
0000
0000
,
1001
0000
0000
0101
0000
0000
0101
0000
1000
0000
0100
0000
1000
0000
0100
0000
,
1000
0000
0020
0000
1030
0100
0001
0000
,
1000
0000
0100
0000
0001
0000
0100
0000
1000
0000
0100
0000
0001
1000
0001
1000
,
0001
0000
0000
0100
0000
0000
0010
0000
1000
0000
0001
0000
0101
0000
0000
0000
,
0000
0000
0000
0011
0000
0000
0011
0000
0000
0000
1100
0000
1000
0100
0010
0001
,
1000
0000
0001
0100
0001
0000
1000
0000
0010
0000
0100
0000
0001
0000
0010
0000
,
0011
0000
1000
0100
1000
0000
1000
0000
0100
0000
0010
0000
0001
0000
1000
0000
,
1010
0000
0100
0010
0100
0000
0010
0000
0100
0000
0001
0000
1000
0000
1000
0000
,
0010
0000
0100
0010
0100
0000
0100
0000
0001
0000
0010
0000
0100
0000
1000
0000
,
1100
0000
1000
0100
1000
0000
0001
0000
0010
0000
0100
0000
1000
0000
0010
0000
,
1010
0000
0001
0100
0001
0000
0001
0000
0100
0000
0010
0000
1000
0000
0001
0000
,
0011
0100
0010
0100
1000
1000
0001
0001
,
0010
0000
0100
0000
0010
0000
0100
0000
1000
0000
0010
0100
0001
1000
0001
0100
,
0001
0000
0000
1000
0100
0000
1000
0000
0010
0000
0000
1000
0000
0000
0001
0000
,
0100
0000
0010
1000
0010
0000
0100
0000
0101
0000
0000
0001
0000
0000
1000
0000
,
0100
0000
0010
0001
0010
0000
0100
0000
1100
0000
0000
0101
0000
0000
1002
0000
,
0000
0000
0103
0000
0010
1000
0001
0100
,
0010
0000
0000
0000
0101
0000
0000
0000
0011
0000
0000
0001
0000
0000
1000
0000
,
0100
0000
0010
0001
0010
0000
0100
0000
1100
0000
0000
1000
0000
0000
0001
0000
,
0100
0000
0010
1000
0010
0000
0100
0000
0101
0000
0000
1100
0000
0000
2001
0000
,
0000
0000
0000
0000
3100
0000
0000
0000
0010
0000
0100
0000
0001
1000
0001
1000
,
0001
0100
0010
1000
0001
0100
0010
1000
,
1001
0000
0010
1000
0001
0100
0010
1000
,
1001
0000
0000
0000
1100
0000
0000
0000
0010
0000
0001
0010
0000
0001
0010
0000
,
0100
0000
1000
1000
1000
1000
1000
1000
,
1001
0100
0010
1000
0001
0100
0010
1000
,
1001
0000
0010
1000
0001
0100
0010
1000
,
1001
0000
0000
0000
1100
0000
0000
0000
0010
0000
0001
0010
0000
0001
0010
0000
,
0100
0000
1000
0100
0001
0100
1000
1000
,
1001
0000
0000
0001
0000
0000
0001
0000
0000
0000
0001
0000
0000
0001
0010
0001
;
