#TITLE:Do You Ever?;
#SUBTITLE:;
#ARTIST:Phil Good;
#TITLETRANSLIT:;
#SUBTITLETRANSLIT:;
#ARTISTTRANSLIT:;
#GENRE:;
#CREDIT:Jenro;
#MUSIC:Do You Ever [jenro].ogg;
#BANNER:Do You Ever [jenro]-bn.png;
#BACKGROUND:Do You Ever [jenro]-bg.png;
#CDTITLE:cdtitle.png;
#SAMPLESTART:42.247;
#SAMPLELENGTH:9.231;
#SELECTABLE:YES;
#OFFSET:-0.709;
#BPMS:0.000=52.000
,4.000=104.000
;
#STOPS:;
#BGCHANGES:-0.709=Do You Ever [jenro].mp4=1.000=0=0=0=StretchNoLoop====,
99999.000=-nosongbg-=1.000=0=0=0=StretchNoLoop====
;
#FGCHANGES:;

//--------------- dance-single - jenro-2024 ----------------
#NOTES:
     dance-single:
     jenro-2024:
     Beginner:
     3:
     0,0,0,0,0:
0000
0000
0000
0000
,
0010
0000
0000
0000
,
0010
0000
0000
0000
,
0020
0000
0000
0030
0000
0000
0000
0000
,
0020
0000
0000
0030
0000
0000
0000
0000
,
0100
1000
0000
0000
,
0100
0001
0000
0000
,
0100
1000
0100
0000
,
0100
0001
0100
0000
,
0001
1000
0010
1000
,
0001
1000
0001
0100
,
0002
0000
0003
0000
,
1000
0010
1000
0000
,
1000
0001
0010
0001
,
1000
0001
0110
0100
,
1000
1000
2000
3000
,
0010
0010
0010
0010
,
0001
1000
0010
0100
,
0001
1000
0010
0100
,
1000
0001
0010
0100
,
1000
0001
0010
0100
,
1001
0010
0001
0100
,
1000
0010
1000
0100
,
0001
0010
0001
0100
,
1000
0002
0000
0003
,
1000
0010
0001
0010
,
0001
0100
1000
1000
,
0010
1000
0010
0001
,
0001
1000
1000
0001
,
0001
0010
1000
0100
,
0001
0010
1000
0100
,
0001
0010
1000
0100
,
0001
0010
1000
0100
,
0001
1000
0001
1000
;

//--------------- dance-single - jenro-2024 ----------------
#NOTES:
     dance-single:
     jenro-2024:
     Easy:
     3:
     0,0,0,0,0:
0000
0000
0000
0000
,
0000
0010
0000
0010
,
0100
1000
0000
1000
,
0100
0001
0000
0001
,
0100
1000
2000
3001
,
0010
0100
0000
0010
,
0001
0100
0000
0010
,
1000
0100
0000
0011
,
0100
0200
0300
0001
,
1000
1000
0100
1000
,
1001
0100
0100
0010
,
0001
0100
0010
0001
,
1000
1000
0001
0001
,
0011
1000
1000
0100
,
0010
1000
0001
0100
,
0010
0010
0100
1001
,
0002
2003
3002
0003
,
0110
0100
1000
0101
,
0100
0100
0001
1000
,
0010
0100
0110
0100
,
0002
1003
2000
3010
,
0001
0100
1000
0100
,
0010
0100
0010
0100
,
0001
1100
1000
0101
,
0010
0200
0000
0300
,
0001
0001
0001
0000
2000
0000
3010
0000
,
0100
0100
0100
0000
0020
0000
1030
0000
,
0100
0100
0100
0000
0020
0000
0031
0000
,
1000
1001
2000
3000
,
1000
1000
1000
0000
0001
0001
0010
0000
,
0100
0100
0100
0000
0010
0010
0001
0000
,
0100
0100
0100
0000
0010
0010
1000
0000
,
0001
1001
0002
0003
,
0100
0000
0000
0000
;

//--------------- dance-single - jenro-2024 ----------------
#NOTES:
     dance-single:
     jenro-2024:
     Medium:
     8:
     0,0,0,0,0:
0000
0000
0000
0000
,
0000
0000
0000
0100
0010
1000
0100
0000
,
0000
0000
0000
0100
0010
0001
0200
0000
,
0310
0000
0000
0001
0000
1000
0000
0000
,
1000
0001
0100
1000
0000
0000
1001
0000
,
0000
0000
0000
0100
0010
0001
0100
0000
,
0000
0000
0000
0100
0010
1000
0200
0000
,
0310
0000
0000
1000
0000
0001
0000
0000
,
0001
1000
0100
0001
0000
0000
1001
0000
,
0100
0001
0100
0000
1000
0010
0100
0000
,
0010
0100
1000
0000
0001
0100
0001
0000
,
0001
0010
0100
0000
1000
0100
1000
0000
,
0001
1000
0010
1000
0001
0010
0110
0000
,
0100
1000
0100
0000
0100
0010
0001
0000
,
0010
0001
0100
0000
1000
0100
1000
0000
,
1000
0010
0100
0000
0001
1000
0001
0000
,
1000
0001
0001
1000
1000
0001
0101
0000
,
2100
3010
0102
0013
,
0100
0001
0101
0010
1100
0101
0000
1001
,
2000
0000
3001
0110
0000
0220
0330
0000
,
0002
0000
1003
0001
0100
2000
3001
0000
,
1000
0100
1000
0100
1000
0100
1000
1000
,
0001
0100
0001
0100
0001
0100
0001
0001
,
0010
0100
1000
0001
0100
0010
1000
0001
,
1000
0001
0100
0010
1000
0001
0100
0000
,
0102
0013
2100
3010
,
1001
0001
0101
0000
1001
1000
1100
0000
,
1001
0100
1001
0010
0001
0001
1000
1000
,
0100
0010
1010
0100
0101
1001
0002
0003
,
2100
0001
3010
0000
0102
1000
0013
0000
,
1001
1000
1100
0000
1001
0001
0101
0000
,
1000
0001
0100
0000
1001
0000
0010
0000
1000
0000
1000
0000
0001
1000
0001
0000
,
0100
0010
0011
0100
1100
1001
2000
0000
,
3010
1000
1000
0001
,
0001
0010
0000
0000
;

//--------------- dance-single - jenro-2024 ----------------
#NOTES:
     dance-single:
     jenro-2024:
     Hard:
     13:
     0,0,0,0,0:
0000
0000
0000
0000
,
0001
0000
1000
0000
0010
0000
0100
0001
0100
0001
0100
0010
0100
0000
1000
0000
,
0001
0000
0010
0000
0100
0000
0100
1000
0100
1000
0100
0010
0100
0000
1000
0000
,
1000
0001
0001
0200
0010
0301
1001
0000
,
1000
0000
0000
0001
0000
0000
0100
0000
0000
0010
0000
0000
1000
0000
0000
0000
0000
0000
0000
0000
0000
0000
0000
0000
0110
0000
0000
0000
0000
0000
0000
0000
,
1000
0000
0001
0000
0010
0000
0100
1000
0100
1000
0100
0010
0100
0000
0001
0000
,
1000
0000
0010
0000
0100
0000
0100
0001
0100
0001
0100
0010
0100
0000
0001
0000
,
0001
1000
1000
0200
0010
1300
1001
0000
,
0001
0000
0000
1000
0000
0000
0010
0000
0000
0100
0000
0000
0001
0000
0000
0000
0000
0000
0000
0000
0001
0000
0000
0000
0100
0000
0000
0000
1100
0000
0000
0000
,
0000
1000
0100
0101
0000
0001
0010
1010
,
0000
0011
0000
1100
0000
0101
0000
0001
,
1000
0001
1000
0001
0000
0000
1000
0000
0000
0000
0010
0000
0100
0000
0001
0000
,
1000
0100
0010
0002
0003
1000
0100
0101
,
0000
0001
0100
1100
0000
1000
0010
0011
,
0000
1010
0000
0101
0000
1100
0000
1000
,
0001
1000
0001
1000
0000
0000
0001
0000
0000
0000
0010
0000
0100
0000
1000
0000
,
1001
0100
0010
1001
0010
0100
2002
3003
,
1000
0000
0001
0100
0001
0100
0001
0000
1000
0000
0000
0100
1000
0100
1000
0100
,
1000
0000
0001
0100
0001
0100
0001
0000
0100
0000
0000
0010
1000
0010
1000
0010
,
1000
0000
0100
1000
0100
1000
0100
0000
0110
0000
0001
0000
0011
0000
0200
0000
,
0300
0000
0000
0000
0000
0000
0001
1000
0010
0100
0001
1000
0020
0000
0000
0000
,
0130
0001
0101
1000
1100
1000
1010
0001
,
0011
0000
1000
0001
1000
0001
1000
0000
0010
0000
0100
0000
0001
0000
1000
0000
,
0100
0000
1000
0100
1000
0000
0010
0000
0110
0000
0100
0000
0220
0000
0000
0000
,
0330
0000
0000
0000
0000
0000
1000
0001
0010
0100
1000
0001
0020
0000
0000
0000
,
0130
1000
0100
1000
0100
1000
0100
0000
0100
0000
0000
0100
0010
0100
0010
0100
,
0010
0001
0010
0001
0010
0001
0010
0000
0010
0000
0000
0010
0100
0010
0100
0010
,
0100
1000
0100
1000
0100
1000
0100
0000
0100
0000
0000
1000
0001
1000
0001
1000
,
0010
0100
0010
0100
0010
0100
0010
0000
0010
1000
0001
0100
0010
1000
0001
0000
,
0100
0001
0100
0001
0100
0001
0100
0000
0100
0000
0000
0100
0010
0100
0010
0100
,
0010
1000
0010
1000
0010
1000
0010
0000
0010
0000
0000
0010
0100
0010
0100
0010
,
0100
0001
0100
0001
0100
0001
0100
0000
0100
0000
0000
0001
1000
0001
1000
0001
,
0010
0100
0010
0100
0010
0100
0010
0000
0010
0001
1000
0100
0010
0001
1000
0000
,
0001
0001
0001
0001
,
0001
0001
0001
0000
;

//--------------- dance-single - jenro-2024 ----------------
#NOTES:
     dance-single:
     jenro-2024:
     Challenge:
     15:
     0,0,0,0,0:
0000
0000
0000
0000
,
0002
0000
1003
0010
0100
0010
0000
0000
0000
0000
0000
0001
1000
0000
0010
0100
,
0001
0000
1000
0100
1000
0100
0000
0000
0000
0000
0000
0010
0001
0000
0001
0100
,
0010
0000
1000
0001
1000
0001
0000
0000
0000
0000
0000
1000
0010
0000
0000
0000
,
0010
0000
0000
0001
0000
0000
0010
0000
0000
0100
0000
0000
1000
0000
0000
0000
0000
0000
0000
0000
0000
0000
0001
0000
1000
0000
0000
0000
0001
0000
0010
0000
,
0100
0010
0100
1000
0100
0000
1000
0010
0100
0010
0100
0001
0100
0000
0010
1000
,
0001
0000
1000
0100
0000
0010
0001
0010
0001
0010
0001
0100
0001
0000
0001
0100
,
0100
0000
0000
0010
0000
0000
1000
0000
0000
0000
0001
0010
0000
0000
0001
0010
,
0100
0000
0000
1000
0000
0000
0100
0000
0000
0010
0000
0000
0001
0000
0000
0000
0000
0000
0000
0000
0001
0000
0000
0000
1000
0000
0000
0000
0001
0000
0000
0000
,
0100
0000
0010
1000
0001
0100
0010
0100
0001
1000
0100
0010
0100
0010
0001
1000
,
0001
1000
0100
0010
0100
0010
0001
0000
0000
0000
0100
0000
0000
0000
2000
0000
,
0000
0000
3001
0000
0000
0000
0011
0000
0000
0000
0001
0100
0000
0010
1000
0001
,
0100
0000
0010
0100
0000
0001
0100
0000
0000
0000
1000
0000
0001
0000
1100
0000
,
0100
0000
0010
0001
1000
0100
0010
0000
0000
0000
0100
0010
0100
0010
0001
1000
,
0001
1000
0100
0010
0100
0010
0001
0000
0000
0000
0110
0000
0000
0000
1000
0000
,
0000
0000
0110
0000
0000
0000
0001
0000
0000
0000
0100
0010
0000
0100
0001
0010
,
0100
0010
0100
1000
0100
0010
0100
0010
0001
0010
0100
0010
0100
1000
0001
0100
,
0010
0000
1000
0001
1000
0010
2000
0000
3001
0000
0000
0001
1000
0001
0100
0001
,
0010
0100
1000
0100
0010
0001
0200
0000
0310
0000
0000
0010
1000
0001
0100
0010
,
0100
0001
1000
0100
1000
0001
0100
0001
0010
0000
0100
1000
0010
0100
0001
0100
,
0010
0000
1000
0001
0100
0000
0010
1000
0001
1000
0010
1000
0200
0000
0000
0310
,
0100
0000
0010
0001
0100
0000
1000
0001
0100
0001
0010
0100
1000
0010
0100
0001
,
0200
0000
0310
0100
0001
1000
0010
1000
0001
0100
0010
0100
0010
0100
0001
1000
,
0100
0000
0010
0100
2000
0000
3001
0001
0000
0000
1000
1000
0000
0001
0010
0100
,
1000
0000
0001
1000
1001
0000
1000
0001
1000
1000
1000
1000
1000
0000
0000
0010
,
0100
0001
0100
0010
0100
0010
0100
0001
1000
0100
0010
0100
0010
0100
1000
0100
,
0010
0100
1000
0100
0010
0100
0010
0001
0010
0100
1000
0001
0100
0010
1000
0001
,
1000
0100
0010
0001
1000
0010
0100
0001
1000
0001
1000
0010
0100
0001
0100
0010
,
1000
0100
0010
0001
1000
0001
1000
0001
1000
1000
1000
1000
1000
0001
1000
0010
,
0100
0010
0100
0001
0100
0010
1000
0001
0010
0100
0010
0100
0010
0100
0010
0001
,
1000
0100
0010
0001
0010
0100
1000
0100
0010
0100
0010
0001
1000
0010
0100
0001
,
1000
0100
0010
0001
1000
0010
0100
0001
1000
1000
0001
0001
0010
0010
0100
0100
,
0010
0100
0010
0001
1000
0001
0001
1000
0001
0010
0010
0100
0100
1000
0001
1000
,
0001
0000
0000
0001
0100
0000
0000
0100
0010
0000
0000
0010
1000
0000
0000
1000
,
0100
0000
0000
0100
0010
0000
0000
0010
0100
0000
0000
0100
1000
0000
0000
0000
;
