#TITLE:Crop Circles;
#SUBTITLE:;
#ARTIST:Jon Bellion;
#TITLETRANSLIT:;
#SUBTITLETRANSLIT:;
#ARTISTTRANSLIT:;
#GENRE:Conspiracy Pop;
#CREDIT:jenro;
#MUSIC:Crop Circles [jenro].ogg;
#BANNER:Crop Circles [jenro]-bn.png;
#BACKGROUND:Crop Circles [jenro]-bg.png;
#CDTITLE:cdtitle.png ;
#SAMPLESTART:47.964;
#SAMPLELENGTH:19.200;
#SELECTABLE:YES;
#OFFSET:-0.564;
#BPMS:0.000=100.000;
#STOPS:;
#BGCHANGES:;
#FGCHANGES:;

//--------------- dance-single - jenro-2020 ----------------
#NOTES:
     dance-single:
     jenro-2020:
     Beginner:
     2:
     0,0,0,0,0:
0000
0000
0000
0000
,
0000
0000
0000
0000
,
0MM0
M00M
M00M
0MM0
,
0000
0000
0000
0000
,
0010
0000
0001
0000
,
0100
0000
1000
0000
,
0010
0000
0001
0000
,
0010
0000
0000
0000
,
0100
0000
1000
0000
,
0010
0000
0001
0000
,
0100
0000
1000
0000
,
0010
0000
0000
0000
0000
0000
0000
0000
0000
0000
0000
0000
M000
0M00
00M0
000M
0000
0000
M000
0M00
00M0
000M
0000
0000
M000
0M00
00M0
000M
0000
0000
M000
0M00
00M0
0000
0000
0000
0000
0000
0000
0000
0000
0000
0000
0000
0000
0000
0000
0000
,
1000
0000
1001
0000
,
0001
0001
0001
0000
,
0100
0000
0100
0000
,
1000
0000
0100
0000
,
0010
0001
0100
1000
,
0010
0001
0100
1000
,
0010
0001
0100
1000
,
0010
0010
0010
0000
,
0100
1001
0000
1000
,
0000
1000
0000
0000
,
0100
1001
0000
0001
,
0000
0001
0010
0001
,
0100
0000
1000
0000
,
0001
0000
0100
0000
,
0010
0010
0010
0000
,
1000
0000
0000
0000
0001
0000
1000
1000
,
0000
0000
0020
0030
0000
0002
0003
0000
,
0200
0000
0000
1300
,
MMMM
0000
0200
0300
0000
2000
3000
0000
,
0020
0000
0000
0031
,
MMMM
0000
0020
0030
0000
0002
0003
0000
,
0200
0000
0000
1300
,
MMMM
0000
2002
3003
0000
0000
0000
0000
,
1MM0
0000
0000
M00M
0000
0000
M00M
0000
0000
M00M
0000
0000
0MM1
0000
0000
0000
,
0010
0001
0100
1000
,
0010
0001
0100
1000
,
0100
1000
0010
0001
,
0100
1000
0010
0001
;

//--------------- dance-single - jenro-2019 ----------------
#NOTES:
     dance-single:
     jenro-2019:
     Easy:
     7:
     0,0,0,0,0:
0000
0000
0000
0000
,
0MM0
M00M
M00M
0MM0
,
0000
0MM0
0000
M00M
0000
M00M
0000
0MM0
,
0000
0MM0
M00M
M00M
,
1MM0
1000
1000
1000
,
0100
0100
0100
0000
1000
0000
1000
0000
,
0100
0100
1001
0000
0100
0100
1001
0000
,
0100
0000
0000
0100
0000
0000
0100
0000
0000
0000
0000
0000
0000
0000
0000
0000
,
0001
0010
1000
1000
1000
0100
0001
0001
,
0001
0010
1000
0100
0001
0001
0001
0000
,
1000
0100
0001
0001
0001
0010
1000
1000
,
1000
0100
0001
0010
1000
1000
1000
0000
,
1001
1001
1001
1001
0000
0000
0010
0000
,
0011
0011
0011
0100
,
1000
1000
1000
0000
1000
1000
1000
0000
,
1000
0000
0000
1000
0000
0000
1000
0000
0000
0000
0000
0000
0020
0000
0000
0000
,
0130
0001
0010
1000
0010
0001
0100
1000
,
0100
0001
0010
1000
0010
0001
0100
1000
,
0100
0001
0010
1000
0010
0001
0100
1000
,
0100
0000
0000
0001
0000
0010
0000
0100
0000
0000
0000
0000
0000
0000
0000
0000
,
0110
1001
0110
0000
0001
0001
0001
0000
,
0001
0001
0001
0000
0000
0000
0000
0000
,
0110
1001
0110
0000
1000
1000
1000
0000
,
1000
0000
1000
0000
1000
0000
0000
0000
0000
0000
0000
0010
0000
1001
0000
0100
,
0000
0000
2000
3010
,
0001
0100
1000
0000
,
0010
0000
0010
0000
,
0110
0000
0000
1001
0000
0000
1001
0000
0110
0000
0000
0000
0000
0000
0000
0000
,
0000
0110
M00M
1001
,
M00M
1001
M00M
0110
,
0000
0110
M00M
1001
,
M00M
1001
M00M
0110
,
0000
0110
M00M
1001
,
M00M
1001
M00M
0110
,
0000
0110
M00M
1001
,
M00M
1001
M00M
0110
,
0100
0100
0100
0000
0100
0100
0100
0000
,
0100
0100
0100
0000
0100
0100
1001
0000
,
0100
0100
0100
0000
0100
0100
0100
0000
,
0100
0100
0100
0000
0100
0100
1001
0000
;

//--------------- dance-single - jenro-2019 ----------------
#NOTES:
     dance-single:
     jenro-2019:
     Medium:
     8:
     0,0,0,0,0:
0000
0000
0000
0000
,
0000
0000
0000
0000
,
0MM0
0MM0
0000
M00M
M00M
0000
M00M
0000
M00M
M00M
0000
0MM0
0MM0
0000
0000
0000
,
M0M0
0M0M
M0M0
0000
0000
0000
0000
0000
,
0011
0011
0100
0100
,
0001
0011
0101
1000
,
1000
1000
0001
0000
0001
0001
1000
0000
,
1000
0101
0000
0000
,
0010
0010
1001
0000
0001
0000
0101
0000
,
0011
0000
0110
0000
1100
1000
1001
0000
,
0011
0001
0100
0000
0011
1000
0100
0000
,
0110
1001
0110
0000
1001
0110
1001
0000
,
1000
1000
1000
1000
0000
0000
0001
0000
,
0011
0011
0011
0000
,
0100
1001
0100
1001
,
0100
0000
0000
0100
0000
0000
0100
0000
0100
0000
0000
0000
0100
0000
0000
0000
,
0100
1001
0100
0000
0100
1001
0100
0000
,
0100
1001
0100
0000
0100
1001
0100
0000
,
0100
1001
0100
1001
0100
1001
0100
1001
,
0001
0000
0001
0000
0000
0001
0000
0001
0000
0000
0000
0000
0000
0000
0000
0000
,
1000
0100
0001
0000
1000
0100
0001
0000
,
1000
0100
1001
0000
0000
0000
0000
0000
,
0001
0010
1000
0000
0001
0010
1000
0000
,
0001
0000
0010
0000
1001
0000
0000
0000
1000
0000
0000
0010
0000
1000
0000
0100
,
0000
0000
0010
0001
,
0100
0000
1000
0000
,
0010
0010
0010
0000
0100
0100
0100
0000
,
0010
0000
0000
1001
0000
0000
1001
0000
0010
0000
0000
0000
1000
0000
1000
0000
,
0000
0000
0220
0330
0000
2002
3003
0000
,
0110
0000
0000
1001
0000
0000
1001
0000
0000
1001
0000
0000
0110
0000
0000
0000
,
0000
0000
0220
0330
0000
2002
3003
0000
,
0110
0000
0000
1001
0000
0000
1001
0000
0000
1001
0000
0000
0110
0000
0000
0000
,
0000
0000
0220
0330
0000
2002
3003
0000
,
0110
0000
0000
1001
0000
0000
1001
0000
0000
1001
0000
0000
0110
0000
0000
0000
,
0000
0000
2002
3003
0000
0220
0330
0000
,
1100
0000
0000
0110
0000
0000
0011
0000
0000
0110
0000
0000
1100
0000
0000
0000
,
1000
0010
0001
0100
1000
0010
0001
0100
,
1000
0010
0001
0100
1000
0010
0001
0000
,
0001
0010
1000
0100
0001
0010
1000
0100
,
0001
0010
1000
0100
0001
0010
1000
0000
;

//--------------- dance-single - jenro-2019 ----------------
#NOTES:
     dance-single:
     jenro-2019:
     Hard:
     12:
     0,0,0,0,0:
0000
0000
0000
0000
,
0000
0000
0000
0000
,
0MM0
M00M
M00M
0MM0
,
0000
0000
0000
0000
,
1010
0000
1000
0100
0000
0000
1000
0100
0000
0000
1000
0010
0000
0000
0001
1000
,
0000
0000
0001
0000
0011
0000
0100
0001
0000
0000
0011
0000
0000
0000
0000
0000
,
0100
0000
0100
0000
0100
0010
0000
0001
0000
0000
0001
0000
0001
0100
0000
0000
,
0101
0000
0100
0001
0000
0000
1001
0000
0000
0000
1000
0001
0010
0100
1000
0001
,
1000
0000
1000
0000
1000
0010
1000
0010
0100
0000
0001
0000
0010
0001
0010
0001
,
1000
0000
1000
0000
1000
0001
1000
0001
0100
0000
1001
0000
0110
0000
0000
0000
,
0001
0000
0001
0000
0001
0010
0001
0010
0001
0000
0001
0000
0001
0100
0001
0100
,
0001
0000
0000
0000
0000
0000
1000
0000
0000
0000
0000
0000
M000
0M00
00M0
000M
0000
0000
M000
0M00
00M0
000M
0000
0000
M000
0M00
00M0
000M
0000
0000
M000
0M00
00M0
0000
0000
0000
1001
0000
0000
0000
0000
0000
1001
0000
0000
0000
0000
0000
,
0020
0000
0030
0100
1000
0100
1000
0000
0000
0000
0000
0000
0001
0100
0000
0011
,
0000
0000
1000
0000
1010
0000
0001
0010
0000
0000
1001
0000
1001
0000
0000
0000
,
1000
0100
0001
0000
1000
0100
0001
0000
,
1000
0000
0100
1000
0000
0000
0001
0000
1000
0001
0000
0000
0012
0000
0000
0000
,
1003
0100
0001
0010
1000
0100
0001
0010
,
1000
0100
0001
0010
1000
0100
0001
0010
,
1000
0100
0001
0010
1000
0100
0001
0010
,
1000
0000
0001
0100
0000
1001
0000
0101
0000
0000
0000
0000
0110
0000
0110
0000
,
1000
0001
1100
0000
1000
1000
1010
0000
,
1000
0000
1000
0000
0101
0000
0001
1000
0000
0001
1000
0000
1100
0000
0000
0000
,
0001
0001
0011
0000
0001
0001
1010
0000
,
0001
0000
0001
0000
0101
0000
0000
0000
0100
0001
1000
0010
0000
1001
0000
0200
,
0000
0000
0000
0000
1300
0100
0001
0100
,
1000
0100
0001
0100
1001
1000
0001
1000
,
0010
0000
0100
0000
0001
0000
0001
1000
0000
0000
1000
0000
0001
0000
0001
0000
,
0110
0000
0000
1001
0000
0000
1001
0000
0110
0000
0000
0000
1000
0000
1000
0000
,
0000
0000
0220
0330
0000
2002
3003
0000
,
0110
0000
0000
1001
0000
0000
1001
0000
0000
1001
0000
0000
0110
0000
0000
0000
,
MMMM
0000
0220
0330
0000
2002
3003
0000
,
0110
0000
0000
1001
0000
0000
1001
0000
0000
1001
0000
0000
0110
0000
0000
0000
,
MMMM
0000
0220
0330
0000
2002
3003
0000
,
0110
0000
0000
1001
0000
0000
1001
0000
0000
1001
0000
0000
0110
0000
0000
0000
,
MMMM
0000
2002
3003
0000
0220
0330
0000
,
1MM1
0000
0000
M11M
0000
0000
M11M
0000
0000
M11M
0000
0000
1MM1
0000
0000
0000
,
1000
0010
0001
0100
1000
0010
0001
0100
1000
0010
0001
0100
1000
0010
0001
0100
,
1000
0010
0001
0100
1000
0010
0001
0100
1000
0010
0001
0100
1000
0000
0000
0000
,
0001
0010
1000
0100
0001
0010
1000
0100
0001
0010
1000
0100
0001
0010
1000
0100
,
0001
0010
1000
0100
0001
0010
1000
0100
0001
0010
1000
0100
0001
0000
0000
0000
;
