#TITLE:Carry On;
#SUBTITLE:;
#ARTIST:Jeff Carl;
#TITLETRANSLIT:;
#SUBTITLETRANSLIT:;
#ARTISTTRANSLIT:;
#GENRE:;
#CREDIT:Jenro;
#MUSIC:Carry On [Jenro].ogg;
#BANNER:Carry On [Jenro]-BN.png;
#BACKGROUND:Carry On [Jenro]-BG.png;
#CDTITLE:;
#SAMPLESTART:36.662;
#SAMPLELENGTH:12.123;
#SELECTABLE:YES;
#OFFSET:-0.087;
#BPMS:0.000=146.000;
#STOPS:;
#BGCHANGES:;
#FGCHANGES:;

//--------------- dance-single - Jenro ----------------
#NOTES:
     dance-single:
     Jenro:
     Challenge:
     9:
     0,0,0,0,0:
0000
0000
0000
0000
,
0000
0000
0000
0000
,
0000
0000
0000
0000
,
0000
0000
0000
0000
,
0000
0010
1000
0001
,
0010
0000
0100
0000
0001
1000
0000
0000
,
0000
0100
0001
1000
,
0100
0000
0010
0000
1000
0001
0000
0000
,
1000
0100
0020
1030
,
0010
0000
0100
0000
0100
0000
0001
1000
,
0100
0010
0010
0001
,
0100
0001
0001
0010
,
0001
1100
0101
0000
,
0000
0000
0000
0011
0000
1010
0000
0000
,
0000
0110
1001
0000
,
0000
0000
0000
1001
0000
0110
0000
0000
,
1001
0010
0001
0100
,
1000
0100
0001
0010
,
0100
0100
0100
0100
,
0100
0000
0100
0000
0010
0001
0000
2000
,
0000
3001
0002
1003
,
1000
0000
0001
0000
0001
0000
0001
1001
,
0000
0000
0010
0100
0010
0000
0000
0100
,
0010
0100
0000
0101
0000
0010
0000
1000
,
0000
0000
0100
0001
1000
0010
0000
0000
,
0010
0100
0000
1100
0000
0101
0000
2100
,
0000
0000
0000
0000
3010
1000
0010
1000
,
0010
0000
0100
0001
0000
1100
0000
0011
,
0000
0000
0000
0010
0001
1000
0200
0000
,
0000
0000
0000
0000
0000
0311
0000
1100
,
0000
0000
1000
0100
1000
0000
0010
0001
,
0010
0100
1000
0100
0010
0001
0100
0010
,
1000
0100
0001
0000
0001
0000
0001
0010
,
0100
0000
0001
1000
0000
1100
0000
0101
,
0000
0000
0010
0000
0100
0000
1000
1000
,
0100
0000
0000
0010
1000
0001
0110
0000
,
0000
0000
0000
1000
0001
1000
0100
0000
,
0010
0001
0100
0000
0001
1000
0001
1000
,
0010
1000
0010
0100
0001
0100
0010
0100
,
0001
1000
0100
0010
0001
1000
0110
0000
,
1001
0010
1000
0001
,
0010
0000
0100
0000
0001
1000
0000
0000
,
0000
0010
0001
1000
,
0100
0000
0010
0000
1000
0001
0000
0000
,
1000
0100
0020
1030
,
0010
0100
0100
0020
,
0130
0000
0000
0000
;
