#TITLE:Calling For You;
#SUBTITLE:;
#ARTIST:Venjent, Oktae;
#TITLETRANSLIT:;
#SUBTITLETRANSLIT:;
#ARTISTTRANSLIT:;
#GENRE:;
#CREDIT:Jenro;
#MUSIC:Calling For You [jenro].ogg;
#BANNER:Calling For You [jenro]-bn.png;
#BACKGROUND:Calling For You [jenro]-bg.png;
#CDTITLE:cdtitle.png;
#SAMPLESTART:56.276;
#SAMPLELENGTH:15.000;
#SELECTABLE:YES;
#OFFSET:-0.026;
#BPMS:0.000=128.000;
#STOPS:;
#BGCHANGES:-0.026=Calling For You [jenro].mp4=1.000=0=0=0=StretchNoLoop====,
99999.000=-nosongbg-=1.000=0=0=0=StretchNoLoop====
;
#FGCHANGES:;

//--------------- dance-single - jenro-2024 ----------------
#NOTES:
     dance-single:
     jenro-2024:
     Beginner:
     1:
     0,0,0,0,0:
0000
0000
0000
0000
,
0000
0000
0000
0000
,
0010
0000
0000
0000
,
0010
0000
0000
0000
,
0100
0000
0000
0000
,
0100
0000
0000
0000
,
0010
0000
0000
0000
,
0100
0000
0000
0000
,
0010
0000
0000
0000
,
0001
0000
0000
0000
,
0100
0000
0000
0000
,
1000
0000
0000
0000
,
0010
0000
0000
0000
,
0001
0000
0000
0000
,
0100
0000
0000
0000
,
0010
0000
0000
0000
,
0010
0000
0010
0000
,
0010
0000
0000
0000
,
0001
0000
0001
0000
,
0001
0000
0000
0000
,
0100
0000
0000
0000
,
1000
0000
0000
0000
,
0010
0000
0001
0000
,
0100
0000
1000
0000
,
0010
0000
0001
0000
,
0100
0000
1000
0000
,
0010
0000
0001
0000
,
0100
0000
1000
0000
,
0100
0000
0000
0000
,
0010
0000
0000
0000
,
0010
0000
1000
0000
,
0100
0000
0001
0000
,
0010
0000
0001
0000
,
0100
0000
1000
0000
,
0010
0000
1000
0000
,
0100
0000
0001
0000
,
1000
0000
0001
0000
,
1000
0000
0001
0000
,
0010
0000
0001
0000
,
0100
0000
0110
0000
,
0010
0000
1000
0000
,
0100
0000
0110
0000
,
0010
0000
0001
0000
,
0100
0000
0110
0000
,
0100
0000
0000
0000
,
0010
0000
0000
0000
;

//--------------- dance-single - jenro-2024 ----------------
#NOTES:
     dance-single:
     jenro-2024:
     Easy:
     4:
     0,0,0,0,0:
0000
0000
0000
0000
,
0000
0000
0000
0000
,
0001
1000
0200
0310
,
0010
0001
0100
1000
,
0001
1000
0200
0310
,
0010
0001
0100
1000
,
1000
0010
0001
0100
,
0001
0010
1000
0100
,
0020
0031
0200
1300
,
0020
0031
0200
1300
,
0020
1030
0200
0301
,
0020
1030
0200
0301
,
2000
0001
0010
3100
,
2000
0001
0010
3100
,
0002
0023
0032
0203
,
0320
2030
3020
0230
,
0302
1003
2000
3001
,
0010
0100
0010
0100
,
2000
3001
0002
1003
,
0100
0010
0100
0010
,
0002
0000
0000
0003
,
2000
0000
0000
3000
,
0010
0001
0100
1000
,
1000
0010
1000
1001
,
0010
1000
0100
0001
,
0001
0010
0001
1001
,
0001
0010
0001
0101
,
1000
0010
1000
1100
,
0200
1300
0020
0031
,
0200
0301
0020
1030
,
0001
0010
0002
0103
,
1000
0010
2000
3100
,
1000
0010
0002
0103
,
0001
0010
2000
3100
,
0001
0010
0002
0103
,
1000
0010
2000
3100
,
0001
1000
0010
0100
,
0100
0001
1000
0010
,
0010
1000
0001
0100
,
0010
0001
0100
1001
,
0010
1000
0001
0100
,
1000
0001
0100
0110
,
0010
0001
0010
1000
,
0100
1000
0100
1001
,
0010
0001
0100
1000
,
0010
1000
0100
0001
;

//--------------- dance-single - jenro-2024 ----------------
#NOTES:
     dance-single:
     jenro-2024:
     Medium:
     6:
     0,0,0,0,0:
0000
0000
0000
0000
,
0000
0000
0000
0000
,
0002
0000
0103
0000
1000
1000
1000
0000
,
2000
0000
3010
0000
0001
0001
0001
0000
,
0002
0000
0103
0000
0001
1000
1000
0000
,
2000
0000
3010
0000
1000
0001
0001
0000
,
2000
0000
0000
0000
,
3002
0000
0000
0000
,
0023
0031
0200
0301
,
2000
3200
0302
0203
,
0320
0031
0002
0103
,
2000
3200
2300
3020
,
0130
0001
1000
0100
,
0010
0010
0100
0100
,
1000
0001
0100
0001
1000
0010
1000
0001
,
0100
0001
1000
0010
1000
1000
0001
0000
,
0002
0000
0103
0000
1000
0100
1000
0000
,
2000
0000
3010
0000
0100
0001
0010
0000
,
0200
0000
0310
0000
0100
1000
0100
0000
,
2000
0000
3001
0000
1000
0010
0100
0000
,
0002
1000
0100
0010
,
2003
0001
0010
0100
,
3001
0000
0001
0000
0010
0100
0010
0000
,
0100
0000
1000
0000
0100
0010
0100
0000
,
0100
0000
1000
0000
0001
0100
0010
0000
,
1000
0000
0001
0000
1000
0001
0100
0000
,
0010
0000
1000
0000
0010
1000
0100
0000
,
0100
0000
1000
0000
0100
1000
0001
0000
,
0100
0001
0010
1000
,
0100
1000
0010
0001
,
1000
0100
0010
0000
0010
0100
1000
0000
,
0001
0100
0010
0000
0010
0100
0101
0000
,
0001
1000
0100
0000
1000
0001
1000
0000
,
1000
0010
1000
0000
0001
0100
0001
0000
,
0001
0010
0100
0000
0100
0010
0001
0000
,
1000
0010
0100
0000
0100
0010
1010
0000
,
1000
0001
0010
0000
0001
1000
0001
0000
,
0001
0100
0001
0000
1000
0010
1000
0000
,
1000
0001
0010
0000
0100
1000
0100
0000
,
1000
0010
0100
0000
0010
0100
0110
0000
,
0001
1000
0100
0000
1000
1000
1000
0000
,
1000
0010
0100
0000
0100
0100
0100
0000
,
0001
0100
0001
0000
1000
0001
0010
0000
,
0100
1000
0100
0000
1000
0010
1001
0000
,
0002
2003
3200
0320
,
0230
2300
3002
0203
,
0310
0000
0000
0000
,
0100
0000
0000
0000
;

//--------------- dance-single - jenro-2024 ----------------
#NOTES:
     dance-single:
     jenro-2024:
     Hard:
     13:
     0,0,0,0,0:
0000
0000
0000
0000
,
0000
0000
0000
0000
,
0020
0000
0000
0031
0000
0000
0010
0000
0001
0000
0200
0000
0310
0000
0000
0000
,
2000
0000
0000
3010
0000
0000
2000
0000
0100
0000
3001
0000
1001
0000
0000
0000
,
00M0
0000
0000
0M00
0000
0000
000M
0000
M000
0000
000M
0000
M000
0000
0000
0000
,
0M00
0000
0000
00M0
0000
0000
M000
0000
000M
0000
M000
0000
000M
0000
0000
0000
,
0020
0000
0000
0030
,
1000
0000
1000
0010
0000
0000
1000
0000
1000
0010
0000
0000
0100
0000
0100
0001
0000
0000
0000
0000
0000
0000
0000
0000
,
0001
0100
0010
1000
0001
0100
0010
1000
,
0001
0000
0000
0100
0000
0000
0001
0000
0010
0001
0000
0000
0000
0000
0001
0100
0000
0000
0000
0000
0001
0100
0000
0000
,
0001
0010
0100
1000
0001
0010
0100
1000
,
1000
0000
0000
0000
0000
0000
0100
0000
0000
0000
0000
0000
0010
0000
0000
0000
0001
0000
0100
0000
0000
0000
0000
0000
0200
0000
0000
0000
0000
0000
0000
0000
0000
0301
0000
0000
0000
0000
0000
0000
0000
0000
1100
0000
0000
0000
0000
0000
,
1000
0000
1000
0001
0000
0000
1000
0000
1000
0100
0000
0000
0001
0000
0001
1000
0000
0000
2000
0000
0000
3000
0000
0000
,
1000
0000
1000
0001
0000
0000
0001
0000
0001
0010
0000
0000
0100
0000
0100
1000
0000
0000
0002
0000
0000
0003
0000
0000
,
1000
0010
0100
0010
0100
0010
0100
0001
,
0010
0010
0010
0010
0110
1001
0110
0000
,
0020
0000
0000
0130
0000
0000
1000
0000
0001
0000
0200
0000
0301
0000
0000
0000
,
0020
0000
0000
0130
0000
0000
0001
0000
1000
0000
0200
0000
1300
0000
0000
0000
,
0020
0000
0000
0130
0000
0000
1000
0000
0001
0000
0200
0000
0301
0000
0000
0000
,
0020
0000
0000
0130
0000
0000
0001
0000
1000
0000
0200
0000
1300
0000
0000
0000
,
0002
0000
0000
1003
0000
0000
1000
0000
1010
0000
0001
0000
1100
0000
0000
0000
,
1000
0000
0000
1001
0000
0000
0001
0000
0020
0000
0000
0000
0030
0000
0000
0000
,
0000
1000
0000
0000
0010
0000
0000
0100
0000
0000
0001
0000
0000
1000
0000
0000
,
0001
0000
0000
0100
0000
0000
0010
0000
0000
1000
0000
0000
0001
0000
0000
0100
,
0000
0001
0000
0000
0010
0000
0000
0100
0000
0000
1000
0000
0000
0010
0000
0000
,
0100
0000
0000
0001
0000
0000
1000
0000
0000
0001
0000
0000
0100
0000
0000
0010
,
0000
1000
0000
0000
0001
0000
0000
0100
0000
0000
0001
0000
0000
0010
0000
0000
,
0100
0000
0000
0001
0000
0000
1000
0000
0000
0001
0000
0000
0100
0000
0000
0010
,
0000
1000
0000
0000
1000
0001
1000
0000
0020
0000
0000
0130
0000
0001
0100
0000
,
0000
0000
0000
0000
1010
0000
0100
0000
2010
0000
0000
3001
0000
0100
0010
0000
,
2000
0000
0000
3001
0000
0000
1000
0000
1000
0000
0010
0000
1010
0000
0000
0000
,
2000
0000
0000
0000
0000
0000
0000
0000
0000
3001
0000
0000
0000
0000
0000
0000
0000
0000
0001
0000
0000
0000
0000
0000
0022
0000
0000
0000
0033
0000
0000
0000
0000
0000
0000
0000
2200
0000
0000
0000
0000
0000
3300
0000
0000
0000
0000
0000
,
0002
0000
0000
1003
0000
0000
1000
0000
1000
0000
0100
0000
1100
0000
0000
0000
,
2000
0000
0000
3001
0000
0000
0001
0000
0001
0010
0100
0000
0101
0000
0000
0000
,
1000
0000
0010
0100
0000
0001
0100
0000
0001
0000
1000
0000
0001
0000
0000
0000
,
0001
0000
0010
0100
0000
1000
0100
0000
1000
0000
0001
0000
2002
0000
3003
0000
,
0010
0000
1000
0100
0000
0100
1000
0000
1000
0000
1000
0000
1001
0000
0000
0000
,
0010
0000
0001
0100
0000
0100
0001
0000
1001
0000
0010
0000
1002
0000
0003
0000
,
0100
0000
0010
1000
0000
0010
1000
0000
0100
0000
1010
0000
0010
0000
0000
0000
,
0100
0000
0001
0010
0000
0010
0001
0000
0100
0000
0011
0000
0100
0000
0000
0000
,
0001
0100
0001
0100
0000
0001
0010
0000
0010
0100
1000
0000
0011
0000
0000
0000
,
0010
0100
1000
0001
1000
0010
1000
0000
1000
0100
0010
0000
1100
0000
0000
0000
,
1000
0010
1000
0001
0000
0001
0100
0000
0100
0010
0100
0000
0101
0000
0000
0000
,
0001
0010
0100
1000
0000
1000
0010
0000
1100
0000
1001
0000
0011
0000
0000
0000
,
0002
0000
0000
0000
1003
0010
0100
0000
0200
0000
0000
0310
0000
1000
0010
0000
,
0001
0000
0001
0100
0000
0000
0001
0000
0001
0010
0000
0000
0100
0000
1000
0200
0000
0000
0000
0000
0000
0300
0000
0000
,
1000
0000
1000
0010
0000
0000
1000
0000
1000
0010
0000
0000
0100
0000
0100
0001
0000
0000
0002
0000
0003
0000
0000
0000
,
0001
0000
0001
0100
0000
0000
0001
0000
0001
0100
0000
0000
0010
0000
0010
1000
0000
0000
2000
0000
3000
0000
0000
0000
;
