#TITLE:Bye Bye Bye;
#SUBTITLE:;
#ARTIST:Marnik, LUNAX;
#TITLETRANSLIT:;
#SUBTITLETRANSLIT:;
#ARTISTTRANSLIT:;
#GENRE:Eurobounce;
#CREDIT:jenro;
#MUSIC:Bye Bye Bye [jenro].ogg;
#BANNER:Bye Bye Bye [jenro]-bn.png;
#BACKGROUND:Bye Bye Bye [jenro]-bg.png;
#CDTITLE:cdtitle.png;
#SAMPLESTART:96.205;
#SAMPLELENGTH:15.110;
#SELECTABLE:YES;
#OFFSET:-0.216;
#BPMS:0.000=135.014;
#STOPS:;
#DISPLAYBPM:135.000;
#BGCHANGES:;
#FGCHANGES:;

//--------------- dance-single - jenro-2021 ----------------
#NOTES:
     dance-single:
     jenro-2021:
     Beginner:
     2:
     0,0,0,0,0:
0000
0000
0000
0000
,
0000
0000
0000
0000
,
0000
0000
0000
0000
,
0000
0000
0000
0000
,
0000
0000
0001
0000
,
0000
0000
1000
0000
,
0000
0000
0010
0000
,
0000
0000
0001
0000
,
0000
0000
0000
1000
,
0000
1000
0000
0100
,
0000
0100
0000
0001
,
0000
0001
0000
0100
,
0000
0100
0000
0001
,
0000
0001
0000
0100
,
0000
0100
0000
1000
,
0000
1000
0000
0000
,
0010
0000
0010
0000
,
0100
0000
0001
0000
,
1000
0000
1000
0000
,
0100
0000
0100
0000
,
0001
0000
0010
0000
,
0001
0000
1000
0000
,
0001
0000
0001
0000
,
0010
0000
1000
0000
,
0100
0000
0100
0000
,
0010
0000
0001
0000
,
1000
0000
0010
0000
,
0001
0000
1000
0000
,
0100
0000
0100
0000
,
0010
0000
0001
0000
,
0100
0000
0100
0000
,
0001
0000
1000
0000
,
0010
0000
0010
0000
,
0000
0000
0100
0000
,
0001
0000
1000
0000
,
1000
0000
0100
0000
,
1000
0000
0001
0000
,
1001
0000
0010
0000
,
0100
0000
0001
0000
,
1000
0000
1000
0000
,
0010
0000
0100
0000
,
0001
0000
1000
0000
,
0100
0000
0010
0000
,
0001
0000
0100
0000
,
0100
0000
0100
0000
,
0010
0000
1000
0000
,
0010
0000
0001
0000
,
0010
0000
1000
0000
,
0010
0000
0001
0000
,
0010
0000
0100
0000
,
0100
0000
0100
0000
,
0100
0000
1000
0000
,
0001
0000
1000
0000
,
0000
0000
0000
0000
,
0010
0000
1001
0000
,
0100
0000
0001
0000
,
1000
0000
0010
0000
,
1000
0000
0100
0000
,
0010
0000
0001
0000
,
1000
0000
0100
0000
,
0001
0000
0001
0000
,
0001
0000
0100
0000
,
1000
0000
1000
0000
,
0010
0000
0100
0000
,
0001
0000
1000
0000
,
0010
0000
1000
0000
,
0001
0000
0100
0000
,
0001
0000
0001
0000
,
0010
0000
1000
0000
,
1000
0000
0100
0000
,
0001
0000
0010
0000
,
0010
0000
0100
0000
,
0001
0000
0010
0000
,
0010
0000
0100
0000
,
1000
0000
0010
0000
,
0010
0000
0100
0000
,
0100
0000
1000
0000
,
0001
0000
1000
0000
,
0010
0000
0010
0000
;

//--------------- dance-single - jenro-2021 ----------------
#NOTES:
     dance-single:
     jenro-2021:
     Easy:
     5:
     0,0,0,0,0:
0000
0000
0000
0000
,
0000
0000
0000
0000
,
0000
0000
0000
0000
,
0000
0000
0000
0000
,
0000
0000
0002
0000
,
0003
0000
0002
0000
,
0003
0000
0002
0000
,
0003
0000
0002
0000
,
0023
0030
0100
1000
,
0100
1000
0001
0100
,
0001
0100
1000
0100
,
1000
0100
0001
0100
,
0001
0100
0010
1000
,
0001
0001
0010
1000
,
0001
0001
1000
0100
,
0020
0030
0000
0000
,
0100
0100
0100
0010
,
1000
0001
0100
0010
,
0100
0100
0100
0000
,
0001
1000
0100
0010
,
0001
0001
0001
0000
,
1000
0010
0100
0001
,
1000
0100
0001
0000
,
0001
0010
0100
1000
,
0001
0100
1000
0000
,
1000
0000
0001
0000
,
0001
0000
0010
0000
,
0010
0000
0100
0000
,
0100
0100
0100
0000
,
1000
0000
0001
0000
,
0100
0000
0010
0000
,
1000
0000
0001
0000
,
0100
0100
0100
0000
,
0000
0000
1000
0001
,
1000
0001
1000
0010
,
0001
0100
0001
1000
,
0001
1000
0001
0010
,
0000
0000
0010
0010
,
0010
0010
1000
1000
,
1000
0100
0010
0010
,
0010
0010
0001
0001
,
0001
0100
0010
1000
,
0010
0001
0010
1000
,
0001
0100
0010
0001
,
0010
1000
0010
0001
,
1000
0100
0100
0000
,
0001
0100
0100
0000
,
1000
0010
0010
0000
,
0001
0010
0010
0000
,
0001
0000
0100
0000
,
0100
0000
0100
0000
,
0100
0000
0010
0000
,
0010
0000
0010
0000
,
0000
0000
0000
0000
,
0100
1001
0100
1000
,
0001
0010
0100
1000
,
0001
0100
0100
0010
,
1000
0001
1000
0100
,
0010
1001
0000
0100
,
0010
1000
0001
1000
,
0010
0010
0001
0100
,
1000
0100
1000
1001
,
0100
0010
0001
1000
,
0001
1000
0010
1000
,
0010
1000
0001
0010
,
0001
0010
0001
0100
,
0001
0100
1000
0100
,
1000
0100
1000
0010
,
1000
0010
0001
0010
,
0001
0010
0001
0100
,
1000
0010
1001
0100
,
0010
0100
0001
0001
,
1000
1000
0010
1000
,
0001
0100
0010
0010
,
0010
0010
1000
0100
,
0001
0100
1000
0010
,
0001
0010
1000
0001
,
1000
0001
0100
0100
,
0100
0010
0001
0000
;

//--------------- dance-single - jenro-2021 ----------------
#NOTES:
     dance-single:
     jenro-2021:
     Medium:
     7:
     0,0,0,0,0:
0000
0000
0000
0000
,
0000
0000
0000
0000
,
0000
0000
0000
0000
,
0000
0000
0000
0000
,
0000
0000
0100
1000
,
0001
0100
0100
0001
,
1000
0100
0100
1000
,
0001
0100
0100
0001
,
1000
0100
0010
0100
,
0000
0100
0001
0100
,
0000
0100
0010
1000
,
0000
1000
0010
0100
,
0000
0100
0001
0100
,
0000
0100
0010
1000
,
0000
1000
0100
0010
,
0001
0100
0000
0000
,
0010
1001
0010
1000
,
0001
0100
0001
0000
1000
0000
0010
0000
,
1000
0100
1000
0010
,
1000
0100
1000
0000
0010
0000
0001
0000
,
0100
0100
0100
0000
1000
0000
0001
0000
,
1000
0010
1000
0001
,
1000
0010
0001
1000
,
0001
0100
0101
1001
,
0002
0003
0100
0100
,
0100
0010
1000
0010
,
0100
0100
0100
0100
,
0001
0010
0100
0100
,
1000
0010
0100
0100
,
0100
0100
0001
0010
,
0100
1000
0100
0100
,
0100
0010
0001
1000
,
0010
0010
0010
0000
,
0000
0000
0100
0001
,
0100
0000
0001
0100
0001
0000
1000
0010
,
1000
0100
0010
0001
,
0100
0000
0001
0100
0001
0000
1000
0100
,
1000
0000
1001
0100
,
0010
0000
1000
0010
1000
0000
1000
0100
,
1000
0001
0100
0100
,
0010
0000
0001
0100
0001
0000
0001
0010
,
0001
0001
0001
0000
1000
0000
0100
0000
,
0001
0100
1000
0100
,
1000
0100
0010
0000
1000
0000
0010
0000
,
0001
0000
0001
0010
0100
0000
0001
0000
,
0100
0100
0200
0310
,
1000
1000
0200
0310
,
0001
0001
0200
0310
,
1000
1000
0200
0310
,
0001
0100
0001
0100
1000
0000
0010
0000
,
0100
0000
0010
1000
0100
0000
0010
0000
,
0100
0000
0000
0000
0000
0000
0010
0000
0000
0100
0000
0000
0001
0000
0000
0000
0010
0000
0000
0000
0100
0000
0000
0000
,
1000
0000
0001
0000
1000
0000
0200
0000
0000
0000
0000
0000
,
0000
0000
0300
0000
,
0100
0100
1100
0010
,
0001
0100
0010
0000
0001
0000
1000
0100
,
0010
0011
1001
0010
,
0100
0010
0001
0000
1000
0000
0010
1000
,
0010
0010
1010
0000
0000
0000
1000
0000
,
0001
0100
0010
0000
0001
0000
1000
0100
,
0010
0110
1001
0001
,
0100
0010
1000
0000
0100
0000
0100
0100
,
0100
0110
1001
1000
,
0010
1000
0001
0000
0001
0000
0001
1000
,
0010
0010
1000
1000
,
0001
1000
0100
0000
1000
0000
0010
0100
,
0001
0001
0001
0000
0001
0000
1000
0000
,
0010
0100
0001
0100
0010
0000
1000
0010
,
0100
0001
0100
0010
,
1000
0100
1000
0010
1000
0000
0010
0100
,
0001
1000
0001
0010
,
0001
0000
0001
0001
0001
0000
0100
0010
,
0100
1000
0100
1000
,
0100
0000
1000
0100
1000
0000
0010
0010
,
0010
1001
1000
0001
,
1000
0000
0001
0100
0001
0000
1000
0100
,
1000
0010
1000
0001
,
1000
0000
0010
0010
0010
0000
0100
0000
,
0001
0001
0001
0000
;

//--------------- dance-single - jenro-2021 ----------------
#NOTES:
     dance-single:
     jenro-2021:
     Hard:
     12:
     0,0,0,0,0:
0000
0000
0000
0000
,
0000
0000
0000
0000
,
0000
0000
0000
0000
,
0000
0000
0000
0000
,
0000
0000
0000
0000
0000
0000
1000
0100
,
0001
0100
1000
0100
0000
0000
0000
0000
,
0010
0001
0010
0100
0000
0000
0000
0000
,
0000
0000
2000
3000
,
0001
0000
0100
0010
1000
0000
0001
0000
,
0100
0000
0100
0010
1000
0000
0001
0000
,
0100
0010
0101
1010
,
0100
0000
0010
0001
0010
0000
0100
1000
,
0100
0001
0100
0000
0010
1000
0001
0100
,
1000
0100
0001
0000
0010
0001
1000
0100
,
0001
0100
1000
0000
0020
0000
0130
0000
,
0001
0000
0000
0000
1001
0000
0000
0000
1000
0000
0000
0000
0000
0000
0000
0000
0000
0000
0000
0000
0000
1000
0000
0000
,
1010
0000
1001
0000
1010
0100
0001
0100
,
0001
1000
0100
1000
0010
0001
0010
0001
,
1010
0000
1001
0000
1010
0010
1000
0010
,
1000
0001
0010
0001
0100
1000
0100
1000
,
0101
0001
1001
0000
0102
0000
0013
0100
,
1000
0100
0010
0001
0010
0100
1000
0100
,
1100
0000
1001
0000
1100
1000
0010
0100
,
0001
1000
0010
0100
0101
0000
1100
0000
,
0110
0000
1001
0000
2000
0000
3010
0100
,
0001
1000
0010
0100
0001
1000
0010
0100
,
0001
0001
0001
0100
0002
0000
0013
0100
,
1000
0001
0010
0100
1000
0001
0010
0100
,
1000
1000
1000
0100
2000
0000
3100
0010
,
0001
1000
0100
0010
0001
1000
0100
0010
,
0001
0001
0001
0010
0002
0000
0103
0010
,
1000
0001
0100
0010
1000
0000
0000
0000
,
1010
1001
1010
0000
,
0000
0000
0000
0000
0000
0000
0000
0000
0100
0000
0000
0001
0000
0000
1000
0000
,
0000
0100
0000
0000
0010
0000
0001
0000
1000
0000
0000
0010
0000
0000
0100
0000
,
1001
0000
0000
0000
1100
0000
0000
0000
0010
0000
0000
1000
0000
0000
0001
0000
,
0000
0010
0000
0000
0100
0000
1000
0000
0001
0000
0000
0100
0000
0000
0010
0000
,
0011
0000
0000
0000
1001
0000
0000
0000
0011
0000
0000
0100
0000
0000
1100
0000
,
0000
0001
0000
0000
1000
0000
0010
0000
0110
0000
0000
0100
0000
0000
0001
0000
,
0101
0000
0000
0000
1100
0000
0000
0000
0001
0000
0000
1000
0000
0000
0100
0000
,
0000
0001
0000
0000
1000
0000
0010
0000
0110
0000
0000
0000
0110
0000
0000
0000
,
0110
1001
0220
0330
0000
1010
1010
0000
,
1000
0000
0000
0000
0001
0000
0100
0000
0001
0000
0000
0010
0000
0000
0100
0000
,
1000
0000
0000
0000
1001
0000
0000
0000
0101
0000
0000
0100
0000
0000
0010
0000
,
0000
1000
0000
0000
0001
0000
0100
0000
0101
0000
0000
0000
1100
0000
0000
0000
,
1000
1000
2000
3000
,
0001
0001
0002
0003
,
1000
1000
2000
3000
,
0001
0001
0002
0003
,
0020
0000
0000
0000
0030
0000
0000
0000
0100
0000
0000
1000
0000
0000
0001
0000
,
0000
0100
0000
0000
0001
0000
1000
0000
0010
0000
0000
1000
0000
0000
0001
0000
,
0000
0000
0000
0100
0000
0000
0000
0000
0000
0000
0000
0000
0001
0000
0000
0000
0000
0000
0010
0000
0000
0000
0000
0000
0100
0000
0000
0000
0000
0000
0000
0000
1000
0000
0000
0000
0000
0000
0000
0000
0001
0000
0000
0000
0000
0000
0000
0000
,
0100
0000
0010
0000
1000
0000
0001
0100
0001
1000
0100
1000
,
0001
0010
0100
1000
0001
1000
0000
0000
0000
0000
0000
0000
,
0110
0000
0110
0000
0011
0100
1000
0100
,
1000
0001
0100
0001
0010
1000
0010
1000
,
0011
0000
1001
0000
0011
0010
0001
0010
,
0001
1000
0010
1000
0100
0001
0100
0001
,
1100
0000
1001
0000
2100
0000
3010
0100
,
0001
0100
0010
1000
0010
0100
0001
0100
,
0101
0000
1001
0000
0101
0001
0010
0100
,
1000
0001
0010
0100
1100
0000
0101
0000
,
0110
0000
1001
0000
0002
0000
0013
0100
,
1000
0001
0010
0100
1000
0001
0010
0100
,
1000
1000
1000
0100
2000
0000
3010
0100
,
0001
1000
0010
0100
0001
1000
0010
0100
,
0001
0001
0001
0100
0002
0000
0103
0010
,
1000
0001
0100
0010
1000
0001
0100
0010
,
1000
1000
1000
0010
2000
0000
3100
0010
,
0001
1000
0100
0010
0001
0000
0000
0000
,
0011
0000
0000
0000
1001
0000
0000
0000
0011
0000
0000
0001
0000
0000
1001
0000
,
0000
0100
0000
0000
0010
0000
0001
0000
1010
0000
0000
0010
0000
0000
0100
0000
,
1001
0000
0000
0000
1100
0000
0000
0000
1010
0000
0000
1000
0000
0000
0011
0000
,
0000
0010
0000
0000
0100
0000
1000
0000
1001
0000
0000
0100
0000
0000
0010
0000
,
0001
0010
0100
0000
1001
0000
0000
0000
0011
0000
0000
0100
0000
0000
1100
0000
,
0000
0001
0000
0000
1000
0000
0010
0000
0110
0000
0000
0100
0000
0000
0001
0000
,
0101
0000
0000
0000
1100
0000
0000
0000
0001
0000
0000
1000
0000
0000
0100
0000
,
0000
0001
0000
0000
1000
0010
1000
0000
0110
0000
0000
0100
0000
0000
0100
0000
,
1010
1001
1010
0000
;
