#TITLE:Burst;
#SUBTITLE:;
#ARTIST:Rich Edwards feat. Victoria Voss;
#TITLETRANSLIT:;
#SUBTITLETRANSLIT:;
#ARTISTTRANSLIT:;
#GENRE:Electronic;
#CREDIT:jenro;
#MUSIC:Burst [jenro].ogg;
#BANNER:Burst [jenro]-bn.png;
#BACKGROUND:Burst [jenro]-bg.png;
#CDTITLE:cdtitle.png;
#SAMPLESTART:66.795;
#SAMPLELENGTH:20.644;
#SELECTABLE:YES;
#OFFSET:-4.218;
#BPMS:0.000=186.011;
#STOPS:;
#BGCHANGES:;
#FGCHANGES:;

//--------------- dance-single - jenro-2020 ----------------
#NOTES:
     dance-single:
     jenro-2020:
     Beginner:
     2:
     0,0,0,0,0:
0000
0000
0000
0000
,
0000
0000
0000
0000
,
0000
0000
0000
0000
,
0001
0000
0000
0000
,
0001
0000
0000
0000
,
1000
0000
0000
0000
,
0100
0000
0000
0000
,
1000
0000
0000
0000
,
0100
0000
0000
0000
,
1000
0000
0000
0000
,
0001
0000
0000
0000
,
0100
0000
0000
0000
,
1000
0000
0001
0000
,
1000
0000
0000
0000
,
0000
0000
0001
0000
,
0001
0000
0000
0000
,
0000
0000
0000
0000
,
0010
0000
1000
0000
,
1000
0000
0000
0000
,
0100
0000
0001
0000
,
0001
0000
0000
0000
,
1000
0000
0000
0000
,
0000
0000
0000
0000
,
0001
0000
0001
0000
,
0001
0000
0000
0000
,
1000
0000
0010
0000
,
1000
0000
0000
0000
,
0001
0000
0100
0000
,
0001
0000
0000
0000
,
2000
0000
0000
3000
,
0000
0000
0000
0000
,
0010
0000
0010
0000
,
0010
0000
0010
0000
,
0010
0000
0000
0000
,
1000
0000
0000
0000
,
0100
0000
0000
0000
,
1000
0000
0000
0000
,
0100
0000
0000
0000
,
1000
0000
0000
0000
,
0001
0000
0000
0000
,
0001
0000
0000
0000
,
0001
0000
0000
0000
,
1000
0000
0000
0000
,
0001
0000
0000
0000
,
0010
0000
0000
0000
,
1000
0000
0000
0000
,
0001
0000
0000
0000
,
0010
0000
0000
0000
,
0000
0000
1000
0000
,
1001
0000
0000
0000
,
1001
0000
1000
0000
,
0001
0000
0000
0000
,
1001
0000
1000
0000
,
0010
0000
0001
0000
,
0010
0000
1000
0000
,
0010
0000
0010
0000
,
0000
0000
0001
0000
,
1001
0000
0000
0000
,
1001
0000
1000
0000
,
0001
0000
0000
0000
,
1001
0000
0001
0000
,
0010
0000
1000
0000
,
0010
0000
0001
0000
,
0010
0000
0010
0000
,
0001
0000
1000
0000
,
1001
0000
0001
0000
,
1000
0000
0001
0000
,
1000
0000
0001
0000
,
1000
0000
0001
0001
,
0001
0000
1000
1000
,
1000
0000
0001
0000
,
0010
0000
0100
0000
,
0100
0000
0000
0000
,
1001
0000
1000
0000
,
0010
0000
1000
0000
,
1000
0000
0001
0000
,
0100
0000
1000
1000
,
1000
0000
0001
0001
,
0001
0000
0100
0000
,
0010
0000
0010
0000
,
0100
0000
0100
0000
;

//--------------- dance-single - jenro-2020 ----------------
#NOTES:
     dance-single:
     jenro-2020:
     Easy:
     4:
     0,0,0,0,0:
0000
0000
0000
0000
,
0000
0000
0000
0000
,
0000
0000
0000
0000
,
0001
0000
0000
0000
,
0001
0000
1000
0000
,
0100
0000
0100
0000
,
0010
0000
0100
0000
,
1000
0000
0001
0000
,
0100
0000
0000
0000
,
0110
0000
0100
0000
,
0001
0000
1000
0000
,
0001
0000
0001
0000
,
0010
0000
0100
0000
,
1000
0000
1000
0000
,
1000
0000
0001
0000
,
0001
0000
0000
0000
,
0000
0000
0001
1000
,
0100
0000
0010
1000
,
0010
0000
1000
0001
,
0010
0000
0100
0001
,
0100
0000
0010
0000
,
2002
0000
0000
3003
,
0000
0000
0000
0000
,
0100
0000
0100
0000
,
0000
0000
0001
1000
,
0010
0000
0100
0001
,
0100
0000
1000
0001
,
1000
0010
0100
0010
,
0100
0000
0100
0000
,
0001
0000
0001
0000
,
1000
0000
1000
0000
,
1000
1000
1000
1000
,
1000
0001
1000
0000
,
1001
0000
0000
0000
,
0010
0000
0100
1000
,
2000
3000
0000
0000
,
0010
0000
0100
0001
,
0002
0003
0000
0000
,
0100
0100
0100
0100
,
0010
0000
1000
0000
,
0001
0000
0100
0000
,
0000
0000
0000
0000
,
1000
0001
1000
0001
,
0100
0000
0000
0000
,
0100
0001
1000
0100
,
1000
0000
0000
0000
,
0100
0010
0010
0010
,
0001
0000
0000
1000
,
0010
0000
1001
0000
,
0100
0010
0010
0100
,
0001
0000
0100
0100
,
0100
0010
1000
0001
,
0001
0000
0100
0000
,
1001
0000
0010
0000
,
1001
0000
0100
0000
,
0001
0001
0001
1000
,
1000
0000
1001
0000
,
0010
1000
0010
0000
,
0001
0000
0010
0000
,
0001
0100
0010
1000
,
0100
0000
0010
0000
,
1001
0000
0100
0000
,
1001
0000
0010
0001
,
1000
1000
1000
0001
,
0100
0000
1001
0000
,
0001
1000
1000
1000
,
0001
0100
0100
0000
,
1000
0100
0100
0010
,
0100
0100
0100
0000
,
1001
0000
0001
0000
,
1001
0000
0100
0000
,
0100
0100
0010
0100
,
0100
0000
1000
0010
,
1000
0001
0010
0001
,
1000
0000
1000
0000
,
0001
0010
0001
1000
,
0001
0000
1001
0000
,
0010
0100
0100
0100
,
0010
0001
0001
1000
,
1000
0010
0010
0010
,
0010
0010
0100
0000
;

//--------------- dance-single - jenro-2020 ----------------
#NOTES:
     dance-single:
     jenro-2020:
     Medium:
     5:
     0.347569,0.466063,0.230867,0.035518,0,274,248,26,4,0,0,0.347569,0.466063,0.230867,0.035518,0,274,248,26,4,0,0:
0000
0000
0000
0000
,
0000
0000
0000
0000
,
0000
0000
0000
0000
,
0001
0000
0000
0000
,
0100
0000
0010
0000
,
0001
0000
1000
0000
,
1000
0000
1000
1000
,
0001
0000
0001
0000
,
1000
0000
0001
0000
,
0010
0000
0001
0000
,
0001
0001
0001
1000
,
0100
1000
0100
0100
,
0100
0010
0001
0000
,
0100
0000
0001
0000
,
1000
0000
0001
0001
,
0100
0000
1000
0000
,
0001
0000
1000
1000
,
0020
0030
1000
1000
,
0200
0300
0001
0001
,
0020
0030
0001
0001
,
0200
0300
0001
0000
,
1001
0000
0001
0000
,
1000
0000
0100
0000
,
0010
0010
0010
0010
,
0000
0000
0001
1000
,
0020
0030
1000
0001
,
0200
0300
1000
0100
,
2000
3000
0001
0100
,
0002
0003
0100
0000
,
1001
0000
0001
0000
,
1000
0000
0000
0000
,
0010
0010
0010
0010
,
0010
0100
0100
0100
,
0100
0000
0000
0000
,
0001
0000
1000
0000
,
1001
0000
0000
0100
,
0000
0000
0000
0000
,
1001
0000
0000
0000
,
0000
0000
0000
0000
,
1100
0000
0000
0000
,
0101
0000
0000
0000
,
1000
0000
0000
1000
0000
0000
0001
0000
,
0001
0000
0000
1000
0000
0000
0010
0000
,
0010
0000
0000
0100
0000
0000
0001
0000
,
0001
0000
0000
1000
0000
0000
0100
0000
,
1000
0000
0000
0001
0000
0000
0010
0000
,
0100
0000
0000
0010
0000
0000
0001
0000
,
0001
0000
0000
0000
,
0001
0001
0001
0000
,
1001
0000
0001
0010
,
0100
0000
0001
1000
,
0001
1000
0010
1000
,
0001
0000
0100
0001
,
1000
1000
1000
0100
,
0010
0001
0001
0100
,
0010
1000
1000
0001
,
0001
0000
0010
0100
,
1001
0000
1000
0010
,
0100
0000
0001
0001
,
0001
0010
0100
0100
,
1000
0001
0100
0010
,
1000
1000
0010
0100
,
0001
0100
0100
0100
,
0001
0001
0001
0001
,
0100
0100
0100
0000
,
0010
0010
0100
0100
,
1001
0000
0001
1000
,
0001
1000
0001
1000
,
1001
0000
1000
1000
,
0001
0000
0100
0100
,
0010
0000
1000
1000
,
0001
0001
1000
0010
,
0010
0100
0010
0100
,
1001
0100
0010
0100
,
1001
0000
0001
1000
,
0001
1000
0001
0010
,
1001
0000
1001
0100
,
0100
0010
0010
0100
,
0100
0010
0010
0001
,
1001
1000
0001
1000
,
1001
0001
2002
3003
;

//--------------- dance-single - jenro-2020 ----------------
#NOTES:
     dance-single:
     jenro-2020:
     Hard:
     11:
     0.461734,0.609466,0.221987,0.044397,0,364,339,25,5,0,0,0.461734,0.609466,0.221987,0.044397,0,364,339,25,5,0,0:
0000
0000
0000
0000
,
0000
0000
0000
0000
,
0000
0000
0000
0000
,
0001
0000
0001
0000
,
1000
1000
1000
0000
,
1000
0000
0000
0100
0000
1000
0001
0000
,
0000
0100
0000
0001
,
0010
0000
0000
0001
1000
0001
1000
0100
,
0000
0000
1000
0000
0000
1000
0000
0000
,
0001
0000
0000
0001
0000
1000
0100
0000
,
0000
0001
0000
0100
,
0001
0000
0000
1000
0000
0010
0100
0000
,
0000
0000
0001
0000
1000
0001
0100
0000
,
0001
0000
0000
1000
0000
0001
0100
0000
,
0000
0010
0000
0001
,
1000
0000
0000
0100
0010
0100
0010
0100
,
0000
0000
0002
0000
0000
1003
0000
0000
,
0001
0000
0001
0000
1000
0010
1000
0000
,
1000
0000
0000
0000
0001
0100
0001
0100
,
0001
0000
0001
0000
1000
0100
1000
0000
,
0001
0100
1000
1000
,
2000
0000
0001
0000
,
3100
0000
0000
0000
0000
0000
0001
1000
,
0001
1000
0001
1000
0002
0000
0013
0000
,
0100
0000
1000
0000
1000
0010
1000
0010
,
1000
0000
1000
0000
0001
0100
0001
0000
,
0001
0000
0000
0000
1000
0100
1000
0000
,
0001
0000
0100
0000
0001
0100
0001
0000
,
1000
0100
0001
1000
,
0002
0000
1000
0000
,
0103
0000
0000
0000
0000
0000
1000
0001
,
1000
0000
0001
0100
0010
0000
0010
0100
,
0010
0000
0100
0010
1000
0000
0000
0000
,
0002
0000
0003
0000
,
1000
0000
0000
0000
,
0001
0000
0000
1000
,
0000
0000
0000
0000
,
1001
0000
0000
0000
,
0000
0000
0000
0000
,
1010
0000
0000
0000
,
1010
0000
0000
0000
,
0001
0000
0000
0001
0000
0000
0002
0000
,
0013
0000
0000
0100
0000
0000
0020
0000
,
0031
0000
0000
1000
0000
0000
0002
0000
,
0103
0000
0000
0010
0000
0000
2000
0000
,
3001
0000
0000
0001
0000
0000
0020
0000
,
0130
0000
0000
0001
0000
0000
1000
0000
,
0010
0000
0000
0100
,
0100
0000
1001
1000
,
1000
0000
0010
0000
0100
0000
0001
0100
,
0001
0000
0000
0000
0001
0010
0001
0010
,
0001
0000
1000
0000
0010
0000
0100
0001
,
0100
0002
0203
0320
,
1030
2000
3200
0320
,
0031
0000
1000
0000
1000
0000
0010
1000
,
0001
1000
0001
1000
0001
0000
0100
0000
,
0100
0000
0001
0000
1000
0010
1000
0010
,
1000
0000
0001
0100
0001
0000
0010
0001
,
0010
0000
0000
0000
1000
0100
1000
0100
,
1000
0000
0001
0000
0001
0000
0100
0001
,
0100
0002
0203
0320
,
1030
2000
3200
0320
,
0031
0000
0100
0000
0001
0000
0010
0001
,
1000
0001
1000
0001
1000
0000
0001
0000
,
0010
0000
0100
0000
1000
0001
1000
0001
,
1000
0000
1000
0001
0100
0000
0010
0100
,
0001
0000
1000
0000
0001
0010
0001
0010
,
0001
0000
1000
0010
1000
0100
0010
0100
,
0010
0000
0001
1000
0001
0000
1000
0001
,
1000
0000
0001
0100
0001
0100
0010
1000
,
0010
0000
1000
0001
1000
0000
0100
0010
,
0001
1000
0100
1000
0100
0000
1000
0000
,
0001
0000
0100
0000
1000
0100
1000
0001
,
0100
0000
0010
0100
0010
0000
0100
0001
,
0100
1000
0100
0000
0010
1000
0010
1000
,
0010
0000
1000
0100
1000
0000
0001
0100
,
0001
0000
0010
1000
0001
0000
1000
0100
,
1000
0000
0010
1000
0001
0000
0001
0100
,
0001
0000
0100
0010
0100
0000
0100
0001
,
1000
0010
0100
0010
0000
1000
0010
0100
,
0001
1001
0020
0030
;

//--------------- dance-single - jenro-2020 ----------------
#NOTES:
     dance-single:
     jenro-2020:
     Challenge:
     13:
     0.561945,0.609466,0.301903,0.044397,0.026638,443,409,34,5,0,0,0.561945,0.609466,0.301903,0.044397,0.026638,443,409,34,5,0,0:
0000
0000
0000
0000
,
0000
0000
0000
0000
,
0000
0000
0000
0000
,
0001
0000
0100
0000
,
1000
1000
0100
0000
,
0001
0000
0000
1000
0100
1000
0100
1000
,
0100
0001
0000
0001
,
0001
0000
0000
0001
0100
0001
0100
0001
,
0100
0000
0002
0000
0000
1003
0000
0000
,
1000
0000
0000
0010
1000
0010
1000
0010
,
1000
1000
0100
0001
,
1000
0000
0000
0010
0100
0001
0100
0001
,
0100
0000
0100
0001
0010
0100
0010
0000
,
0001
0000
0000
1000
0100
1000
0100
1000
,
0100
1000
0100
0002
,
1003
0000
0000
0001
1000
0001
1000
0100
,
1000
0000
0001
0000
0001
0100
0001
0100
,
0002
0000
1003
0000
1000
0010
0100
0000
,
0200
0000
0300
0000
0001
0010
0001
0010
,
0002
0000
1003
0000
1000
0100
2000
0000
,
3001
0000
0100
0001
0100
0000
1000
0010
,
2000
0000
0001
0000
,
3100
0000
0001
0120
,
0100
0100
0130
1000
,
0001
0000
1000
0000
1000
0100
1000
0001
,
2000
0000
3001
0000
0001
0100
0002
0000
,
1003
0000
0000
0000
1000
0010
0100
0000
,
0001
0000
1100
0000
1000
0100
1000
0000
,
0101
0000
0001
0100
0001
0000
0001
1000
,
0002
0000
1000
0000
,
1003
0000
0000
0000
0001
0000
0010
0001
,
0010
0000
0100
1000
0100
0000
1000
0001
,
1000
0000
0001
1000
0001
0000
1000
0000
,
2002
0000
3003
0000
,
1000
0000
0100
0000
1000
0000
0001
0000
0100
0000
0001
0000
,
1000
0000
0000
0010
0000
0000
0000
0000
,
0001
0000
0010
0000
0001
0000
1000
0000
0010
0000
1000
0000
,
0001
0000
0000
0100
0000
0000
0000
0000
,
1000
0000
0010
0000
0010
0000
0100
0000
0001
0000
0001
0000
,
1000
0000
0000
0100
0000
0000
1000
0001
,
1000
0001
0100
0000
,
0010
0000
0000
0000
0000
0000
0000
0000
0000
1001
0000
0000
0000
0000
0000
0000
0000
0000
0000
0000
1000
0000
0000
0000
,
0100
0000
1000
0000
0001
0000
0010
0000
0100
0000
1000
0000
,
0001
0000
0000
0100
0000
0000
0000
0000
,
0001
0000
1000
0000
0100
0000
1000
0000
0001
0000
0010
0000
,
0100
0000
0000
0001
0000
0000
0000
0000
,
1000
0000
0001
0000
0010
0000
0001
0000
1000
0000
0100
0000
,
0010
0000
0000
0100
0000
1000
0100
0010
,
0001
0000
0110
0000
0001
0010
0001
1000
,
0010
0110
1000
0100
,
0011
0000
0001
0000
0001
0010
0100
1000
,
0100
0000
1000
0000
0110
0000
0001
0100
,
0001
0000
0001
1000
0010
0000
0100
0001
,
1000
0000
0001
0010
0001
0000
1000
0100
,
1000
0000
0100
1000
0001
0000
0010
0001
,
1000
0001
1000
0100
1000
0000
0001
0010
,
1000
0010
0100
0000
0010
0001
1000
0100
,
0010
0011
0001
1010
,
0100
0000
0010
0000
0001
0100
0001
1000
,
0010
1010
0100
0101
,
0100
0000
0001
0010
0001
0000
1000
0100
,
1000
0000
1000
0010
1000
0000
0001
0100
,
0001
0000
0100
0001
1000
0000
0100
1000
,
0001
0100
0010
1000
0000
1000
0001
1000
,
0001
0000
0110
0000
1001
0000
0001
0010
,
0100
0000
0100
1000
0001
0010
0100
0010
,
0001
0000
0001
1000
0010
1000
0100
0010
,
0100
1000
0001
1000
0001
0000
0100
0001
,
0100
0000
0001
0010
0100
0000
1000
0001
,
0100
0000
0001
0010
0001
0000
1000
0100
,
1000
0000
0100
1000
0001
0000
0100
0001
,
1000
0010
0100
0001
1000
0000
0001
1000
,
0001
1000
0001
0000
0001
0010
0100
1000
,
0100
1000
0001
0010
0100
1000
0001
1000
,
0100
0010
0001
1000
0001
0010
0001
0010
,
0001
0000
1000
0000
0001
1000
0001
0100
,
0001
1000
0010
0100
0001
1000
0010
0100
,
0001
1000
0001
0010
0100
0010
0100
1000
,
0010
0100
0001
1000
0001
0010
0100
1000
,
0001
1000
0010
1000
0001
1000
0001
1000
,
0001
1000
0001
0000
0020
0000
0030
0000
;
