#VERSION:0.83;
#TITLE:Bummed;
#SUBTITLE:(Manila Killa Remix);
#ARTIST:Chet Porter feat Alison Wonderland;
#TITLETRANSLIT:;
#SUBTITLETRANSLIT:;
#ARTISTTRANSLIT:;
#GENRE:;
#CREDIT:Jenro;
#MUSIC:Bummed [Jenro].ogg;
#BANNER:Bummed [Jenro]-bn.png;
#BACKGROUND:Bummed [Jenro]-bg.png;
#CDTITLE:cdtitle.png;
#SAMPLESTART:81.374;
#SAMPLELENGTH:15.360;
#SELECTABLE:YES;
#OFFSET:-0.734;
#BPMS:0.000=125.000
,135.000=250.000
,136.000=125.000
,230.000=62.500
;
#STOPS:135.000=0.240;
#DISPLAYBPM:125.000;
#BGCHANGES:;
#FGCHANGES:;

//--------------- dance-single - Jenro ----------------
#NOTEDATA:;
#STEPSTYPE:dance-single;
#DESCRIPTION:Jenro;
#DIFFICULTY:Beginner;
#METER:5;
#RADARVALUES:0,0,0,0,0;
#NOTES:
0000
0000
0000
0000
,
0000
0000
0000
0000
,
0000
0000
0000
0000
,
0000
0000
0000
0000
,
0100
1000
0100
0000
,
0000
0000
0000
0000
,
0010
0001
0100
0000
,
0000
0000
0000
0000
,
0010
0001
0010
0000
,
0000
0000
1100
0000
,
0100
1000
0100
0000
,
0000
0000
0011
0000
,
1000
0010
0001
0000
,
0100
0000
0100
0000
,
0001
0100
1000
0000
,
0010
1000
0010
0000
,
1000
0001
0100
0100
,
0010
0001
0100
0000
,
0001
0001
1000
1000
,
0001
0010
1000
0000
,
0100
0010
0001
0100
,
0100
1000
0001
0100
,
1000
1000
0001
0001
,
0010
0010
0100
0010
,
0001
0010
0001
0010
,
0001
0100
0001
0100
,
1000
0100
1000
0100
,
0010
1000
0010
1000
,
0010
0100
0100
0001
,
1000
1000
0010
0100
,
0100
0010
0010
1000
,
0001
0001
0010
0100
,
0100
0000
0100
0000
,
0100
0000
0100
0000
,
0011
0100
0001
0010
,
1000
0100
0001
1000
,
0001
1001
0001
0100
,
1000
0100
1001
0010
,
1100
0001
0100
0110
,
0010
1001
0100
0010
,
1100
1100
0011
0011
,
1000
0001
0020
0030
,
0011
1100
0110
0010
,
0100
1000
1000
0100
,
0001
1001
0001
0101
,
1000
1100
1001
0010
,
1010
0001
0110
0100
,
0011
1000
0101
0100
,
1010
0100
0011
0100
,
1000
0001
0200
0300
,
1000
0000
1000
0000
1000
1000
0100
0000
,
0001
0100
1000
0100
,
0010
0000
0001
0000
0010
0010
0100
0000
,
1000
0010
0001
0100
,
1000
0000
0100
0000
0010
0001
0100
0000
,
0010
0000
1000
0000
0100
1000
0010
0000
,
0001
0000
0100
0000
1000
0010
1000
0000
,
0100
0001
0200
2000
,
0000
0000
3300
0000
;

//--------------- dance-single - Jenro ----------------
#NOTEDATA:;
#STEPSTYPE:dance-single;
#DESCRIPTION:Jenro;
#DIFFICULTY:Easy;
#METER:8;
#RADARVALUES:0,0,0,0,0;
#NOTES:
0000
0000
0000
0000
,
0000
0000
0000
0000
,
0000
0000
0000
0000
,
0000
0000
0000
0000
,
0100
0010
1000
0000
,
0100
0000
1000
0000
,
0010
0000
0001
0000
,
1000
0001
1000
0000
,
0100
0001
0010
0000
,
0001
0100
1000
0000
,
1000
0100
0001
0000
,
1000
0100
0001
0000
,
0010
0100
0010
0000
,
0100
0010
1000
0000
,
0100
0000
1000
0000
,
0010
0000
0001
0000
,
1000
0100
0001
0001
,
1000
0010
0001
0010
,
0100
0100
1000
0100
,
0100
0010
0001
0100
,
0010
0010
0010
0010
,
1000
0001
0001
0001
,
1000
1000
1000
0010
,
0100
1001
0010
0001
,
1000
0100
1000
0000
0010
0100
0010
0000
,
1000
0001
0101
1010
,
0100
0001
0100
0100
,
0100
0100
0100
0000
1010
0000
1100
0000
,
0001
0100
0001
0000
1000
0000
1000
0000
,
0001
1000
1000
0000
0001
0000
0010
0000
,
0100
0100
0100
0000
1000
1000
1000
0000
,
0010
0001
0100
0000
0010
1000
0010
0000
,
1000
0001
0000
0001
,
0000
0001
0000
0000
,
0010
0100
0010
0000
0100
1000
0100
0000
,
0010
0001
0100
0000
0010
0100
0010
0000
,
0100
0001
0100
0000
0001
0100
0010
0000
,
1000
0100
1000
0000
0001
0010
0100
0000
,
0100
1000
0001
0000
0100
0010
0100
0000
,
0010
1000
0100
0000
1000
0001
0100
0000
,
1000
0100
0001
0000
1000
0100
0001
0000
,
1000
0100
0001
0000
0001
0100
0000
0000
,
1000
0010
0100
0010
1000
0010
0100
0001
,
0010
0001
0100
0000
0001
1000
0100
0000
,
0100
0100
0100
0010
0001
1000
0100
1000
,
0010
0100
0100
0000
0001
0000
1001
0000
,
0100
0010
0100
0000
0010
0100
0010
0000
,
1000
0100
1000
0000
0010
0100
0010
0000
,
0100
0100
0100
0000
0001
0100
0001
0000
,
0001
0100
1000
0000
0010
0000
0000
0000
,
0100
0001
0001
0001
,
1000
0000
1000
0000
1000
0010
0100
0110
,
0010
0001
0001
0001
,
1000
0000
1000
0000
1000
0010
0001
1001
,
1000
0100
0100
0001
,
1000
0100
0001
0000
0100
0001
0100
0000
,
1000
0010
0001
0000
1000
0001
1000
0000
,
1000
0001
1001
0000
0200
0000
0002
0000
,
0000
0000
0303
0000
;

//--------------- dance-single - Jenro ----------------
#NOTEDATA:;
#STEPSTYPE:dance-single;
#DESCRIPTION:Jenro;
#DIFFICULTY:Medium;
#METER:11;
#RADARVALUES:0,0,0,0,0;
#NOTES:
0000
0000
0000
0000
,
0000
0000
0000
0000
,
0000
0000
0000
0000
,
0000
0000
0000
0000
,
0000
0100
0000
0001
,
0000
0000
0001
0000
0000
0000
0100
0010
,
0000
1000
0000
0001
,
0000
1000
0000
0100
,
0010
0010
0001
1000
,
0100
0000
0001
0000
1000
0000
0100
1000
,
0100
0010
0001
0100
,
0100
0000
1000
0000
1000
0001
0100
0010
,
0000
0100
0000
0010
,
0000
0010
0000
1000
,
0000
0001
0000
1000
,
0000
1000
0002
0000
,
0103
0000
0000
0001
1000
0000
0000
0000
0100
0000
0000
0000
0010
0000
0000
0000
,
0100
0000
0000
0000
1000
0000
0000
0000
0010
0000
0000
0010
0100
0000
0000
0000
,
0001
0000
0000
1000
0100
0000
0000
0000
0001
0000
0000
0000
0100
0000
0000
0000
,
0010
0000
0000
0000
1000
0000
0000
0000
0010
0000
0000
0100
0010
0000
0000
0000
,
1000
0000
0000
0100
0010
0000
0000
0000
0001
0000
0000
0000
0001
0000
0000
0000
,
1000
0000
0000
0000
0010
0000
0000
0000
0110
0000
0000
0100
0010
0000
0000
0000
,
1000
0001
0000
0100
0000
0010
0000
0100
,
0000
0000
0100
0000
0000
0000
0100
0000
0010
0000
0000
1000
0010
0000
0000
0000
,
0100
0000
0000
0001
0100
0000
0000
0000
1000
0000
0100
0000
0010
0000
0000
0000
,
0010
0000
0001
0000
0100
0000
0000
0000
0100
0000
0000
0001
1000
0000
0000
0000
,
0100
1000
0100
0000
0010
0001
1000
0000
,
0100
0010
0010
1000
0001
0100
0100
0010
,
1000
0000
0000
0100
0010
0000
0000
0000
0001
0000
0000
0100
0010
0000
0000
0000
,
1000
0000
0000
0100
0010
0000
0000
0000
0001
0000
0000
0100
0010
0000
0000
0000
,
1000
0001
1000
0001
1000
0001
1000
0001
,
1000
0001
1000
0001
1000
0001
1000
0001
1000
0001
1000
0001
1000
0001
1000
0001
,
1000
0100
0100
0100
2000
0000
3010
0000
,
0002
0013
2000
3010
,
1100
0000
1100
0000
0101
0001
0100
0000
,
0010
1000
0100
0000
0010
1000
0100
0000
,
0010
0100
1000
0000
0001
0100
0010
0000
,
1000
0000
0001
0000
0100
0000
0010
1000
0001
0010
0100
1000
0010
0100
0001
0100
,
0010
0000
0000
0100
0001
0000
0000
0010
0100
0000
0000
1000
0100
0000
0000
0010
,
0001
0000
0000
0100
0001
0000
0000
1000
0010
0000
0000
0100
0010
0000
0000
1000
,
0001
0001
1000
0010
0100
0001
0001
0010
,
0100
1000
1000
0100
0001
0200
0000
0300
,
0010
0100
1000
0010
0100
0010
0100
0001
,
0010
0001
1000
0100
1000
0010
0100
0001
,
1000
1000
0001
0010
0001
1000
1000
0010
,
1000
0000
0010
0000
0100
0000
0001
0000
1000
0010
0100
0001
0100
0001
0100
0001
,
0010
0100
1000
0010
1000
0010
1000
0010
,
1000
0100
0010
0010
0100
1000
0001
0100
,
0010
1000
0100
0100
1000
0010
0100
0100
,
0010
0000
1000
0000
0001
0000
1000
0000
0001
0010
0001
0010
0002
0000
0000
0000
,
0013
0001
1000
0100
0010
0000
0011
0000
,
1100
0001
1000
0000
0010
0100
0110
0000
,
2001
0000
3100
0000
1000
0010
1010
0000
,
0011
0000
0101
0000
0010
0010
1010
0000
,
1001
0000
0100
0000
1000
0010
0110
0000
,
1100
0000
0001
0000
0100
0001
0011
0000
,
1100
0000
0001
0000
1000
0001
1001
0000
,
0020
0130
2000
0002
,
0000
0000
3003
0000
;

//--------------- dance-single - Jenro ----------------
#NOTEDATA:;
#STEPSTYPE:dance-single;
#DESCRIPTION:Jenro;
#DIFFICULTY:Hard;
#METER:12;
#RADARVALUES:0,0,0,0,0;
#NOTES:
0000
0000
0000
0000
,
0000
0000
0000
0000
,
0000
0000
0000
0000
,
0000
0000
0000
0000
,
1000
0010
0001
0001
,
0001
0000
0001
0000
0001
1000
0010
1000
,
0100
0010
0001
0001
,
0001
0010
0100
1000
,
0100
0000
0100
0000
0100
0000
0010
1000
,
0100
0000
0100
0010
0100
0000
1000
0001
,
0100
0000
0001
0100
1000
0000
1000
0100
,
0001
0000
0001
1000
0001
0010
0100
1000
,
0100
0100
0100
1000
0000
0001
0010
0001
,
0000
0001
0010
0001
0000
0100
0010
0100
,
0001
1000
0000
1000
0000
0000
0000
0000
,
0000
0000
0101
0000
,
1000
0000
0000
0010
1000
0000
0100
0000
1000
0000
0001
0000
1000
0000
0100
0000
,
1000
0000
1000
0000
0100
0000
0010
0000
0001
0000
0000
1000
0001
0000
0100
0000
,
0001
0000
0000
0010
0100
0000
1000
0000
0010
0000
0100
0000
0001
0000
0100
0000
,
0001
0000
0010
0000
0001
0000
0100
0000
0010
0000
0000
0100
0001
0000
1000
0000
,
0100
0000
0000
0010
0100
0000
1000
0000
0001
0000
0001
0000
1000
0000
0010
0000
,
0100
0000
0001
0000
1000
0000
0100
0000
1000
0000
0000
0001
0010
0000
0000
0000
,
1100
0000
0000
0010
0001
0000
0000
0000
1001
0000
1000
0000
0001
0000
1000
0000
,
0001
0000
1000
0000
0001
0000
1000
0000
1000
0000
0000
0010
0100
0000
0000
0000
,
0011
0000
0000
0100
1000
0000
0001
0000
0100
0000
0001
0000
1000
0000
0100
0000
,
1000
0000
0001
0000
0100
0000
0001
0000
1000
0000
0000
0001
1000
0000
0010
0000
,
1000
0000
0000
1000
0010
0000
1000
0000
0100
0000
0010
0000
0001
0000
0010
0000
,
0100
1000
0010
0100
0001
0100
0010
1000
,
0100
0010
0100
1000
0010
0100
0001
1000
,
0100
0010
0100
1000
0001
1000
0100
0010
,
0001
0000
0010
0000
0001
0000
0010
0000
0001
0010
0001
0010
0001
0010
0001
0010
,
0001
0100
0010
1000
0002
0000
0000
0000
,
1003
0100
0000
0100
,
0000
0100
0000
1000
,
0001
0000
0000
0100
0000
0000
0100
0000
1000
0000
0000
0100
0000
0000
0010
0000
,
0010
0000
0000
0001
0000
0000
0010
0000
1000
0000
0000
0100
0000
0000
0001
0000
,
0100
0000
0000
0010
0000
0000
1000
0000
0010
0000
0000
0001
0000
0000
0010
0000
,
1000
0000
0000
0100
0000
0000
0001
0000
0001
0100
0010
1000
0010
1000
0010
0000
,
1000
0000
0000
0100
0000
0000
0001
0000
1000
0000
0000
1000
0000
0000
0001
0000
,
1000
0000
0000
0010
0000
0000
0001
0000
0100
0000
0000
0100
0000
0000
0001
0000
,
1000
0000
0000
1010
0000
0000
0100
0000
0001
0000
0000
1001
0000
0000
0100
0000
,
1000
0000
0000
0011
0000
0000
0100
0000
1000
0100
1000
0100
0001
0100
0010
0000
,
0001
0000
0100
0010
0100
0000
0010
0000
1000
0000
0010
1000
0010
0000
1000
0000
,
0001
0000
0010
0001
0010
0000
0001
0000
0010
0000
0001
0100
0010
0000
1000
0000
,
0010
0000
1000
0100
0010
0000
0001
0000
0010
0000
0001
1000
0001
0000
0010
0000
,
0001
0000
0100
0010
1000
0000
0010
0000
1000
0100
0010
0001
1000
0010
1000
0000
,
0010
0000
0100
0001
1000
0000
0100
0000
1000
0000
0010
0100
0001
0000
1000
0000
,
0100
0000
0001
0100
1000
0000
0010
0000
0100
0000
1000
0100
0001
0000
1000
0000
,
0001
0000
0100
0010
0100
0000
0010
0000
1000
0000
0001
0100
0001
0000
0100
0000
,
0001
0000
1000
0100
0010
0000
0001
0000
0100
0010
0100
0001
1000
0000
0000
0000
,
1100
0000
0000
0100
0000
0000
1000
0100
0010
0001
0000
0010
0001
0000
0000
0010
,
0100
0000
0100
1000
0000
0000
0010
0100
0010
0100
0000
0000
1001
0000
0000
0000
,
0100
0000
0100
0001
0000
0000
1000
0100
1000
0100
0000
0000
0010
0000
0000
0100
,
1000
0000
0001
0100
0000
0000
1000
0100
0010
0100
0010
0000
0100
0000
0001
0000
,
0011
0000
0000
0010
0000
0000
1000
0010
0100
0001
0000
0100
0001
0000
0000
0100
,
0010
0000
0010
1000
0000
0000
0100
0010
0100
0010
0000
0000
1001
0000
0000
0000
,
0001
0000
0000
1000
0000
0000
0100
0010
0001
1000
0000
0001
0100
0000
0000
0010
,
1000
0000
0100
1000
0000
0000
0100
0010
0001
0000
0000
0000
0001
0000
0000
0000
;
