#TITLE:Better With You;
#SUBTITLE:;
#ARTIST:Jesse McCartney;
#TITLETRANSLIT:;
#SUBTITLETRANSLIT:;
#ARTISTTRANSLIT:;
#GENRE:;
#CREDIT:Jenro;
#MUSIC:Better With You [jenro].ogg;
#BANNER:Better With You [jenro]-bn.png;
#BACKGROUND:Better With You [jenro]-bg.png;
#CDTITLE:cdtitle.png;
#SAMPLESTART:53.154;
#SAMPLELENGTH:16.621;
#SELECTABLE:YES;
#OFFSET:-0.917;
#BPMS:0.000=101.077;
#STOPS:;
#DISPLAYBPM:101.000;
#BGCHANGES:-0.917=Better With You [jenro].mp4=1.000=0=0=0=StretchNoLoop====,
99999.000=-nosongbg-=1.000=0=0=0=StretchNoLoop====
;
#FGCHANGES:;

//--------------- dance-single - jenro-2024 ----------------
#NOTES:
     dance-single:
     jenro-2024:
     Beginner:
     1:
     0,0,0,0,0:
0000
0000
0000
0000
,
0000
0000
0000
0000
,
1000
0000
0000
0000
,
0001
0000
0000
0000
,
0001
0000
0000
0000
,
1000
0000
0000
0000
,
1000
0000
0000
0000
,
0010
0000
0000
0000
,
0001
0000
0000
0000
,
0100
0000
0000
0000
,
1000
0000
0000
0000
,
0001
0000
0000
0000
,
0001
0000
0000
0000
,
1000
0000
0000
0000
,
1000
0000
0000
0000
,
0010
0000
0000
0000
,
0001
0000
0000
0000
,
0100
0000
0000
0000
,
1000
0000
0000
0000
,
0001
0000
0000
0000
,
0001
0000
0000
0000
,
0000
0000
0000
0000
,
1000
0000
0001
0000
,
0001
0000
1000
0000
,
1000
0000
0010
0000
,
0001
0000
0100
0000
,
1000
0000
0001
0000
,
0001
0000
1000
0000
,
1000
0000
0010
0000
,
0001
0000
0000
0000
,
0100
0000
0000
0000
,
0100
0000
0000
0000
,
0010
0000
0000
0000
,
0000
0000
0000
0000
,
1000
0000
0000
0000
,
0001
0000
0000
0000
,
0001
0000
0000
0000
,
1000
0000
0000
0000
,
0010
0000
0000
0000
,
0001
0000
0000
0000
,
0100
0000
0000
0000
,
1000
0000
0000
0000
,
0000
0000
0000
0000
,
1000
0000
0001
0000
,
0001
0000
1000
0000
,
1000
0000
0010
0000
,
0001
0000
0100
0000
,
1000
0000
0001
0000
,
0001
0000
1000
0000
,
1000
0000
0010
0000
;

//--------------- dance-single - jenro-2024 ----------------
#NOTES:
     dance-single:
     jenro-2024:
     Easy:
     2:
     0,0,0,0,0:
0000
0000
0000
0000
,
0000
0000
0000
0000
,
0001
0000
0000
0100
,
0000
0100
0000
0000
,
1000
0000
0000
0100
,
0000
0100
0000
0000
,
0001
0000
0000
1000
,
0000
0100
0000
0000
,
1000
0000
0000
0001
,
0000
0100
0000
0000
,
0001
0000
0000
0100
,
0000
1000
0000
0100
,
1000
0000
0000
0100
,
0000
0001
0000
0100
,
0001
0000
0000
0010
,
0000
1000
0000
0010
,
1000
0000
0000
0010
,
0000
0001
0000
0010
,
0001
0000
0000
0000
,
1000
0000
0000
0000
,
0001
0000
0000
0000
,
0000
0000
0000
0000
,
0001
0100
0100
1000
,
0100
0100
0001
1000
,
0100
1000
0001
0100
,
0001
0100
1000
0100
,
1000
0100
0100
0001
,
0100
0100
1000
0001
,
0100
0001
1000
0100
,
0010
0000
0000
0000
,
0100
0000
0000
0000
,
0100
0000
0000
0000
,
0100
0000
0000
0000
,
0100
0001
1000
0001
,
0001
0000
0000
0010
,
0000
1000
0000
0010
,
1000
0000
0000
0010
,
0000
0001
0000
0010
,
0001
0000
0000
0100
,
0000
1000
0000
0100
,
1000
0000
0000
0100
,
0000
0001
0000
0100
,
0000
0000
0000
0000
,
1000
0010
0010
0001
,
0010
0010
1000
0001
,
0010
0001
1000
0010
,
1000
0010
0001
0010
,
0001
0010
0010
1000
,
0010
0010
0001
1000
,
0010
1000
0001
0010
,
0100
0000
0000
0000
;

//--------------- dance-single - jenro-2024 ----------------
#NOTES:
     dance-single:
     jenro-2024:
     Medium:
     6:
     0,0,0,0,0:
0000
0000
0000
0000
,
0000
0000
0000
0000
,
0000
0001
1000
0100
1000
0001
0100
0010
,
1000
0000
0000
0001
0000
0000
0100
0000
0000
0000
0000
0000
0100
0000
0000
0000
,
0000
1000
0001
0100
0001
1000
0100
0010
,
0001
0000
0000
1000
0000
0000
0100
0000
0000
0000
0000
0000
0100
0000
0000
0000
,
0000
0010
0001
0100
0001
0010
1000
0100
,
1000
0000
0000
0100
0000
0000
0001
0000
0000
0000
0000
0000
1000
0000
0000
0000
,
0000
0010
1000
0100
1000
0010
0001
0100
,
0001
0000
0000
0100
0000
0000
1000
0000
0000
0000
0000
0000
0001
0000
0000
0000
,
2000
0100
0010
3001
0000
0002
0100
1003
,
0000
0002
0010
0100
0003
0000
1000
0000
,
0001
0100
0001
0100
0001
0010
1000
0000
,
1000
0100
1000
0100
1000
0010
0001
0000
,
0002
0100
0010
1003
0000
2000
0100
3001
,
0000
2000
0010
3100
0000
0000
1001
0000
,
1000
0100
1000
0100
1000
0010
0001
0000
,
0001
0100
0001
0100
0001
0010
1000
0000
,
0000
0000
0001
0000
0000
1000
0000
0000
0010
0000
0000
1000
0000
0000
0001
0000
,
0000
0000
1000
0000
0000
0001
0000
0000
0010
0000
0000
0001
0000
0000
1000
0000
,
0000
0000
0001
0000
0000
1000
0000
0000
0001
0000
0000
1000
0000
0000
0001
0000
,
0000
0001
0100
1000
1000
0010
0002
0000
,
1003
0000
0000
1000
0100
0000
0010
0000
1000
0000
0000
0001
0100
0000
0010
0000
,
0001
0000
0000
0001
0100
0000
0010
0000
1000
0000
0000
1000
0100
0000
0010
0000
,
0001
0000
0000
1000
0100
0000
0010
0000
0001
0000
0000
0001
0100
0000
0010
0000
,
1000
0000
0000
1000
0001
0000
1000
0000
0001
0000
0000
0001
1000
0000
0001
0000
,
1000
1000
0100
0001
0100
0001
0100
1000
,
0100
1000
0010
0001
0010
0001
0010
1000
,
0010
1000
0001
1000
0001
0001
1000
0002
,
0003
0000
0000
0010
1000
0100
1000
1000
,
0000
0000
0000
0010
0001
0100
0001
0001
,
0000
0000
0000
0000
0000
0000
0000
1000
0001
1000
0000
0010
0000
0100
0000
0001
,
0000
0000
1000
0000
0000
0000
0000
0000
1000
0100
0000
0010
0000
0100
0000
2000
,
0000
3001
1000
0000
1000
0000
1000
0000
,
2000
0010
0100
3001
0000
0002
0010
1003
,
0000
0002
0100
0013
0000
0000
1000
0000
,
0001
0010
0001
0010
0001
0100
1000
0000
,
1000
0010
1000
0010
1000
0100
0001
0000
,
0002
0010
0100
1003
0000
2000
0010
3001
,
0000
2000
0100
3010
0000
0000
1001
0000
,
1000
0010
1000
0010
1000
0100
0001
0000
,
0001
0010
0001
0010
0001
0100
1000
0000
,
0001
0100
1000
1000
0100
0001
0001
0100
,
1000
0000
0000
1000
0010
0000
0100
0000
1000
0000
0000
0001
0010
0000
0100
0000
,
0001
0000
0000
0001
0010
0000
0100
0000
1000
0000
0000
1000
0010
0000
0100
0000
,
0001
0000
0000
1000
0010
0000
0100
0000
0001
0000
0000
0001
0010
0000
0100
0000
,
1000
0000
0000
1000
0001
0000
1000
0000
0001
0000
0000
0001
1000
0000
0001
0000
,
1000
0000
0000
1000
0010
0000
0001
0000
0010
0000
0000
0001
0010
0000
1000
0000
,
0010
0000
0000
1000
0100
0000
0001
0000
0100
0000
0000
0001
0100
0000
1000
0000
,
0100
0000
0000
1000
0001
0000
1000
0000
0001
0000
0000
0001
1000
0000
0001
0000
;

//--------------- dance-single - jenro-2024 ----------------
#NOTES:
     dance-single:
     jenro-2024:
     Hard:
     12:
     0,0,0,0,0:
0000
0000
0000
0000
,
0000
0000
0000
0000
,
0000
0010
1000
1000
0010
0100
0100
0001
,
0010
0000
0000
0100
0000
0000
2000
0000
0000
0000
0000
0000
3100
0000
0000
0000
,
0000
0010
0001
0001
0010
0100
0100
1000
,
0010
0000
0000
0100
0000
0000
0002
0000
0000
0000
0000
0000
0103
0000
0000
0000
,
0000
1000
0001
0001
1000
0010
0010
0100
,
1000
0000
0000
0001
0000
0000
2000
0000
0000
0000
0000
0000
3001
0000
0000
0000
,
0000
0000
0100
0001
0100
0000
0010
0000
1000
0000
0100
0000
0002
0000
0000
0000
,
1003
0000
0010
1000
0010
0000
0100
0000
0001
1000
0001
0000
1000
0000
0000
0000
,
2000
0100
0010
3001
0000
0002
0100
1003
,
0000
0002
0010
0103
0000
0000
1100
0000
,
0001
0100
0001
0100
0001
0010
1000
0000
,
1000
0000
0000
0100
0000
1000
0100
0000
1000
0000
0010
0000
0001
0000
0000
0000
,
0002
0100
0010
1003
0000
2000
0100
3001
,
0000
2000
0010
3100
0000
0000
0011
0000
,
1000
0100
1000
0100
1000
0010
0001
0000
,
0001
0000
0100
0001
0100
0000
0100
0000
0001
1000
0001
0000
1000
0000
0000
0000
,
0000
0000
0001
0000
0000
1000
0000
0000
0010
0000
0000
1000
0000
0000
0001
0000
,
0000
0000
1000
0000
0000
0001
0000
0000
0010
0000
0000
0001
0000
0000
1000
0000
,
0000
0000
0001
0000
0000
1000
0000
0000
1001
0000
0000
1000
0000
0000
0001
0000
,
0000
0000
0001
1000
0001
0000
0100
0000
1000
0001
1000
0000
0002
0000
0000
0000
,
0003
0000
1000
0000
0000
1010
0000
0000
0100
0000
0000
0200
0000
0000
0301
0000
,
0000
0000
0021
0000
0000
0130
0000
0000
2001
0000
0000
3100
0000
0000
0001
0000
,
0000
0000
1000
0000
0000
1000
0000
0000
1001
0000
0000
0011
0000
0000
0110
0000
,
0000
0000
0001
0000
0000
0001
0000
0000
0210
0000
0000
1300
0000
0000
0001
0000
,
0001
0010
0100
1000
0001
1000
0100
1000
0001
0100
0001
1000
0010
0100
0010
0100
,
0001
0100
0001
0010
0100
1000
0100
1000
0010
1000
0010
1000
0001
0100
0001
0100
,
0010
0100
0001
1000
0010
1000
0001
0100
0010
0100
0010
0100
0001
1000
0010
0100
,
0001
0000
0000
0010
1000
0100
1000
0010
,
0100
0000
0000
0101
0000
0000
0010
0000
0001
0000
0100
0000
0001
0000
0010
0000
,
0100
0000
0000
1100
0000
0000
0000
0001
0100
1000
0000
0100
0000
0001
0000
0010
,
0000
0000
1000
0000
0000
0000
0000
0000
1000
0100
0000
0001
0000
0100
0000
2000
,
0000
3001
2000
3000
2000
3000
0002
0003
,
1000
0010
0100
0001
0000
0002
0010
1003
,
0000
0002
0100
0013
0000
0000
1100
0000
,
0001
0010
0001
0010
0001
0100
1000
0000
,
1001
0000
0000
0010
0000
1000
0010
0000
1000
0000
0100
0000
0001
0000
0000
0000
,
1002
0010
0100
1003
0000
2000
0010
3001
,
0000
2000
0100
3010
0000
0000
0011
0000
,
1000
0010
1000
0010
1000
0100
0001
0000
,
0001
0000
0010
0001
0010
0000
0001
0000
1000
0001
1000
0000
0100
0000
0000
0000
,
0010
0010
0010
0100
1000
1000
1000
0100
,
1000
0001
1000
0001
0010
0000
0100
0000
1000
0001
1000
0001
0010
0000
0100
0000
,
0001
1000
0001
1000
0010
0000
0100
0000
1000
0001
1000
0001
0010
0000
0100
0000
,
0001
1000
0001
1000
0010
0000
0100
0000
0001
1000
0001
1000
0010
0000
0100
0000
,
0010
1000
0010
0010
0100
0001
0100
0100
0001
1000
0001
0100
0020
0000
1030
0000
,
1000
0010
0100
0001
1000
0001
0100
0001
1000
0100
1000
0001
0010
0100
0010
0100
,
1000
0100
1000
0010
0100
0001
0100
0001
0010
0001
0010
0001
1000
0100
1000
0100
,
0010
0100
1000
0001
0010
0001
1000
0100
0010
0100
0010
0100
1000
0001
0010
0100
,
1000
0000
0010
0100
0002
0000
1003
0000
1000
1000
2000
0000
0200
0000
3300
0000
;
