#TITLE:Always You;
#SUBTITLE:;
#ARTIST:Ourson;
#MUSIC:Always You [Jenro].ogg;
#BANNER:Always You [Jenro]-bn.png;
#BACKGROUND:Always You [Jenro]-bg.png;
#LYRICSPATH:;
#CDTITLE:cdtitle.png;
#SAMPLESTART:33.586010;
#SAMPLELENGTH:12.203390;
#OFFSET:-1.043637;
#BPMS:0.000000=118.000000,
380.000000=236.000000
;
#STOPS:;
#TIMESIGNATURES:;
#BGCHANGES:;
#FGCHANGES:;
#ATTACKS:;
#SPEEDS:;
#SCROLLS:;
#DISPLAYBPM:118.000000;

//---------------dance-single - ---------------
#NOTES:
     dance-single:
     :
     Challenge:
     1:
     0,0,0,0,0:
// measure 0
0000
0000
0000
0000
,  // measure 1
0000
0000
0000
0000
,  // measure 2
0000
0000
0000
0000
,  // measure 3
0000
0000
0000
0000
,  // measure 4
0000
0000
0000
0000
,  // measure 5
0000
0000
0000
0000
,  // measure 6
0000
0000
0000
0000
,  // measure 7
0000
0000
0000
0000
,  // measure 8
0000
0000
0000
1000
0001
1000
0000
0010
,  // measure 9
0000
0100
0000
0002
0000
0003
0000
0000
,  // measure 10
0000
0000
0000
1000
0001
1000
0000
0100
,  // measure 11
0000
0010
0000
0002
0000
0003
0000
0000
,  // measure 12
0000
0000
0000
1000
0010
0100
0000
0020
,  // measure 13
0000
1030
0010
1000
0000
0001
0000
0010
,  // measure 14
0000
0100
0000
0010
0000
0100
0000
0010
,  // measure 15
0000
0001
0000
1000
0000
0000
0000
0000
,  // measure 16
0010
1000
0010
0000
1000
0000
0010
1000
0001
0000
1000
0000
0100
0000
1000
0000
,  // measure 17
0001
0010
0001
0000
1000
0000
0001
0100
0001
0000
1000
0000
0100
0000
0010
0000
,  // measure 18
0001
1000
0010
0000
0100
0000
0010
1000
0010
0000
1000
0000
0001
0000
1000
0000
,  // measure 19
0100
0010
0001
0000
1000
0000
0100
0010
0001
0000
1000
0000
0100
0000
0001
0000
,  // measure 20
0100
0001
0100
0000
1000
0000
0001
1000
0001
0000
1000
0000
0010
0000
1000
0000
,  // measure 21
0010
1000
0010
0000
0100
0000
0010
0100
0010
0000
1000
0000
0001
0000
0010
0000
,  // measure 22
0100
1000
0100
0000
1000
0000
0001
0100
0001
0000
1000
0000
0001
0000
1000
0000
,  // measure 23
0001
0010
0001
0000
1000
0000
0010
0100
0010
0000
1000
0000
0001
0000
0100
0000
,  // measure 24
0010
1000
0010
0000
0100
0000
0010
0100
0001
0000
1000
0000
0100
0000
0100
0000
,  // measure 25
1000
0001
1000
0000
0100
0000
1000
0001
1000
0000
0100
0000
0010
0000
0001
0000
,  // measure 26
1000
0100
0010
0000
0001
0000
0010
0100
1000
0000
0001
0000
0001
0000
1000
0000
,  // measure 27
0100
0010
0001
0000
0001
0000
1000
0100
1000
0000
0001
0000
0010
0000
0010
0000
,  // measure 28
0100
0010
0100
0000
1000
0000
0001
0100
0001
0000
1000
0000
1100
0000
1001
0000
,  // measure 29
0001
0010
0100
0000
0010
0000
0001
1000
0100
0000
0010
0000
0001
0000
1000
0000
,  // measure 30
0010
1000
0010
0000
0100
0000
0010
0100
0010
0000
1000
0000
0001
0000
0010
0000
,  // measure 31
0001
1000
0001
0000
0110
0000
0100
1000
0001
0000
0101
0000
1000
0000
0011
0000
,  // measure 32
0001
0010
0100
1000
,  // measure 33
0001
0000
0100
0000
0010
0000
1000
1000
,  // measure 34
1000
0100
0010
0001
,  // measure 35
1000
0010
0100
0001
,  // measure 36
0001
0001
0001
0000
1000
0000
1000
0000
,  // measure 37
0100
1000
1000
0001
,  // measure 38
0200
0000
0000
0000
,  // measure 39
0000
0000
0000
0000
,  // measure 40
0301
0000
0000
1000
0001
0100
0000
0001
,  // measure 41
0000
0100
0000
0010
0000
0000
0000
0000
,  // measure 42
0000
0000
0000
0100
0010
0100
0000
0001
,  // measure 43
0000
0100
0000
0010
0000
0000
0000
0000
,  // measure 44
0000
0000
0000
0100
0001
1000
0000
0001
,  // measure 45
0000
0010
0000
0100
1000
0001
0000
0010
,  // measure 46
0000
0001
0000
1000
0000
0100
0000
0010
,  // measure 47
0000
0001
0000
1000
0000
0000
0000
0000
,  // measure 48
0001
1000
0001
0100
0001
1000
0001
0100
,  // measure 49
0010
1000
0010
0100
0010
1000
0010
0100
,  // measure 50
0010
0100
0001
0100
0010
0100
0001
0100
,  // measure 51
0010
1000
0001
0100
0010
1000
0001
0100
,  // measure 52
0010
0100
0001
1000
0010
0100
0001
1000
,  // measure 53
0100
0010
0001
0010
0100
0010
0001
0010
,  // measure 54
0001
1000
0001
0100
0001
1000
0001
0100
,  // measure 55
0001
1000
0100
1000
0001
1000
0100
1000
,  // measure 56
0001
0001
0000
0001
,  // measure 57
0000
0001
0000
0100
,  // measure 58
0010
1000
0000
1000
,  // measure 59
0000
1000
0000
1000
,  // measure 60
0100
0010
0000
0010
,  // measure 61
0000
0010
0000
0010
,  // measure 62
0001
0100
0000
0100
,  // measure 63
0000
0100
0000
0100
,  // measure 64
0000
0010
0000
1000
0000
0010
0000
0001
,  // measure 65
0000
1000
0000
0001
0000
0010
0000
1010
,  // measure 66
0000
0101
0000
0001
0000
1000
0000
0001
,  // measure 67
0000
0100
0000
0001
0000
1100
0000
0011
,  // measure 68
0000
1000
0000
0001
0000
1001
0000
1000
,  // measure 69
0000
0001
0000
0100
0000
0001
0000
0000
,  // measure 70
0000
0100
0000
1000
0000
0100
0000
0101
,  // measure 71
0000
1100
0000
1001
0000
1001
0000
1000
,  // measure 72
0100
1000
0100
0010
0001
0010
0001
0010
0001
1000
0001
1000
0010
0100
0010
1000
,  // measure 73
0002
0203
0302
2003
,  // measure 74
3100
0010
0001
0010
0001
0010
0001
1000
0001
1000
0010
1000
0001
1000
0001
1000
,  // measure 75
0200
2300
3002
2003
,  // measure 76
3010
0100
0001
1000
0001
1000
0001
1000
0100
0010
0001
1000
0001
1000
0001
1000
,  // measure 77
0020
0230
0302
0203
,  // measure 78
0301
1000
0001
0010
0001
0010
0001
0010
0001
1000
0001
0100
0001
1000
0001
1000
,  // measure 79
0001
0100
0001
0100
0001
0100
0001
0100
0001
0100
0010
1000
0001
0100
0010
1000
,  // measure 80
0001
0010
0100
0000
1001
0000
1100
0000
0100
0010
0001
0000
0011
0000
1001
0000
,  // measure 81
1000
0010
1000
0000
1001
0000
1010
0000
1000
0001
1000
0100
1000
0000
1001
0000
,  // measure 82
0001
0100
0001
0000
0101
0000
1000
0010
1000
0000
1010
0000
1001
0000
1000
0100
,  // measure 83
0010
0001
1000
0000
1001
0000
0001
0100
0010
1000
0001
0000
1001
0000
1000
0000
,  // measure 84
0001
0100
0001
1000
0010
0100
0001
1000
0001
1000
0100
1000
0001
0010
0100
0010
,  // measure 85
0001
1000
0010
0100
0010
1000
0001
1000
0010
0100
0010
1000
0001
0000
0100
0000
,  // measure 86
0001
1000
0100
1000
0001
0010
0001
1000
0010
0100
0001
1000
0100
0010
0100
1000
,  // measure 87
0001
0100
0001
1000
0010
1000
0010
1000
0010
1000
0001
0100
0001
1000
0001
1000
,  // measure 88
0020
0000
0000
0100
0000
1000
0000
0000
,  // measure 89
0000
0000
0000
0000
,  // measure 90
2030
0000
0000
0001
0000
0100
0000
0000
,  // measure 91
0000
0000
0000
0000
,  // measure 92
3002
0000
0000
0010
0000
1000
0000
0000
,  // measure 93
0000
0000
0000
0000
,  // measure 94
0203
0000
0000
0000
,  // measure 95
0310
0000
0000
0000
1000
0000
0000
0000
0001
0000
0000
0000
,  // measure 96
0100
0000
0000
0000
0010
0000
1000
0000
0100
0000
0010
0000
,  // measure 97
0001
0000
0000
0000
;
