#TITLE:you broke me first;
#SUBTITLE:;
#ARTIST:Tate McRae;
#TITLETRANSLIT:;
#SUBTITLETRANSLIT:;
#ARTISTTRANSLIT:;
#GENRE:Alternative Pop;
#CREDIT:;
#BANNER:you broke me first-bn.png;
#BACKGROUND:you broke me first-bg.png;
#LYRICSPATH:;
#CDTITLE:cdtitle.png;
#MUSIC:you broke me first.ogg;
#OFFSET:-0.123000;
#SAMPLESTART:37.845001;
#SAMPLELENGTH:23.226000;
#SELECTABLE:YES;
#BPMS:0.000000=124.000000
;
#STOPS:
;
#BGCHANGES:0.000=you broke me first.avi=1.000=1=0=1===CrossFade==,
99999=-nosongbg-=1.000=0=0=0 // don't automatically add -songbackground-
;
#KEYSOUNDS:;
#ATTACKS:;

//---------------dance-single - ----------------
#NOTES:
     dance-single:
     X-Scale 11:
     Hard:
     8:
     0.406479,0.497937,0.168943,0.320102,0.333440,320.000000,301.000000,19.000000,36.000000,0.000000,0.000000,0.406479,0.497937,0.168943,0.320102,0.333440,320.000000,301.000000,19.000000,36.000000,0.000000,0.000000:
// measure 0
0000
0000
0000
0000
,  // measure 1
0000
0000
0000
0000
,  // measure 2
0000
0000
0000
0000
,  // measure 3
0000
0000
0000
0000
,  // measure 4
0001
0000
0000
0000
0000
0000
1000
0000
0000
0000
0000
0000
0001
0000
0000
0100
0000
0000
0001
0000
0000
0000
0000
0000
1000
0000
0000
0000
0010
0000
0000
0000
0100
0000
0000
0000
0001
0000
0000
0000
0000
0000
0010
0000
0000
0000
0000
0000
,  // measure 5
0200
0000
0300
2000
0000
3000
0002
0000
0000
0000
0000
0000
0003
0000
0000
1000
,  // measure 6
0001
0000
0000
0000
1000
0000
0000
0000
0100
0000
0000
0000
0010
0000
0000
0000
0000
0000
0001
0000
0000
0000
0000
0000
1000
0000
0000
0000
0000
0000
0010
0000
0000
1000
0000
0000
0001
0000
0000
0000
0010
0000
0000
0000
0100
0000
0000
0000
,  // measure 7
0020
0000
0030
0002
0000
0003
0200
0000
0000
0000
0000
0000
0300
0000
0000
0010
,  // measure 8
0100
0000
0000
0000
0000
0000
0010
0000
0000
1000
0000
0000
0001
0000
0000
0000
0010
0000
0000
0000
0100
0000
0000
0000
1000
0000
0000
0000
0010
0000
0000
0000
0100
0000
0000
0000
0001
0000
0000
0000
0000
0000
0100
0000
0000
0001
0000
0000
,  // measure 9
0200
0000
0300
0020
0000
0030
2000
0000
0000
0000
0000
0000
3000
0000
0100
0000
,  // measure 10
0010
0000
0001
0010
0001
0000
1000
0000
0010
1000
0001
1000
0000
0100
0010
0000
,  // measure 11
0001
0100
0000
0001
0000
0000
2000
0000
0000
0000
0000
0000
3000
0000
0000
0000
,  // measure 12
1010
1000
0010
0000
0100
0100
0001
0000
,  // measure 13
0021
0000
0000
0000
0000
0000
0030
0100
,  // measure 14
1000
0100
0001
0100
1000
0100
0001
0100
,  // measure 15
0010
0001
2000
0000
3020
0000
0000
0030
,  // measure 16
1010
1000
0002
0000
0203
0000
0320
0000
,  // measure 17
2030
0000
0000
0000
0000
0000
3000
0010
,  // measure 18
1000
0001
1000
0010
0001
0010
2000
0000
,  // measure 19
3002
0000
0003
0100
0001
1000
0001
0010
,  // measure 20
0100
0000
0000
1000
0000
0000
0001
0000
0000
1000
0000
0000
0200
0000
0000
0000
,  // measure 21
0310
0000
0000
0000
0011
0010
0100
1000
,  // measure 22
0001
0000
0000
0100
0000
0000
0010
0000
0000
0100
0000
0000
0002
0000
0000
0000
,  // measure 23
1000
0003
0000
0001
0010
1000
0010
0100
,  // measure 24
1000
0000
0000
0100
0000
0000
0001
0000
0000
0010
0000
0000
2000
0000
0000
0000
,  // measure 25
3001
0000
0000
0100
0101
0001
1000
0010
,  // measure 26
0100
0000
0000
0001
0000
0000
0010
0000
0000
0100
0000
0000
2000
0000
0000
0000
,  // measure 27
3000
0100
0010
0000
0001
0000
1000
0000
,  // measure 28
1001
0000
0001
0100
0101
0000
1000
0001
,  // measure 29
0100
0000
0000
0000
0010
0000
0000
0000
0101
0000
0001
0000
1000
0001
1000
0001
,  // measure 30
1000
0000
0100
0010
0110
0000
0100
0000
,  // measure 31
1000
0000
0000
0000
0000
0000
0000
0000
0000
1000
0000
0000
0100
0000
0000
0000
0000
0000
0000
0000
0000
0000
0000
0000
1010
0000
0000
0000
0010
0000
0000
0000
1000
0000
0000
0000
0001
0000
0000
0000
0000
0000
0000
0000
0000
0010
0000
0000
,  // measure 32
0000
0000
0200
0000
0000
0000
0300
2000
0000
0000
0000
0000
0000
0000
0000
0000
,  // measure 33
0100
0000
0000
0000
0000
0000
0000
0000
0000
0000
0000
0000
3000
0000
0000
0000
0000
0000
0000
0000
0000
0000
0000
0000
0100
0000
0000
0000
0010
0000
0000
0000
0001
0000
0000
0000
1000
0000
0000
0000
0000
0000
0000
0000
0000
0010
0000
0000
,  // measure 34
0000
1000
0000
0002
0000
0000
0000
0000
,  // measure 35
0100
0000
0000
0000
0000
0000
0000
0000
0000
0000
0000
0000
0003
0000
0000
0000
0000
0000
0000
0000
0000
0000
0000
0000
1000
0000
0000
0000
0010
0000
0000
0000
0100
0000
0000
0000
0001
0000
0000
0000
0000
0000
0000
0000
0000
0010
0000
0000
,  // measure 36
0000
0200
0000
0300
2000
0000
0000
0000
,  // measure 37
0001
0000
0000
0000
0000
0000
0000
0000
0000
0000
0000
0000
3000
0000
0000
0000
0000
0000
0000
0000
0000
0000
0000
0000
0010
0000
0000
0000
1000
0000
0000
0000
0001
0000
0000
0000
0010
0000
0000
0000
0000
0000
0000
0000
0000
0100
0000
0000
,  // measure 38
0000
2000
3000
0002
0000
0000
0000
0000
,  // measure 39
0010
0000
0003
0001
0010
1000
0001
0100
,  // measure 40
1000
0000
0000
0100
0000
0000
0001
0000
0000
0010
0000
0000
2000
0000
0000
0000
,  // measure 41
0002
0000
0000
3000
0000
0000
0000
0000
0000
0000
0000
0000
0000
0000
0000
0000
0000
0000
0103
0001
0100
0001
0100
0001
,  // measure 42
0100
0000
0000
0010
0000
0000
1000
0000
0000
0001
0000
0000
0020
0000
0000
0000
,  // measure 43
0200
0000
0030
0000
0000
0000
0000
0000
0000
0000
0000
0000
1300
0100
1000
0100
,  // measure 44
1000
0000
0000
0010
0000
0000
0100
0000
0000
0001
0000
0000
0020
0000
0000
0000
,  // measure 45
0130
0000
0000
0010
0001
1000
0010
0100
,  // measure 46
0001
0000
0000
0100
0000
0000
1000
0000
0000
0100
0000
0000
0002
0000
0000
0000
,  // measure 47
1003
0001
1000
0000
0010
0000
1000
0000
,  // measure 48
1010
0000
0001
1000
1001
0000
0001
0000
,  // measure 49
0100
0000
0000
0000
0010
0000
0000
0000
1010
0000
1000
0000
0001
1000
0001
1000
,  // measure 50
0001
0000
0010
0100
1100
0000
1000
0000
,  // measure 51
0100
0000
0000
0100
0010
0000
0000
0000
0011
0000
0001
0000
1000
0001
1000
0001
,  // measure 52
1000
0000
0001
0010
0011
0000
0001
0000
,  // measure 53
1000
0000
0000
0000
0010
0000
0000
0000
1010
0000
1000
0000
0100
0010
0100
0010
,  // measure 54
0100
0000
1000
0010
1010
0000
1000
0001
,  // measure 55
0100
0000
0000
0000
0000
0000
0000
0000
0000
0001
0000
0000
0010
0000
0000
0000
0000
0000
0000
0000
0000
0000
0000
0000
0110
0000
0000
0000
0000
0000
0100
0000
0000
0000
0000
0000
1000
0000
0100
0000
1000
0000
0100
0000
1000
0000
0100
0000
,  // measure 56
1000
0000
0000
0000
;

//---------------dance-single - ----------------
#NOTES:
     dance-single:
     X-Scale 8:
     Medium:
     6:
     0.257860,0.323659,0.044459,0.204510,0.066688,203.000000,198.000000,5.000000,23.000000,0.000000,0.000000,0.257860,0.323659,0.044459,0.204510,0.066688,203.000000,198.000000,5.000000,23.000000,0.000000,0.000000:
0000
0000
0000
0000
,
0000
0000
0000
0000
,
0000
0000
0000
0000
,
0000
0000
0000
0000
,
1000
0000
0100
0000
,
1000
0000
0000
0001
0000
0000
1000
0000
0000
0000
0000
0000
0000
0000
0000
0000
,
0010
0000
0100
0000
,
0010
0000
0000
1000
0000
0000
0010
0000
0000
0000
0000
0000
0000
0000
0000
0000
,
0100
0000
0001
0000
,
1000
0000
0000
0001
0000
0000
1000
0000
0000
0000
0000
0000
0000
0000
0000
0000
,
0100
0000
0010
0000
,
0001
0000
0000
0010
0000
0000
0001
0000
0000
0000
0000
0000
0000
0000
0000
0000
,
1000
0010
2000
0000
3002
0000
0023
0000
,
0230
0000
0000
0000
0000
0000
0300
1000
,
0100
0001
0100
0010
0001
0000
1000
0001
,
0100
0001
2000
0000
3020
0000
0000
0000
,
0130
0001
0020
0000
2030
0000
3200
0000
,
0302
0000
0000
0000
0000
0000
0003
1000
,
0001
0100
0001
0010
0100
0010
0001
0000
,
2000
0000
0000
3000
,
0002
0000
0100
0000
,
2003
0000
0010
0001
,
3200
0000
0001
0000
,
0320
0000
1000
0100
,
0032
0000
0010
0000
,
0203
0000
1000
0010
,
0302
0000
1000
0000
,
0013
0001
1000
0000
0001
0000
1000
0000
,
1001
0000
0001
0100
0001
0000
0010
0000
,
0100
0000
1000
0000
0100
0010
0100
0000
,
1000
0000
0001
0100
0001
0000
0010
0000
,
0100
0000
0000
1000
0100
0000
0000
0000
1100
0000
0000
0000
1000
0000
0000
0000
,
0001
0000
1000
0000
,
0010
0000
0100
0010
,
0100
0000
0001
0000
,
0010
0000
0100
1000
,
0100
0000
0010
0000
,
0001
0000
1000
0001
,
1000
0000
0010
0000
,
1000
0000
0000
0010
1000
0001
1000
0100
,
0010
0000
0000
0001
0000
0000
1000
0000
0000
0001
0000
0000
0200
0000
0000
0000
,
0000
0300
0000
0000
0001
0010
1000
0010
,
0001
0000
0000
0100
0000
0000
0010
0000
0000
1000
0000
0000
0200
0000
0000
0000
,
0000
0300
0000
0010
0001
1000
0010
0100
,
0001
0000
0000
0100
0000
0000
1000
0000
0000
0100
0000
0000
0002
0000
0000
0000
,
0000
0003
0000
1000
0001
0010
1000
0010
,
0001
0000
0000
0100
0000
0000
0010
0000
0000
1000
0000
0000
0200
0000
0000
0000
,
0300
1000
0010
0000
1000
0000
0001
0000
,
1001
0000
1000
0010
1000
0000
0001
0000
,
0100
0000
0010
0000
0100
0001
0100
0000
,
0001
0000
0010
0100
0010
0000
0001
0000
,
1000
0000
0000
0100
1000
0000
0000
0000
0001
0000
0100
0000
0001
0000
0000
0000
,
1001
0000
1000
0010
1000
0000
0100
0000
,
0010
0000
0001
0000
0100
0001
0100
0000
,
0010
0000
1000
0001
1000
0000
0001
0000
,
0010
0000
0000
0100
0010
0000
0000
0000
0110
0000
0100
0000
2000
0000
0000
0000
,
3000
0000
0000
0000
;

//---------------dance-single - ----------------
#NOTES:
     dance-single:
     X-Scale 5:
     Easy:
     3:
     0.154970,0.247857,0.080026,0.071134,0.000000,122.000000,113.000000,9.000000,8.000000,0.000000,0.000000,0.154970,0.247857,0.080026,0.071134,0.000000,122.000000,113.000000,9.000000,8.000000,0.000000,0.000000:
0000
0000
0000
0000
,
0000
0000
0000
0000
,
0000
0000
0000
0000
,
0000
0000
0000
0000
,
0001
0000
1000
0000
,
0001
0000
0000
0000
,
0100
0000
0010
0000
,
0100
0000
0000
0000
,
0001
0000
0010
0000
,
0001
0000
0000
0000
,
1000
0000
0010
0000
,
1000
0000
0000
0000
,
0100
0000
0010
0100
,
1000
0000
0000
0000
,
0001
0000
1000
0000
,
0010
1000
0001
0000
,
0010
0000
0100
1000
,
0100
0000
0000
0000
,
1000
0000
0001
0100
,
0001
0000
0000
0000
,
1000
0000
1001
0000
,
0100
0000
1100
0000
,
1000
0000
1001
0000
,
0001
0000
0101
0000
,
0100
0000
0110
0000
,
0010
0000
1001
0000
,
1000
0000
1010
0000
,
0010
0000
0000
0000
,
1001
1000
0100
1000
,
0001
0100
0001
0010
,
0100
0010
0001
1000
,
0010
1000
0001
0100
,
0001
0000
0000
0000
,
0010
0000
0000
0000
,
0100
0000
0000
0000
,
1000
0000
0000
0000
,
0010
0000
0000
0000
,
0100
0000
0000
0000
,
0001
0000
0000
0000
,
1000
0000
0001
0000
,
0200
0000
0000
0000
,
0320
0000
0001
0000
,
2030
0000
0000
0000
,
3200
0000
0010
0000
,
2300
0000
0000
0000
,
3002
0000
1000
0000
,
0203
0000
0000
0000
,
0320
0000
0130
0000
,
1001
0001
0100
0001
,
0010
0100
0010
0001
,
1000
0010
1000
0001
,
0100
0001
1000
0100
,
0010
0100
1000
0001
,
0100
0001
1000
0010
,
0100
0001
0010
0100
,
1000
0001
1000
0100
;

//---------------dance-single - ----------------
#NOTES:
     dance-single:
     X-Scale 1:
     Beginner:
     1:
     0.086377,0.172722,0.017783,0.000000,0.000000,68.000000,66.000000,2.000000,0.000000,0.000000,0.000000,0.086377,0.172722,0.017783,0.000000,0.000000,68.000000,66.000000,2.000000,0.000000,0.000000,0.000000:
0000
0000
0000
0000
,
0000
0000
0000
0000
,
0000
0000
0000
0000
,
0000
0000
0000
0000
,
1000
0000
0000
0000
,
0100
0000
0000
0000
,
0010
0000
0000
0000
,
0001
0000
0000
0000
,
0010
0000
0000
0000
,
0100
0000
0000
0000
,
1000
0000
0000
0000
,
0001
0000
0000
0000
,
0100
0000
0000
0000
,
0001
0000
0000
0000
,
1000
0000
0000
0000
,
0010
0000
0000
0000
,
1000
0000
0000
0000
,
0001
0000
0000
0000
,
0010
0000
0000
0000
,
0100
0000
0000
0000
,
0000
0000
1000
0000
,
0000
0000
0001
0000
,
0000
0000
0100
0000
,
0000
0000
0001
0000
,
0000
0000
1000
0000
,
0000
0000
0001
0000
,
0000
0000
0010
0000
,
0000
0000
0000
0000
,
1001
0000
1000
0000
,
0100
0000
1000
0000
,
0001
0000
0010
0000
,
0100
0000
1000
0000
,
0001
0000
0000
0000
,
0010
0000
0000
0000
,
0100
0000
0000
0000
,
1000
0000
0000
0000
,
0100
0000
0000
0000
,
0010
0000
0000
0000
,
0001
0000
0000
0000
,
1000
0000
0000
0000
,
0001
0000
0000
0000
,
1000
0000
0000
0000
,
0010
0000
0000
0000
,
1000
0000
0000
0000
,
0001
0000
0000
0000
,
0100
0000
0000
0000
,
0001
0000
0000
0000
,
1000
0000
0000
0000
,
1001
0000
0001
0000
,
1000
0000
0001
1000
,
0001
0000
0100
0000
,
0010
0000
1000
0010
,
1000
0000
0100
0000
,
0010
0000
0001
0010
,
0001
0000
1000
0000
,
0001
0000
1000
0000
;
