#TITLE:talk (KOTONOHOUSE Remix);
#SUBTITLE:;
#ARTIST:keshi;
#TITLETRANSLIT:;
#SUBTITLETRANSLIT:;
#ARTISTTRANSLIT:;
#GENRE:Future Jersey Club;
#CREDIT:;
#BANNER:talk (KOTONOHOUSE Remix)-bn.png;
#BACKGROUND:talk (KOTONOHOUSE Remix)-bg.png;
#LYRICSPATH:;
#CDTITLE:cdtitle.png;
#MUSIC:talk (KOTONOHOUSE Remix).ogg;
#OFFSET:-0.003000;
#SAMPLESTART:42.860001;
#SAMPLELENGTH:13.714000;
#SELECTABLE:YES;
#BPMS:0.000000=140.000000
;
#STOPS:
;
#BGCHANGES:0.000=talk (KOTONOHOUSE Remix).avi=1.000=1=0=0=StretchNoLoop==CrossFade==,
99999=-nosongbg-=1.000=0=0=0 // don't automatically add -songbackground-
;
#KEYSOUNDS:;
#ATTACKS:;

//---------------dance-single - ----------------
#NOTES:
     dance-single:
     X-Scale 15:
     Hard:
     10:
     0.583050,0.736350,0.341406,0.341406,0.283211,526.000000,482.000000,44.000000,44.000000,0.000000,0.000000,0.583050,0.736350,0.341406,0.341406,0.283211,526.000000,482.000000,44.000000,44.000000,0.000000,0.000000:
0000
0000
0000
0000
,
1000
0000
0010
1000
0000
0001
0100
0001
,
0000
0000
0000
1000
0000
0000
0010
1000
,
0001
0000
0000
0010
0000
0100
1000
0001
,
0000
0000
0000
0100
0001
0000
0010
0100
,
0010
0000
0001
2000
0000
3200
0000
0302
,
0000
0023
0000
2030
0000
3002
0000
0023
,
0000
2030
0000
3020
0000
0230
0000
2300
,
0000
0000
0000
0000
0000
0000
3001
0000
0010
0100
1000
0001
,
1001
0000
1000
0010
1000
0000
0001
0100
,
0000
0000
0100
0010
0100
0000
0000
0000
0110
0000
0000
0000
0010
0000
1000
0000
,
1001
0000
0001
0010
0001
1000
0010
1000
,
0100
0010
0100
0010
0100
0000
1000
0000
0001
0000
0010
0000
0001
0000
0010
0001
,
0010
0100
1000
0010
2010
0000
3002
0100
,
0003
0000
0100
0001
0100
0000
0010
0000
2000
0000
0000
0000
3001
0000
1000
0000
,
0010
0100
0001
0000
0011
0000
0010
0100
,
1000
0000
0010
1000
0020
0000
0000
0000
1030
0000
0010
0000
0001
0000
0010
0000
,
1000
0000
0001
0010
0100
0000
1000
0100
,
0010
0000
0001
0010
0100
0000
1000
0100
,
0010
0000
0001
1000
0010
0100
0010
0000
,
0001
1000
0010
0200
0000
0000
0302
0003
,
0101
0000
0000
0000
0000
0000
0100
0000
0000
0001
0000
0000
1000
0000
0000
0001
0000
0000
0100
0000
0000
0000
0000
0000
0001
0000
0000
1000
0000
0000
0000
0000
0000
0100
0000
0000
0010
0000
0000
0000
0000
0000
0100
0000
1000
0000
0100
0000
,
1000
0000
0001
0100
0001
0010
0100
0000
1000
0010
0000
0100
0001
0000
0000
0000
,
1000
0000
0000
0000
0010
0000
0000
0000
0100
0000
0000
0000
0001
0000
0000
0000
0010
0000
0000
0000
0100
0000
0000
0000
1000
0000
0000
0000
0000
0000
0000
0000
0000
1100
0000
0000
0000
0000
0000
0000
0000
0000
1001
0000
0000
0000
0000
0000
,
0002
0000
0000
0000
0000
0000
0000
0000
0013
0001
0010
0000
0100
0000
0100
0000
,
1010
0000
1000
0010
0101
0000
1010
0010
,
1000
0001
0001
0000
0100
0010
1000
0100
,
0010
0010
0010
0000
0101
0000
0001
0001
,
0010
0000
0100
0010
0100
0000
0000
0000
1100
0000
1000
0000
0001
0000
0100
0000
,
0101
0000
0001
0010
0110
0000
1001
0000
,
1000
0001
0001
0000
0011
0000
0010
0100
,
1000
0001
0001
0000
0101
0000
1000
1001
,
0001
0000
0100
0000
0001
0000
0100
0000
0001
1000
0010
1000
0001
0010
0001
1000
,
0100
1000
0001
0100
0010
1000
0100
0001
,
0100
0000
1000
0000
0010
0000
0100
0010
0100
0000
0001
0000
0010
0000
0001
0000
,
1000
0100
0001
1000
0001
0100
1000
0001
,
0100
0000
0010
0000
0110
0000
0100
0010
0100
0001
0000
0000
1000
0000
0010
0000
,
1000
1000
1000
1000
0001
0001
0001
0001
,
0010
0010
0010
0010
0100
0100
0100
0100
,
1000
0000
0000
0000
0100
0000
0000
0000
0010
0000
0000
0000
0001
0000
0000
0000
0100
0000
0000
0000
0010
0000
0000
0000
1000
0000
0000
0000
0000
0000
0000
0000
0000
1010
0000
0000
0000
0000
0000
0000
0000
0000
0011
0000
0000
0000
0000
0000
,
0001
1000
0001
1000
0200
0000
0320
0030
,
0101
0000
0000
0000
0001
0000
1000
0001
1000
0000
0010
1000
0000
0100
0010
0000
,
0110
0000
0000
0000
0100
0000
1000
0000
0001
0000
0010
0100
0010
0001
0010
0000
,
0101
0000
0000
0000
0001
0000
1000
0010
1000
0000
0100
1000
0000
0001
1000
0000
,
1001
0000
0000
0000
0010
0000
1000
0000
0001
0000
0100
0010
0000
1000
0100
0000
,
1100
0000
1000
0000
0001
0100
0010
0100
0001
0000
0010
0001
0000
1000
0010
0000
,
1010
0000
1000
0000
0001
0000
0010
0000
0100
0000
1000
0010
0100
0010
1000
0000
,
1001
0000
0000
0000
0011
0000
0010
0001
0100
0000
0010
1000
0001
1000
0010
0000
,
0101
0010
0101
0010
0210
0000
0302
0000
,
2003
0000
0000
0000
3100
0000
1000
0100
0010
0000
0001
0100
0000
0100
1000
0000
,
1100
0000
0000
0000
0100
0000
0010
0000
0001
0000
1000
0001
0100
0010
1000
0000
,
1001
0000
0000
0000
0001
0000
0100
0001
1000
0000
0001
0010
0000
0010
1000
0000
,
1020
0000
0000
0000
0031
0000
0010
0000
1000
0000
0100
0010
0000
0010
1000
0000
,
2010
0000
0000
0000
3001
0000
1000
0100
0010
0000
0001
0100
0000
0100
1000
0000
,
1200
0000
0000
0000
0310
0000
0100
0000
1000
0000
0001
0100
0010
0100
0001
0000
,
0101
0000
0000
0000
0001
0000
1000
0000
1001
0000
0000
0110
0000
0000
1100
0000
,
1000
0001
1000
0001
0020
0000
0230
0000
,
1300
0000
0000
0001
0001
0000
0000
0000
,
0020
0000
0000
0032
0000
0000
2003
0000
,
0010
0000
0000
0001
3001
0000
1000
0010
,
2000
0000
0000
3200
0000
0000
0320
0000
,
1000
0000
0000
0001
0031
0000
0010
0100
,
2000
0000
0000
3020
0000
0000
0230
0000
,
1000
0302
0023
0230
,
0001
0000
0000
1000
1000
0000
0310
0000
,
0100
0000
1000
0001
0100
0000
0001
0000
,
0010
0000
0100
0010
0001
0000
1000
0000
,
0010
0000
1000
0001
0100
0000
0001
0000
,
0010
0000
0100
0010
0001
0000
1000
0000
,
0010
0000
0100
0001
0010
0000
0200
0000
,
2300
0000
0010
0000
3001
0010
1000
0010
,
0001
0000
0000
1000
0100
0000
1100
0000
,
1000
0000
0000
0001
0100
0000
0202
0000
,
0303
0000
0000
0000
;

//---------------dance-single - ----------------
#NOTES:
     dance-single:
     X-Scale 11:
     Medium:
     8:
     0.452251,0.566423,0.225017,0.504349,0.120268,408.000000,379.000000,29.000000,65.000000,0.000000,0.000000,0.452251,0.566423,0.225017,0.504349,0.120268,408.000000,379.000000,29.000000,65.000000,0.000000,0.000000:
0000
0000
0000
0000
,
0001
0000
1000
1000
0000
0100
0010
0100
,
0000
0000
1000
0100
0000
1000
0001
0100
,
0001
0000
0000
0010
0100
0000
0000
1000
,
0000
0000
0001
0100
0001
0000
0010
0100
,
1000
0000
0001
0100
0000
0010
0000
1000
,
0000
0001
0000
0010
0000
0100
0000
1000
,
0000
0010
0000
1000
0000
0001
0000
0200
,
0000
0000
0000
0002
0000
0000
0000
0303
,
0101
0001
0100
1000
,
0001
0010
1000
0001
2000
0000
3200
0000
,
0310
0100
1000
0000
1001
0000
0001
0100
,
0010
0100
0002
0000
2003
3000
1000
1000
,
1100
0100
0010
0001
,
1000
0010
0001
0010
2000
0000
3002
0000
,
0013
0100
1000
0000
1001
0000
0001
0000
,
0100
0000
0001
0000
1000
0000
0000
0000
1000
0000
0000
0001
0000
0000
0100
0000
,
0101
0000
0001
0000
1000
0000
0000
0010
,
0000
0000
1000
0000
0000
1000
0001
0100
,
0020
0000
1030
0100
0001
0100
2000
0000
,
3001
0010
0100
2000
0000
0000
0002
3003
,
1001
0000
0000
1000
0000
1000
0001
0000
0000
0010
0000
0010
0100
0000
1000
0000
,
0001
0000
0000
0100
0000
0100
0001
0000
0000
0010
0000
0010
0100
0000
0010
0000
,
0002
0000
1003
0010
0100
0001
0020
0000
,
1030
0010
0001
0200
0000
0000
0000
0300
,
1010
0000
1000
0001
1001
0000
0001
0010
,
0210
0000
0000
0320
0000
0000
0032
0000
,
1000
1000
1003
0000
1001
0000
0001
0100
,
0201
0000
0000
0320
0000
0000
2030
0000
,
0001
0000
3010
1000
1010
0000
0001
1000
,
0002
0000
0000
2003
0000
0000
3200
0000
,
0010
0010
0310
0000
0110
0000
1000
1002
,
0000
0000
0203
0302
,
1003
0001
0100
0001
1000
0001
0100
0001
,
1000
0100
0001
0100
1000
0100
0001
0100
,
1000
0010
0001
0010
0100
0010
0001
0010
,
1000
0001
0100
0001
1000
0001
0100
0001
,
2000
0000
3000
0100
0020
0000
0032
0000
,
0203
0000
1000
0000
0301
0100
0010
1000
,
0001
0000
0000
0000
0010
0000
0000
0000
0100
0000
0000
0000
1000
0000
0000
0000
0010
0000
0000
0000
0100
0000
0000
0000
0001
0000
0000
0000
0000
0000
0000
0000
0000
0001
0000
0000
0000
0000
0000
0000
0000
0000
0001
0000
0000
0000
0000
0000
,
1000
0010
1000
0010
0100
0000
0001
0000
,
0102
0000
0000
0000
0103
0000
0001
0000
1000
0000
0000
1000
0000
0000
1000
0000
,
1200
0000
0000
0000
0310
0000
0100
0000
1000
0000
0000
0001
0000
0000
0001
0000
,
0201
0000
0000
0000
0310
0000
0100
0000
0001
0000
0000
0001
0000
0000
0001
0000
,
0101
0000
0110
0000
1010
1000
0001
1000
,
2100
0000
0000
0000
3100
0000
0010
0000
0001
0000
0000
0001
0000
0000
0001
0000
,
0102
0000
0000
0000
1003
0000
0001
0000
0010
0000
0000
0100
0000
0000
0100
0000
,
1020
0000
0031
0010
2000
0000
3002
0000
,
1003
0100
1000
0100
0020
0000
0032
0000
,
0103
0000
0000
0000
0001
0000
0010
0000
0100
0000
0100
1000
0000
0100
1000
0000
,
1100
0000
0000
0000
1000
0000
0001
0000
0100
0000
0001
0010
0000
0001
0010
0000
,
0011
0000
0000
0000
0001
0000
1000
0000
0100
0000
0010
0100
0000
0010
0100
0000
,
1010
0000
0000
0000
1000
0000
0001
0000
0100
0000
0010
0100
0000
0010
0100
0000
,
0110
0000
0000
0000
0010
0000
1000
0000
0001
0000
0010
0001
0000
0010
0001
0000
,
0101
0000
0000
0000
0001
0000
0010
0000
0100
0000
1000
0100
0000
1000
0100
0000
,
1010
0000
0010
1000
0002
0000
0023
0000
,
1030
0010
1000
0010
0002
0000
0203
0000
,
0301
0000
0000
1000
0010
0000
0000
0000
,
0200
0000
0000
0302
0000
0000
0023
0000
,
0001
0000
0000
0100
0130
0000
0000
0000
,
2000
0000
0000
3002
0000
0000
0203
0000
,
1000
0000
0000
0001
0301
0000
0000
0000
,
0200
0000
0000
0320
0000
0000
2030
0000
,
0000
3002
0023
0230
,
0001
0000
0000
1000
1300
0000
0001
0000
,
0100
0000
0000
0001
0001
0000
0020
0000
,
0230
0000
0000
1000
1000
0000
0310
0000
,
0001
0000
0000
1000
1000
0000
0002
0000
,
0023
0000
0000
0100
0100
0000
0031
0000
,
1000
0000
0000
0010
0010
0000
0200
0000
,
0320
0000
0000
0001
0031
0010
1000
0001
,
2000
0000
0000
0100
3100
0000
1000
0000
,
0001
0000
0000
0100
0100
0000
0002
0000
,
0003
0000
0000
0000
;

//---------------dance-single - ----------------
#NOTES:
     dance-single:
     X-Scale 6:
     Easy:
     4:
     0.253837,0.366914,0.116388,0.124147,0.000000,229.000000,214.000000,15.000000,16.000000,0.000000,0.000000,0.253837,0.366914,0.116388,0.124147,0.000000,229.000000,214.000000,15.000000,16.000000,0.000000,0.000000:
// measure 0
0000
0000
0000
0000
,  // measure 1
1000
0000
0000
0000
0000
0000
0000
0001
,  // measure 2
0000
0000
0000
0000
,  // measure 3
1000
0000
0000
0000
0000
0000
0000
0001
,  // measure 4
0000
0000
0000
0000
,  // measure 5
0010
0000
0000
0000
0000
0000
0000
0100
,  // measure 6
0000
0000
0000
0000
,  // measure 7
0010
0000
0000
0000
0000
0000
0000
0100
,  // measure 8
0000
0000
1000
0000
,  // measure 9
1001
0000
0000
0000
0001
0000
0000
0100
,  // measure 10
0000
0100
0010
1000
,  // measure 11
0001
0000
0000
0000
0010
0000
0000
0001
,  // measure 12
0000
0001
0100
0010
,  // measure 13
1000
0000
0000
0000
0010
0000
0000
0100
,  // measure 14
0000
0100
0001
0010
,  // measure 15
0001
0000
0000
0000
1000
0000
0000
0010
,  // measure 16
0000
0010
1000
0001
,  // measure 17
0100
0000
0000
0000
0000
0000
0000
0001
,  // measure 18
0000
0000
0000
0000
,  // measure 19
1000
0000
0000
0000
0000
0000
0000
0001
,  // measure 20
0000
0000
0000
0000
,  // measure 21
1001
0000
0110
0000
,  // measure 22
1001
0000
0110
0000
,  // measure 23
1001
1000
0010
0100
,  // measure 24
0101
0000
0001
1000
,  // measure 25
1100
0000
0000
1000
0001
0000
0101
0000
,  // measure 26
0001
0000
0000
0010
0100
0000
1000
0000
,  // measure 27
1010
0000
0000
1000
0001
0000
1001
0000
,  // measure 28
0001
0000
0000
0100
0010
0000
0100
0000
,  // measure 29
0110
0000
0000
0010
1000
0000
1010
0000
,  // measure 30
1000
0000
0000
0001
0010
0000
0001
0000
,  // measure 31
0011
0000
0001
0010
0200
0000
2300
0000
,  // measure 32
3001
1000
0200
0320
,  // measure 33
0031
0000
0010
0100
1000
0000
0001
0000
,  // measure 34
0100
0000
0010
1000
0100
0000
0010
0000
,  // measure 35
0001
0000
1000
0001
0100
0000
0010
0000
,  // measure 36
0100
0000
0001
0010
0100
0000
1000
0000
,  // measure 37
0001
0000
0100
0010
1000
0000
0100
0000
,  // measure 38
0010
0000
0001
1000
0100
0000
1000
0000
,  // measure 39
0001
0000
0100
0001
2000
0000
3002
0000
,  // measure 40
0103
0001
2000
3020
,  // measure 41
0130
0010
1000
0001
,  // measure 42
0010
0001
1000
0100
,  // measure 43
0010
0100
1000
0001
,  // measure 44
0100
0001
0010
0100
,  // measure 45
1000
0000
1001
0000
0001
0000
0100
0001
,  // measure 46
0100
0000
0010
0000
1000
0000
0100
1000
,  // measure 47
0100
0010
0002
2003
,  // measure 48
3001
0100
0001
0100
0020
0000
2030
0000
,  // measure 49
3100
0000
0010
0000
0001
0000
1000
0010
,  // measure 50
1000
0000
0001
0000
0010
0000
0100
0010
,  // measure 51
0100
0000
1000
0000
0001
0000
0100
0010
,  // measure 52
0100
0000
0001
0000
1000
0000
0100
0010
,  // measure 53
0100
0000
1000
0000
0001
0000
0100
0010
,  // measure 54
0100
0000
0001
0000
1000
0000
0010
0100
,  // measure 55
0010
0000
1000
0100
0020
0000
0032
0000
,  // measure 56
1003
0001
1000
0001
0200
0000
0320
0000
,  // measure 57
1030
0000
0000
0000
,  // measure 58
0001
0000
0000
0000
,  // measure 59
0010
0000
0000
0000
,  // measure 60
0001
0000
0000
0000
,  // measure 61
1000
0000
0000
0000
,  // measure 62
0100
0000
0000
0000
,  // measure 63
0010
0000
0000
0000
,  // measure 64
0001
0000
0000
0000
,  // measure 65
1000
0000
0000
0000
,  // measure 66
0001
0000
0000
0000
,  // measure 67
0010
0000
0000
0000
,  // measure 68
0001
0000
0000
0000
,  // measure 69
1000
0000
0000
0000
,  // measure 70
0010
0000
0000
0000
,  // measure 71
1000
0000
0000
0000
,  // measure 72
0001
0000
0000
1000
;

//---------------dance-single - ----------------
#NOTES:
     dance-single:
     X-Scale 2:
     Beginner:
     2:
     0.111954,0.167599,0.031037,0.000000,0.000000,101.000000,97.000000,4.000000,0.000000,0.000000,0.000000,0.111954,0.167599,0.031037,0.000000,0.000000,101.000000,97.000000,4.000000,0.000000,0.000000,0.000000:
// measure 0
0000
0000
0000
0000
,  // measure 1
0001
0000
0000
0000
,  // measure 2
0000
0000
0000
0000
,  // measure 3
1000
0000
0000
0000
,  // measure 4
0000
0000
0000
0000
,  // measure 5
0001
0000
0000
0000
,  // measure 6
0000
0000
0000
0000
,  // measure 7
1000
0000
0000
0000
,  // measure 8
0000
0000
0000
0000
,  // measure 9
0001
0000
0010
0000
,  // measure 10
0000
0000
0001
0000
,  // measure 11
1000
0000
0001
0000
,  // measure 12
0000
0000
0010
0000
,  // measure 13
0100
0000
0010
0000
,  // measure 14
0000
0000
0001
0000
,  // measure 15
1000
0000
0001
0000
,  // measure 16
0000
0000
0100
0000
,  // measure 17
0100
0000
0000
0000
,  // measure 18
0000
0000
0000
0000
,  // measure 19
0010
0000
0000
0000
,  // measure 20
0000
0000
0000
0000
,  // measure 21
0100
0000
0000
0000
,  // measure 22
0000
0000
0000
0000
,  // measure 23
0010
0000
0000
0000
,  // measure 24
0000
0000
0000
0000
,  // measure 25
1001
0000
1000
0000
,  // measure 26
0001
0000
1000
0000
,  // measure 27
0100
0000
0010
0000
,  // measure 28
0100
0000
0010
0000
,  // measure 29
0001
0000
0100
0000
,  // measure 30
0001
0000
0100
0000
,  // measure 31
0010
0000
0000
0000
1000
0000
0000
1001
,  // measure 32
0000
0000
0000
0000
,  // measure 33
0110
0000
0100
0000
,  // measure 34
0001
0000
1000
0000
,  // measure 35
0001
0000
0010
0000
,  // measure 36
0001
0000
0100
0000
,  // measure 37
0010
0000
1000
0000
,  // measure 38
0100
0000
0010
0000
,  // measure 39
0001
0000
0010
0000
,  // measure 40
0100
0000
0000
0000
,  // measure 41
1001
0000
1000
0000
,  // measure 42
0001
0000
0010
0000
,  // measure 43
0001
0000
1000
0000
,  // measure 44
0100
0000
1000
0000
,  // measure 45
0001
0000
0100
0000
,  // measure 46
0010
0000
0100
0000
,  // measure 47
0001
0000
0010
0000
,  // measure 48
0100
0000
0010
0000
,  // measure 49
0001
0000
1000
0000
,  // measure 50
0010
0000
1000
0000
,  // measure 51
0001
0000
0100
0000
,  // measure 52
0010
0000
1000
0000
,  // measure 53
0100
0000
0010
0000
,  // measure 54
0100
0000
1000
0000
,  // measure 55
0001
0000
0100
0000
,  // measure 56
0001
0000
0000
0000
,  // measure 57
0010
0000
0000
0000
,  // measure 58
0100
0000
0000
0000
,  // measure 59
0010
0000
0000
0000
,  // measure 60
0100
0000
0000
0000
,  // measure 61
1000
0000
0000
0000
,  // measure 62
0001
0000
0000
0000
,  // measure 63
1000
0000
0000
0000
,  // measure 64
0001
0000
0000
0000
,  // measure 65
0100
0000
0000
0000
,  // measure 66
0010
0000
0000
0000
,  // measure 67
0100
0000
0000
0000
,  // measure 68
0010
0000
0000
0000
,  // measure 69
1000
0000
0000
0000
,  // measure 70
0100
0000
0000
0000
,  // measure 71
1000
0000
0000
0000
,  // measure 72
0100
0000
0000
0000
;
