#VERSION:0.83;
#TITLE:Я Не Могу Молчать;
#SUBTITLE:;
#ARTIST:Сергей Лазарев;
#TITLETRANSLIT:Ya Ne Mogu Molchat;
#SUBTITLETRANSLIT:;
#ARTISTTRANSLIT:Sergey Lazarev;
#GENRE:Pop;
#ORIGIN:;
#CREDIT:;
#BANNER:Ya Ne Mogu Molchat-bn.png;
#BACKGROUND:Ya Ne Mogu Molchat-bg.png;
#PREVIEWVID:;
#JACKET:Ya Ne Mogu Molchat-jacket.png;
#CDIMAGE:;
#DISCIMAGE:;
#LYRICSPATH:;
#CDTITLE:cdtitle.png;
#MUSIC:Ya Ne Mogu Molchat.ogg;
#OFFSET:-0.004000;
#SAMPLESTART:41.314999;
#SAMPLELENGTH:15.738000;
#SELECTABLE:YES;
#BPMS:0.000=122.000;
#STOPS:;
#DELAYS:;
#WARPS:;
#TIMESIGNATURES:0.000=4=4;
#TICKCOUNTS:0.000=4;
#COMBOS:0.000=1;
#SPEEDS:0.000=1.000=0.000=0;
#SCROLLS:0.000=1.000;
#FAKES:;
#LABELS:0.000=Song Start;
#BGCHANGES:0.000=Ya Ne Mogu Molchat.avi=1.000=1=0=0=StretchNoLoop==CrossFade==,
99999=-nosongbg-=1.000=0=0=0 // don't automatically add -songbackground-
;
#KEYSOUNDS:;
#ATTACKS:
;

//---------------dance-single - ----------------
#NOTEDATA:;
#CHARTNAME:X-Scale 11;
#STEPSTYPE:dance-single;
#DESCRIPTION:;
#CHARTSTYLE:;
#DIFFICULTY:Hard;
#METER:8;
#RADARVALUES:0.446467,0.481634,0.064218,0.428119,0.155193,292.000000,286.000000,6.000000,40.000000,0.000000,0.000000,0.000000,0.000000,0.000000,0.446467,0.481634,0.064218,0.428119,0.155193,292.000000,286.000000,6.000000,40.000000,0.000000,0.000000,0.000000,0.000000,0.000000;
#CREDIT:iamthek3n;
#NOTES:
// measure 0
0000
0000
0000
0000
,  // measure 1
0000
0000
0000
0000
,  // measure 2
0000
0000
0000
0000
,  // measure 3
0000
0000
0000
0000
,  // measure 4
1010
0000
1000
0000
0010
0000
1000
0001
,  // measure 5
0010
0000
0000
0001
0000
0000
0100
0000
2000
0000
0000
0000
3200
0000
0000
0000
,  // measure 6
0301
0000
0100
0000
0001
0000
0000
0000
1000
0000
0000
0100
1000
0000
0100
0000
,  // measure 7
0010
0000
0000
0100
0000
0000
1000
0000
0001
0000
0100
0000
0002
0000
0000
0000
,  // measure 8
0013
0000
0000
0000
0100
0000
0000
1000
0100
0000
0000
0000
1000
0000
0001
0000
,  // measure 9
0100
0000
0000
0010
0000
0000
0100
0000
2000
0000
0000
0000
3200
0000
0000
0000
,  // measure 10
0302
0000
0013
0100
1000
0001
0200
0000
,  // measure 11
0310
0000
0100
0000
0001
0000
0010
0000
0100
0000
0000
1000
0100
0000
1000
0000
,  // measure 12
0001
0000
1000
0010
1000
0000
0100
0000
0010
0000
0000
0001
0010
0000
0001
0000
,  // measure 13
0100
0000
0000
0010
0100
0000
0001
0000
0020
0000
0000
0000
0130
0000
0010
0000
,  // measure 14
0001
0000
0000
1000
0001
0000
0100
0000
0010
0000
0000
0000
0100
0000
0001
0000
,  // measure 15
0010
0000
0000
0100
1000
0000
0001
0000
1000
0000
0010
0000
0200
0000
0000
0000
,  // measure 16
0301
0000
0001
0100
0001
0000
1000
0000
0010
0000
0000
0000
1000
0000
0100
0000
,  // measure 17
0010
0000
0000
0001
0010
0000
0001
0000
1000
0000
0010
0000
0200
0000
0000
0000
,  // measure 18
0301
0000
0000
0010
0001
0000
1000
0000
0001
0000
0010
0000
0200
0000
0000
0000
,  // measure 19
1300
0000
0000
0100
0000
0000
1000
0000
0000
0001
0000
0000
0001
0000
0000
0000
,  // measure 20
0020
0000
0000
0000
0000
0000
0000
0000
0130
0000
0000
1000
0100
0000
1000
0000
,  // measure 21
1100
0100
0020
0000
0031
0000
0010
0200
,  // measure 22
1300
0020
0031
0200
1300
0100
0010
0001
,  // measure 23
0100
0010
1000
0001
0010
1000
0010
0002
,  // measure 24
0000
0200
0300
0200
0303
0001
0100
0010
,  // measure 25
1000
0100
0020
0000
0031
0000
0010
0200
,  // measure 26
1300
0020
0031
0200
1300
0001
0100
0001
,  // measure 27
1000
0100
0020
0000
0031
0100
0010
2000
,  // measure 28
0010
0000
3001
1000
0010
1000
1000
0000
,  // measure 29
1001
0001
0100
0001
1000
0100
0001
0200
,  // measure 30
1300
0020
0031
0200
1300
0001
0100
0001
,  // measure 31
0010
1000
0010
0100
1000
0001
0010
0002
,  // measure 32
0000
0200
0300
0200
0303
0001
0100
1000
,  // measure 33
0100
0001
2000
0000
3100
0000
1000
0200
,  // measure 34
0301
0020
1030
0200
0301
0100
1000
0001
,  // measure 35
0100
0010
0002
0000
0013
0100
0001
2000
,  // measure 36
0010
0000
3100
0100
1000
0010
0010
0000
,  // measure 37
1001
0000
0000
0000
1000
0000
0000
0000
0001
0000
0000
0000
1000
0100
1000
0000
,  // measure 38
1100
0000
0100
0010
0001
0000
1000
0000
0001
0000
0000
0100
0001
0000
1000
0000
,  // measure 39
0010
0000
0100
0000
0002
0000
0000
0000
0013
0000
0000
0010
0100
0000
0010
0000
,  // measure 40
0001
0000
1000
0001
1000
0000
0100
0000
1000
0000
0000
0001
0010
0000
0001
0000
,  // measure 41
0100
0000
0010
0000
2000
0000
0000
0000
3100
0000
0000
1000
0100
0000
1000
0000
,  // measure 42
0001
0000
0100
0010
0100
0000
0001
0000
0010
0000
0000
0001
1000
0000
0100
0000
,  // measure 43
0001
0000
0100
0000
2000
0000
0000
0000
3010
0000
1000
0010
1000
0000
0001
0000
,  // measure 44
0010
0000
0100
0010
0100
0000
1000
0000
0001
0000
0010
0001
0010
0000
0100
0000
,  // measure 45
1100
0000
0000
0000
;

//---------------dance-single - ----------------
#NOTEDATA:;
#CHARTNAME:X-Scale 8;
#STEPSTYPE:dance-single;
#DESCRIPTION:;
#CHARTSTYLE:;
#DIFFICULTY:Medium;
#METER:6;
#RADARVALUES:0.363901,0.385307,0.053515,0.288980,0.080272,238.000000,233.000000,5.000000,27.000000,0.000000,0.000000,0.000000,0.000000,0.000000,0.363901,0.385307,0.053515,0.288980,0.080272,238.000000,233.000000,5.000000,27.000000,0.000000,0.000000,0.000000,0.000000,0.000000;
#CREDIT:iamthek3n;
#NOTES:
0000
0000
0000
0000
,
0000
0000
0000
0000
,
0000
0000
0000
0000
,
0000
0000
0000
0000
,
0001
0000
0000
0000
1000
0000
0010
0000
1000
0000
0000
0001
0000
0000
0000
0000
,
0100
0000
0000
0000
0001
0000
0010
0000
0001
0000
0000
1000
0000
0000
0000
0000
,
0010
0000
0000
0000
1000
0000
0100
0000
1000
0000
0000
0001
0000
0000
0000
0000
,
0100
0000
0000
0000
0001
0000
0010
0000
0001
0000
0000
1000
0000
0000
0010
0000
,
1000
0000
0001
0000
0100
0000
0000
0000
0001
0000
0000
0010
0000
0000
0000
0000
,
0001
0000
1000
0000
0010
0000
0000
0000
1000
0000
0000
0100
0000
0000
0000
0000
,
0010
0000
0100
0000
1000
0000
0000
0000
0001
0000
0000
0100
0000
0000
0000
0000
,
0001
0000
1000
0000
0010
0000
1000
0000
0001
0000
0000
0010
0000
0000
0000
0000
,
0101
0000
0000
0100
0010
0000
0100
0000
0001
0000
0000
0000
1000
0000
0000
0000
,
0010
0000
0000
1000
0001
0000
1000
0000
0200
0000
0000
0000
0320
0000
0000
0000
,
1000
0000
0000
0000
0031
0000
0010
0000
0100
0000
0000
1000
0100
0000
1000
0000
,
0001
0000
0000
0100
0000
0000
0001
0000
1000
0000
0001
0000
0200
0000
0000
0000
,
0301
0000
0000
0010
0100
0000
0010
0000
0001
0000
0000
1000
0010
0000
1000
0000
,
0001
0000
0000
0100
0000
0000
0001
0000
2000
0000
0000
0000
3020
0000
0000
0000
,
0230
0000
1300
0100
0001
0001
2000
0000
,
3000
0010
0200
0000
0300
0001
0020
0000
,
0230
0000
0000
0000
0300
1000
0010
1000
,
0001
0100
0002
0000
1003
0000
0001
0010
,
1000
0010
0100
2000
0000
3001
1000
0010
,
0100
0010
1000
0000
0100
0010
0001
0200
,
1000
0000
0010
0000
0301
0000
1000
0001
,
1000
0100
0020
0000
0031
0000
0010
0100
,
1000
0001
1000
0020
0000
0230
0000
0301
,
0010
0100
2000
0000
3010
1000
0100
0020
,
1000
0000
0031
0000
0010
0100
0010
0000
,
1001
2000
3000
0020
0000
0030
0110
0100
,
0001
1000
0010
0200
0000
0301
0100
1000
,
0100
0001
0010
0000
0001
1000
0100
0020
,
0001
0000
1000
0000
0031
0010
1000
0010
,
0100
0010
0002
0000
1003
0000
0001
0100
,
0010
0001
0010
2000
0000
3002
0000
0103
,
0001
1000
0020
0000
0130
0010
1000
0002
,
0000
0000
0103
0100
0000
0001
1000
0001
,
1001
0000
1000
0000
0010
0000
1000
0001
,
0000
0100
0000
0001
0000
1000
0100
0010
,
0001
0000
0100
0000
0001
0000
0010
0100
,
0000
1000
0000
0001
0000
0100
0001
1000
,
0010
0000
1000
0000
0001
0000
0100
0001
,
0000
1000
0000
0001
0000
0100
0001
1000
,
0010
0000
1000
0000
0001
0000
0010
0001
,
0000
0010
0000
0100
0000
1000
0100
1000
,
1100
0000
0000
0000
;

//---------------dance-single - ----------------
#NOTEDATA:;
#CHARTNAME:X-Scale 6;
#STEPSTYPE:dance-single;
#DESCRIPTION:;
#CHARTSTYLE:;
#DIFFICULTY:Easy;
#METER:4;
#RADARVALUES:0.310386,0.313062,0.032109,0.374604,0.000000,203.000000,200.000000,3.000000,35.000000,0.000000,0.000000,0.000000,0.000000,0.000000,0.310386,0.313062,0.032109,0.374604,0.000000,203.000000,200.000000,3.000000,35.000000,0.000000,0.000000,0.000000,0.000000,0.000000;
#CREDIT:iamthek3n;
#NOTES:
0000
0000
0000
0000
,
0000
0000
0000
0000
,
0000
0000
0000
0000
,
0000
0000
0000
0000
,
1000
0000
0001
1000
0001
0000
0010
0000
,
0100
0000
0010
0001
0010
0000
0100
0000
,
1000
0000
0001
0100
0001
0000
1000
0000
,
0100
0000
1000
0000
0001
0010
0200
0000
,
2300
3002
2003
3010
,
0100
0010
1000
0000
0001
0000
0100
0000
,
0001
0010
0100
0000
0010
0000
0001
0000
,
1000
0010
0000
1000
0000
0001
0000
0200
,
0001
0000
0310
0100
0010
0000
1000
0000
,
0100
0000
0010
0100
2000
0000
3002
0000
,
0010
0000
0103
0001
1000
0000
0100
1000
,
0001
0000
0010
0000
0100
0010
0002
0000
,
1000
0000
0013
0100
1000
0000
0010
1000
,
0001
0000
0100
0010
2000
0000
3200
0000
,
0320
0000
0031
0000
1000
0001
0200
0000
,
0300
0010
0200
0000
0300
0001
2000
0000
,
3200
0000
0000
0000
0310
0000
0001
0100
,
0101
0000
0001
0000
1000
0000
0100
2000
,
0000
3002
0000
0023
0000
0030
0100
0000
,
0010
0000
0001
0000
1000
0001
0100
0002
,
0000
1000
0000
1003
0000
0001
0000
0001
,
1000
0000
0001
0000
0100
0000
0010
2000
,
0000
3002
0000
0203
0000
0320
0000
1030
,
0010
0100
0002
0000
0013
0100
1000
0020
,
0000
0000
0130
0000
0010
1000
0010
0000
,
1000
0000
0001
0000
0100
0000
0001
0020
,
0000
0230
0000
2300
0000
3000
0001
0000
,
1000
0000
0001
0000
0010
0100
1000
0020
,
0000
0100
0000
0130
0000
0010
0000
0010
,
1000
0000
0001
0000
0100
0000
0001
0020
,
0000
0032
0000
2003
0000
3020
0000
0130
,
0001
0010
0200
0000
0310
0100
1000
0020
,
0000
0000
0100
0130
0000
0001
0001
0000
,
0101
0000
0001
0000
1000
0000
0001
0010
,
0000
0001
0000
1000
0000
0010
0100
0001
,
0010
0000
0001
0000
1000
0000
0010
1000
,
0000
0001
0000
0100
0000
0001
0010
0100
,
1000
0000
0010
0000
1000
0000
0100
0010
,
0000
0001
0000
1000
0000
0010
1000
0100
,
0010
0000
0001
0000
1000
0000
0001
0100
,
0000
0001
0000
0010
0000
0100
0010
0000
,
0110
0000
0000
0000
;

//---------------dance-single - ----------------
#NOTEDATA:;
#CHARTNAME:X-Scale 2;
#STEPSTYPE:dance-single;
#DESCRIPTION:;
#CHARTSTYLE:;
#DIFFICULTY:Beginner;
#METER:1;
#RADARVALUES:0.113146,0.144490,0.021406,0.000000,0.000000,74.000000,72.000000,2.000000,0.000000,0.000000,0.000000,0.000000,0.000000,0.000000,0.113146,0.144490,0.021406,0.000000,0.000000,74.000000,72.000000,2.000000,0.000000,0.000000,0.000000,0.000000,0.000000,0.000000;
#CREDIT:iamthek3n;
#NOTES:
0000
0000
0000
0000
,
0000
0000
0000
0000
,
0000
0000
0000
0000
,
0000
0000
0000
0000
,
0001
0000
0000
0000
,
0010
0000
0000
0000
,
0001
0000
0000
0000
,
0010
0000
0000
0000
,
0100
0000
0000
0000
,
1000
0000
0000
0000
,
0100
0000
0000
0000
,
1000
0000
0000
0000
,
0001
0000
0100
0000
,
0001
0000
1000
0000
,
0001
0000
0100
0000
,
0001
0000
1000
0000
,
0010
0000
0100
0000
,
0001
0000
0010
0000
,
0100
0000
0010
0000
,
0001
0000
0000
0000
,
1000
0000
0000
0000
,
1001
0000
1000
0000
,
0010
0000
1000
0000
,
0001
0000
1000
0000
,
0010
0000
1000
0000
,
0001
0000
0010
0000
,
0100
0000
0010
0000
,
0001
0000
0010
0000
,
0100
0000
1000
0000
,
0001
0000
0100
0000
,
0001
0000
1000
0000
,
0100
0000
0010
0000
,
0001
0000
1000
0000
,
0001
0000
0010
0000
,
0100
0000
1000
0000
,
0001
0000
0100
0000
,
0001
0000
1000
0000
,
0001
0000
0000
0000
,
1001
0000
1000
0000
,
0001
0000
0010
0000
,
0100
0000
0010
0000
,
0001
0000
1000
0000
,
0010
0000
1000
0000
,
0001
0000
0100
0000
,
0001
0000
0010
0000
,
0001
0000
0000
0000
;
