#VERSION:0.83;
#TITLE:Unrequited Love;
#SUBTITLE:;
#ARTIST:CAPSULE;
#TITLETRANSLIT:;
#SUBTITLETRANSLIT:;
#ARTISTTRANSLIT:;
#GENRE:Electro House;
#ORIGIN:;
#CREDIT:;
#BANNER:Unrequited Love-bn.png;
#BACKGROUND:Unrequited Love-bg.png;
#PREVIEWVID:;
#JACKET:Unrequited Love-jacket.png;
#CDIMAGE:;
#DISCIMAGE:;
#LYRICSPATH:;
#CDTITLE:cdtitle.png;
#MUSIC:Unrequited Love.ogg;
#OFFSET:-0.008000;
#SAMPLESTART:75.008003;
#SAMPLELENGTH:15.000000;
#SELECTABLE:YES;
#BPMS:0.000=128.000;
#STOPS:;
#DELAYS:;
#WARPS:;
#TIMESIGNATURES:0.000=4=4;
#TICKCOUNTS:0.000=4;
#COMBOS:0.000=1;
#SPEEDS:0.000=1.000=0.000=0;
#SCROLLS:0.000=1.000;
#FAKES:;
#LABELS:0.000=Song Start;
#BGCHANGES:;
#KEYSOUNDS:;
#ATTACKS:
;

//---------------dance-single - ----------------
#NOTEDATA:;
#CHARTNAME:X-Scale 12;
#STEPSTYPE:dance-single;
#DESCRIPTION:;
#CHARTSTYLE:;
#DIFFICULTY:Hard;
#METER:8;
#RADARVALUES:0.472293,0.671541,0.079472,0.047683,0.349678,416.000000,406.000000,10.000000,6.000000,0.000000,0.000000,0.000000,0.000000,0.000000,0.472293,0.671541,0.079472,0.047683,0.349678,416.000000,406.000000,10.000000,6.000000,0.000000,0.000000,0.000000,0.000000,0.000000;
#CREDIT:iamthek3n;
#NOTES:
0000
0000
0000
0000
,
0000
0000
0000
0000
,
0000
0000
0000
0000
,
0000
0000
0000
0000
,
1000
0000
0100
0000
0000
1000
0000
0000
0001
0000
0000
0010
0000
0000
0100
0000
,
0000
0000
1000
0000
0000
0010
0000
0000
1000
0000
0000
0001
0000
0000
0100
0000
,
0000
0000
0010
0000
0000
0100
0000
0000
0001
0000
0000
0010
0000
0000
0100
0000
,
0000
0000
1000
0000
0000
0010
0000
0000
1000
0000
0000
0100
0000
0000
0010
0000
,
0011
0000
0000
0001
0000
0000
0010
0000
0100
0000
0000
0100
0000
0000
1000
0000
,
0001
0000
0000
0100
0000
0000
0010
0000
0100
0000
0000
0000
0001
0000
0010
0000
,
0100
0000
0000
0010
0000
0000
0001
0000
1000
0000
0000
0010
0000
0000
0010
0000
,
0100
0000
0000
0001
0000
0000
0010
0000
0100
0000
0000
0000
0001
0000
0100
0000
,
1000
0000
0000
0001
0000
0000
1000
0000
0010
0000
0000
0100
0000
0000
0001
0000
,
0010
0000
0000
0100
0000
0000
0010
0000
0001
0000
0000
0000
1000
0000
0001
0000
,
0100
0000
0000
0010
0000
0000
1000
0000
0100
0000
0000
0010
0000
0000
0001
0000
,
1000
0000
0000
0001
0000
0000
0100
0000
0001
0000
0000
0000
0010
0000
0100
0000
,
1000
0000
0000
0010
0000
0000
0100
0000
0010
0000
0000
0001
0000
0000
0010
0000
,
0100
0000
0000
0010
0000
0000
1000
0000
0001
0000
0000
0000
0100
0000
0001
0000
,
1000
0000
0000
0100
0000
0000
0010
0000
0001
0000
0000
1000
0000
0000
0001
0000
,
0100
0000
0000
0010
0000
0000
0100
0000
0001
0000
0000
0000
1000
0000
0001
0000
,
1000
0000
0000
0100
0000
0000
1000
0000
0001
0000
0000
0100
0000
0000
0001
0000
,
0010
0000
0000
0100
0000
0000
1000
0000
0100
0000
0000
0000
0010
0000
0100
0000
,
1000
0000
0000
0001
0000
0000
0100
0000
0001
0000
0000
1000
0000
0000
0100
0000
,
1000
0010
0001
0100
,
1200
0000
0000
0010
0000
0000
0001
0000
0000
0010
0000
0000
1000
0000
0000
0000
,
1000
0000
0000
1000
0300
0000
0100
0000
1000
0000
0001
0000
1000
0000
0020
0000
,
0030
0000
0200
0000
0000
0000
1000
0000
0000
0010
0000
0000
0001
0000
0001
0000
,
0001
0000
0000
1000
0000
0000
0001
0000
0300
0001
0000
0000
0001
0000
0000
0000
,
1001
0000
0000
1000
0000
0000
1000
0000
0100
0010
0000
0000
0001
0000
0010
0000
,
0001
0000
0000
0001
0000
0000
0001
0000
0100
0001
0000
0000
1000
0000
0001
0000
,
1000
0000
0000
1000
0000
0000
1000
0000
0001
0000
0100
0000
0001
0000
1000
0000
,
0001
0000
0000
0010
0000
0000
0100
0000
0000
1000
0000
0000
1100
0000
0000
0000
,
0101
0000
0001
0000
0000
0010
0000
0000
0001
0000
1000
0000
0010
0000
1000
0000
,
0000
0000
0100
0000
0000
0010
0000
0000
0001
0000
0100
0000
0001
0000
2000
0000
,
0000
0000
3200
0000
0000
0010
0000
0000
1000
0000
0000
0010
0000
0000
0001
0000
,
0000
0000
0010
0000
0000
1000
0000
0000
0010
0000
0300
0010
0100
0000
1000
0000
,
0010
0000
0000
0010
0000
0000
1000
0000
0000
1000
0000
0000
1000
0000
0000
0000
,
0001
0000
0000
0001
0000
0000
0100
0000
0000
0100
0000
0000
0100
0000
0000
0000
,
0001
0000
0000
0001
0000
0000
0010
0000
0000
0010
0000
0000
0010
0000
0000
0000
,
0000
0000
0100
0000
0000
1000
0000
0000
0001
0000
0000
0000
1001
0000
0000
0000
,
0110
0000
0100
0000
0010
0100
0000
0000
0001
0000
0000
0010
0001
0000
1000
0000
,
0010
0000
1000
0000
0001
0010
0000
0000
0100
0000
0000
1000
0100
0000
1000
0000
,
0001
0000
0100
0000
0010
0100
0000
0000
0001
0000
0000
0010
0001
0000
1000
0000
,
0100
0000
0010
0000
0001
0010
0000
0000
0100
0000
0000
1000
0100
0000
1000
0000
,
0001
0000
0010
0000
0001
0100
0000
0000
0010
0000
0000
0100
0010
0000
1000
0000
,
0001
0000
1000
0000
0100
1000
0000
0000
0001
0000
0000
0010
0001
0000
1000
0000
,
0010
0000
1000
0000
0001
0010
0000
0000
0100
0000
0000
0010
0001
0000
1000
0000
,
0000
0000
0010
0000
0000
0100
0000
0000
0001
0000
0000
1000
0010
0000
1000
0000
,
1001
0001
0100
0010
1000
0010
0100
0001
,
1000
0100
0001
0100
1000
0010
0100
0010
,
1000
0001
0010
0001
1000
0010
0001
0010
,
0100
0010
1000
0001
0100
0010
0001
0010
,
0100
0001
1000
0100
1000
0001
0010
0001
,
0100
0010
0001
0010
0100
0001
1000
0100
,
0010
0001
0010
0100
1000
0010
1000
0001
,
0010
0000
0001
0000
0100
0000
0010
0000
1000
0000
0000
0100
1000
0000
0001
0000
,
1001
0000
0000
1000
0100
0000
1000
0000
0001
0000
0010
0000
1000
0000
0010
0000
,
0001
0000
0000
0010
0100
0000
1000
0000
0010
0000
0001
0000
0010
0000
0100
0000
,
0010
0000
0000
1000
0100
0000
1000
0000
0001
0000
0100
0000
1000
0000
0100
0000
,
0001
0000
0000
0010
0001
0000
0100
0000
0010
0000
1000
0010
1000
0000
0100
0000
,
0010
0001
0010
1000
0010
0001
0010
0100
,
1000
0010
0100
0010
0001
0010
0100
0010
,
1000
0010
1000
0010
1000
0010
1000
0010
0100
0001
0100
0001
0100
0001
0100
0001
,
0010
0000
0000
0010
0100
0000
0010
0000
0001
0000
1000
0000
1010
0000
0010
0000
,
2000
0000
0000
0000
,
3000
0000
0000
0000
;

//---------------dance-single - ----------------
#NOTEDATA:;
#CHARTNAME:X-Scale 9;
#STEPSTYPE:dance-single;
#DESCRIPTION:;
#CHARTSTYLE:;
#DIFFICULTY:Medium;
#METER:6;
#RADARVALUES:0.376926,0.413256,0.095367,0.119208,0.158945,332.000000,320.000000,12.000000,15.000000,0.000000,0.000000,0.000000,0.000000,0.000000,0.376926,0.413256,0.095367,0.119208,0.158945,332.000000,320.000000,12.000000,15.000000,0.000000,0.000000,0.000000,0.000000,0.000000;
#CREDIT:iamthek3n;
#NOTES:
0000
0000
0000
0000
,
0000
0000
0000
0000
,
0000
0000
0000
0000
,
0000
0000
0000
0000
,
0001
0000
1000
0000
0010
1000
0010
0000
,
1000
0000
0100
0000
0010
0001
0010
0000
,
0100
0000
1000
0000
0001
1000
0001
0000
,
0010
0011
0001
1001
,
1010
0000
0000
1000
0001
0000
0000
0010
,
0100
0000
0000
1000
0100
0000
0010
0100
,
1000
0000
0000
0001
0100
0000
0000
0010
,
1000
0000
0000
0100
0010
0000
0001
0010
,
0100
0000
0000
1000
0100
0000
0000
1000
,
0001
0000
0000
0010
0100
0000
0010
0001
,
1000
0000
0000
0010
1000
0000
0000
0100
,
0010
0000
0000
0001
0100
0000
0000
0000
,
0001
0010
0100
1000
,
0100
0000
0010
0000
0001
0000
1000
0010
,
1000
0001
0100
0010
,
1000
0000
0010
0000
0100
0000
0001
0010
,
0001
0100
1000
0100
,
0010
0000
0100
0000
0001
0000
1000
0010
,
1000
0100
0001
0100
,
1000
0010
0100
0001
,
2001
0000
0000
0010
0000
0000
0100
0000
0000
0010
0000
0000
0001
0000
0000
0000
,
3002
0000
0000
0100
0000
0000
0010
0000
0013
0000
0100
0000
1000
0000
0020
0000
,
0000
0000
2030
0000
0000
0010
0000
0000
0010
0000
0000
0000
0100
0000
0000
0000
,
0001
0000
0000
0010
0000
0000
0001
0000
3000
0000
0000
0000
0010
0000
0000
0000
,
1002
0000
0000
0010
0000
0000
0100
0000
0000
0010
0000
0000
1000
0000
0000
0000
,
2003
0000
0000
0010
0000
0000
0100
0000
3100
0000
1000
0000
0001
0000
0200
0000
,
0000
0000
0302
0000
0000
0000
2003
0000
0000
0010
0000
0000
0010
0000
0000
0000
,
0100
0000
0000
0100
3000
0000
1000
0000
0000
1000
0000
0000
1100
0000
0000
0000
,
0021
1000
0100
0001
,
0230
0000
0001
0000
1300
0100
0010
0002
,
0000
0203
0001
0000
0010
0000
1000
0000
,
0001
0010
1000
0301
,
1000
0000
0000
1000
0000
0000
1000
0000
0000
1000
0000
0000
1000
0000
0000
0000
,
0001
0000
0000
0001
0000
0000
0001
0000
0000
0001
0000
0000
0001
0000
0000
0000
,
0100
0000
0000
0100
0000
0000
0100
0000
0000
0100
0000
0000
0100
0000
0000
0000
,
0000
0000
0010
0000
0000
0100
0000
0000
0001
0000
0000
1000
0000
0000
0001
0000
,
1001
0000
1000
0000
0100
0000
0000
0000
0010
0000
0000
0100
0000
0000
1000
0000
,
0001
0000
0100
0000
0001
0000
0000
0000
0010
0000
0000
0001
0000
0000
1000
0000
,
0010
0000
1000
0000
0001
0000
0000
0000
0010
0000
0000
0100
0000
0000
1000
0000
,
0001
0000
0100
0000
0010
0000
0000
0000
1000
0000
0000
0010
0000
0000
1000
0000
,
0100
0000
0010
0000
0001
0000
0000
0000
0100
0000
0000
0001
0000
0000
1000
0000
,
0001
0000
0100
0000
0010
0000
0000
0000
0100
0000
0000
0001
0000
0000
0010
0000
,
0001
0000
1000
0000
0001
0000
0000
0000
0010
0000
0000
0100
0000
0000
1000
0000
,
0000
0000
0001
0000
0000
0010
0000
0000
1000
0000
0000
0100
0000
0000
0001
0000
,
0101
0000
0100
0000
0001
0000
0000
0000
0010
0000
0000
0100
0010
0000
0100
0000
,
1000
0000
0001
0000
0100
0000
0000
0000
0001
0000
0000
0010
0001
0000
1000
0000
,
0010
0000
1000
0000
0001
0000
0000
0000
0100
0000
0000
0010
0100
0000
0001
0000
,
0010
0000
0100
0000
1000
0000
0000
0000
0010
0000
0000
0100
0010
0000
1000
0000
,
0001
0000
0100
0000
0001
0000
0000
0000
0010
0000
0000
0001
0100
0000
0001
0000
,
1000
0000
0100
0000
0010
0000
0000
0000
0001
0000
0000
1000
0001
0000
0010
0000
,
0001
0000
1000
0000
0100
0000
0000
0000
0010
0000
0000
0001
0010
0000
0001
0000
,
1000
0000
0010
0000
0100
0000
0000
0000
0210
0000
0000
1000
0000
0000
0001
0000
,
0301
0000
0100
0001
1000
0000
0010
1000
,
0001
0000
0010
0100
1000
0000
0100
0010
,
0001
0000
1000
0010
0100
0000
0010
0100
,
0001
0000
0000
0000
0010
0000
0001
0000
1000
0000
0000
0100
1000
0000
0001
0000
,
0100
0000
0000
0010
0100
0000
0010
0000
0001
0000
0010
0000
1000
0000
0000
0000
,
0100
0000
0000
1000
0001
0000
0100
0000
0001
0000
0010
0000
0100
0000
0000
0000
,
1000
0000
0000
0100
1000
0000
0001
0000
0100
0000
0001
0000
1000
0000
0000
0000
,
0100
0110
0010
0101
,
0002
0000
0000
0000
,
0003
0000
0000
0000
;

//---------------dance-single - ----------------
#NOTEDATA:;
#CHARTNAME:X-Scale 6;
#STEPSTYPE:dance-single;
#DESCRIPTION:;
#CHARTSTYLE:;
#DIFFICULTY:Easy;
#METER:4;
#RADARVALUES:0.281559,0.381467,0.039736,0.087420,0.000000,248.000000,243.000000,5.000000,11.000000,0.000000,0.000000,0.000000,0.000000,0.000000,0.281559,0.381467,0.039736,0.087420,0.000000,248.000000,243.000000,5.000000,11.000000,0.000000,0.000000,0.000000,0.000000,0.000000;
#CREDIT:iamthek3n;
#NOTES:
// measure 0
0000
0000
0000
0000
,  // measure 1
0000
0000
0000
0000
,  // measure 2
0000
0000
0000
0000
,  // measure 3
0000
0000
0000
0000
,  // measure 4
1000
0100
0010
0001
,  // measure 5
0100
0010
1000
0001
,  // measure 6
0100
0010
0100
0001
,  // measure 7
0020
0100
0000
0100
,  // measure 8
0130
0000
0010
0000
,  // measure 9
0001
0000
1000
0000
,  // measure 10
0010
0000
0100
0000
,  // measure 11
0001
0000
1000
0000
,  // measure 12
0010
0000
1000
0000
,  // measure 13
0001
0000
0100
0000
,  // measure 14
0010
0000
1000
0000
,  // measure 15
0001
0000
0100
0000
,  // measure 16
0001
0010
0100
0010
,  // measure 17
0001
0000
1000
0000
0010
0000
1000
0100
,  // measure 18
0010
0100
1000
0001
,  // measure 19
0100
0000
0010
0000
0100
0000
0001
0010
,  // measure 20
0100
1000
0010
0100
,  // measure 21
0001
0000
1000
0000
0001
0000
0010
0100
,  // measure 22
1000
0001
0100
0001
,  // measure 23
1000
0100
0010
0001
,  // measure 24
0021
0000
0000
0000
,  // measure 25
0230
0000
0000
0000
0310
0100
1000
0002
,  // measure 26
0000
0203
0000
0000
0000
0000
0000
0000
,  // measure 27
0002
0000
0300
0100
,  // measure 28
2003
0000
0100
0000
,  // measure 29
3002
0000
0000
0000
0013
0001
1000
0020
,  // measure 30
0000
0230
0000
0302
0000
0000
0000
0000
,  // measure 31
1000
0000
0003
1001
,  // measure 32
1000
0100
0010
0001
,  // measure 33
0100
0001
0010
0100
,  // measure 34
1000
0010
0100
0010
,  // measure 35
1000
0001
0010
0001
,  // measure 36
1000
0100
1000
0001
,  // measure 37
0010
0001
0100
0010
,  // measure 38
0100
0001
1000
0100
,  // measure 39
1000
0000
0000
0001
,  // measure 40
1001
0000
1000
0000
0100
0000
0010
0100
,  // measure 41
1000
0000
0001
0000
0100
0000
0010
0100
,  // measure 42
0001
0000
1000
0000
0001
0000
0100
0010
,  // measure 43
1000
0000
0100
0000
0010
0000
0001
0010
,  // measure 44
0100
0000
0010
0000
0001
0000
1000
0001
,  // measure 45
0100
0000
0010
0000
0100
0000
0001
0010
,  // measure 46
0100
0000
0010
0000
0001
0000
1000
0100
,  // measure 47
0010
0000
0100
0000
,  // measure 48
1001
0000
0001
0000
0100
0000
0010
0100
,  // measure 49
0001
0000
1000
0000
0001
0000
0100
0001
,  // measure 50
1000
0000
0100
0000
0010
0000
0001
0010
,  // measure 51
0100
0000
1000
0000
0001
0000
0100
0001
,  // measure 52
1000
0000
0010
0000
0100
0000
0001
0010
,  // measure 53
0100
0000
0010
0000
0001
0000
1000
0001
,  // measure 54
0100
0000
0010
0000
0100
0000
0001
1000
,  // measure 55
0100
1000
0000
0001
,  // measure 56
0101
0000
0100
0010
0100
0001
0100
0010
,  // measure 57
0100
0000
0001
0000
1000
0010
0100
0001
,  // measure 58
1000
0000
0100
1000
0001
0100
0010
0100
,  // measure 59
0001
0000
1000
0000
0010
1000
0001
0100
,  // measure 60
0010
0000
1000
0100
0010
0001
0100
0010
,  // measure 61
1000
0000
0001
0100
0010
0100
0001
0010
,  // measure 62
0100
0000
1000
0001
0100
0001
1000
0100
,  // measure 63
0010
0001
1000
0001
,  // measure 64
0100
0000
0000
0000
;

//---------------dance-single - ----------------
#NOTEDATA:;
#CHARTNAME:X-Scale 1;
#STEPSTYPE:dance-single;
#DESCRIPTION:;
#CHARTSTYLE:;
#DIFFICULTY:Beginner;
#METER:1;
#RADARVALUES:0.107855,0.152587,0.007947,0.000000,0.000000,95.000000,94.000000,1.000000,0.000000,0.000000,0.000000,0.000000,0.000000,0.000000,0.107855,0.152587,0.007947,0.000000,0.000000,95.000000,94.000000,1.000000,0.000000,0.000000,0.000000,0.000000,0.000000,0.000000;
#CREDIT:iamthek3n;
#NOTES:
// measure 0
0000
0000
0000
0000
,  // measure 1
0000
0000
0000
0000
,  // measure 2
0000
0000
0000
0000
,  // measure 3
0000
0000
0000
0000
,  // measure 4
0001
0000
1000
0000
,  // measure 5
0001
0000
1000
0000
,  // measure 6
0010
0000
0100
0000
,  // measure 7
0010
0000
0100
0000
,  // measure 8
0001
0000
0000
0000
,  // measure 9
0010
0000
0000
0000
,  // measure 10
0100
0000
0000
0000
,  // measure 11
1000
0000
0000
0000
,  // measure 12
0010
0000
0000
0000
,  // measure 13
0100
0000
0000
0000
,  // measure 14
0001
0000
0000
0000
,  // measure 15
1000
0000
0000
0000
,  // measure 16
0100
0000
0000
0000
,  // measure 17
1000
0000
0000
0000
,  // measure 18
0001
0000
0000
0000
,  // measure 19
0100
0000
0000
0000
,  // measure 20
0001
0000
0000
0000
,  // measure 21
0010
0000
0000
0000
,  // measure 22
0100
0000
0000
0000
,  // measure 23
0010
0000
0000
0000
,  // measure 24
0001
0000
0000
0000
,  // measure 25
1000
0000
0000
0000
,  // measure 26
0010
0000
0000
0000
,  // measure 27
1000
0000
0000
0000
,  // measure 28
0001
0000
0000
0000
,  // measure 29
0100
0000
0000
0000
,  // measure 30
0010
0000
0000
0000
,  // measure 31
0100
0000
0000
0000
,  // measure 32
0001
0000
1000
0000
,  // measure 33
0010
0000
1000
0000
,  // measure 34
0001
0000
1000
0000
,  // measure 35
0010
0000
0100
0000
,  // measure 36
0001
0000
0010
0000
,  // measure 37
0001
0000
1000
0000
,  // measure 38
0001
0000
0010
0000
,  // measure 39
0001
0000
0000
0000
,  // measure 40
1001
0000
1000
0000
,  // measure 41
0100
0000
1000
0000
,  // measure 42
0001
0000
0100
0000
,  // measure 43
0010
0000
0100
0000
,  // measure 44
0001
0000
0010
0000
,  // measure 45
0100
0000
1000
0000
,  // measure 46
0100
0000
0010
0000
,  // measure 47
0001
0000
0000
0000
,  // measure 48
1000
0000
0010
0000
,  // measure 49
0100
0000
0010
0000
,  // measure 50
1000
0000
0010
0000
,  // measure 51
0100
0000
0001
0000
,  // measure 52
0010
0000
0100
0000
,  // measure 53
0010
0000
0001
0000
,  // measure 54
0010
0000
0100
0000
,  // measure 55
1000
0000
0001
0000
,  // measure 56
1000
0000
0100
0000
,  // measure 57
1000
0000
0001
0000
,  // measure 58
0100
0000
0001
0000
,  // measure 59
0010
0000
0100
0000
,  // measure 60
1000
0000
0001
0000
,  // measure 61
1000
0000
0100
0000
,  // measure 62
0010
0000
0001
0000
,  // measure 63
1000
0000
0000
0000
,  // measure 64
1000
0000
0000
0000
;
