#VERSION:0.83;
#TITLE:The Concept of Love;
#SUBTITLE:;
#ARTIST:長沼英樹;
#TITLETRANSLIT:;
#SUBTITLETRANSLIT:;
#ARTISTTRANSLIT:Hideki Naganuma;
#GENRE:Acid Breakbeat;
#ORIGIN:;
#CREDIT:;
#BANNER:The Concept of Love-bn.png;
#BACKGROUND:The Concept of Love-bg.png;
#PREVIEWVID:;
#JACKET:The Concept of Love-jacket.png;
#CDIMAGE:;
#DISCIMAGE:;
#LYRICSPATH:;
#CDTITLE:cdtitle.png;
#MUSIC:The Concept of Love.ogg;
#OFFSET:-0.004000;
#SAMPLESTART:55.085999;
#SAMPLELENGTH:15.738000;
#SELECTABLE:YES;
#BPMS:0.000=122.000;
#STOPS:;
#DELAYS:;
#WARPS:;
#TIMESIGNATURES:0.000=4=4;
#TICKCOUNTS:0.000=4;
#COMBOS:0.000=1;
#SPEEDS:0.000=1.000=0.000=0;
#SCROLLS:0.000=1.000;
#FAKES:;
#LABELS:0.000=Song Start;
#BGCHANGES:;
#KEYSOUNDS:;
#ATTACKS:
;

//---------------dance-single - ----------------
#NOTEDATA:;
#CHARTNAME:X-Scale 14;
#STEPSTYPE:dance-single;
#DESCRIPTION:;
#CHARTSTYLE:;
#DIFFICULTY:Hard;
#METER:9;
#RADARVALUES:0.617114,0.587267,0.235283,0.065879,0.832902,459.000000,434.000000,25.000000,7.000000,15.000000,0.000000,0.000000,0.000000,0.000000,0.617114,0.587267,0.235283,0.065879,0.832902,459.000000,434.000000,25.000000,7.000000,15.000000,0.000000,0.000000,0.000000,0.000000;
#CREDIT:iamthek3n;
#NOTES:
0000
0000
0000
0000
,
0000
0000
0000
0000
,
0000
0000
0000
0000
,
0000
0000
0000
0000
,
1001
0000
1000
0000
0010
1000
0000
0001
0000
0100
0000
0010
1000
0000
0010
0000
,
1010
0000
1010
0000
0001
1000
0000
0010
0000
1000
0000
0100
0010
0000
0010
0000
,
0101
0000
0100
0000
0010
1000
0000
0001
0000
0010
0000
0100
1000
0000
0001
0000
,
1000
0000
0100
0000
0001
0000
0100
0000
0010
0000
0001
0010
0100
0010
0001
0010
,
0100
0000
1000
0000
0010
1000
0000
0001
0000
0001
0000
0010
0100
0000
0010
0000
,
0100
0000
0100
0000
1000
0001
0000
0100
0000
0100
0000
0010
0100
0000
0001
0000
,
0010
0000
0010
0000
0100
1000
0000
0001
0000
0001
0000
0100
0010
0000
1000
0000
,
0100
0000
0100
0000
0010
0001
0000
0100
0000
0100
0010
1000
0001
0010
0100
0010
,
0001
0000
0001
0000
1000
0010
0000
1000
0000
1000
0000
0100
0010
0000
0001
0000
,
0100
0000
0100
0000
0010
0100
0000
0001
0000
0001
0000
1000
0010
0000
1000
0000
,
0001
0000
0001
0000
1000
0010
0000
0100
0000
0100
0000
0001
0010
0000
0100
0000
,
0000
1000
0000
0100
1000
0000
0001
0000
0000
1000
0000
0100
1000
0000
0001
0000
,
1001
0000
1000
0100
1000
0100
0000
0000
0010
0000
0100
0000
1000
0000
0001
0000
,
1000
0000
0010
1000
0010
1000
0000
0000
0001
0000
0100
0000
0010
0000
0100
0000
,
0001
0000
0010
0100
0010
0100
0000
0000
1000
0000
0100
0000
0001
0000
0100
0000
,
1000
0000
0100
0010
0002
0000
0000
0000
0103
0000
0001
1000
0020
0000
0000
0000
,
0130
0000
0100
0000
0001
0010
0000
0100
0000
0100
0000
1000
0100
0000
MMMM
0000
,
0001
0000
0001
0000
0100
0001
0000
1000
0000
1000
0000
0010
0100
0000
MMMM
0000
,
0011
1000
0000
1001
0000
0101
0101
0100
,
0110
0000
0000
0000
0010
0000
0010
1000
0000
0100
0000
1000
0002
0000
0000
0000
,
0023
0000
0000
0000
0130
0000
0000
0100
0000
0100
0000
0100
1000
0000
0001
1000
,
0002
0000
0000
0023
0100
0000
0000
0130
0000
0100
0000
0100
1000
0010
0M00
0010
,
0002
0000
0000
0000
1003
0000
0000
0100
0000
0100
0000
0100
0010
0000
0001
1000
,
0001
0000
0100
0010
0100
0000
0001
0000
1000
0010
0100
0001
0010
0001
1000
0010
,
1000
0000
0001
0000
0100
0001
0000
1000
0000
0001
0000
0100
0010
0000
1000
0000
,
1001
0000
0001
0000
1000
0100
0000
1000
0000
0001
0000
0010
0100
0000
0010
0000
,
0001
0000
1000
0000
0100
1000
0000
0010
0000
1000
0000
0001
0100
0000
0010
0000
,
0101
0000
0001
0000
0010
0001
0000
1000
0000
0100
0000
1000
0001
0000
0010
0000
,
0001
0000
1000
0000
0100
1000
0000
0010
1000
0000
0100
0000
1000
0010
1000
0000
,
0100
0000
0010
0000
0001
1000
0000
0100
1000
0000
0001
0000
0100
0010
1000
0000
,
1000
0000
0001
0000
0100
0001
1000
0000
0010
0000
1000
0001
0100
0000
0010
0000
,
MM1M
0000
0001
0000
1000
0100
M0MM
0100
0001
0000
0101
0000
0101
0000
1000
0000
,
1001
0000
0001
0100
0001
0100
0000
0010
1000
0010
0000
0000
1010
0000
0000
0000
,
1000
0000
0100
0010
0100
0010
0000
0001
0010
0001
0000
0000
1000
0000
0001
0000
,
0100
0000
0010
0100
0010
0100
0000
0001
0010
0001
0000
0000
0011
0000
0000
0000
,
1000
0000
0010
1000
0000
0100
0010
0001
0100
0000
0010
1000
0000
0001
0010
0100
,
1000
0000
0010
0100
0010
0100
0000
0001
1000
0001
0000
0000
1001
0000
0000
0000
,
0001
0000
1000
0100
1000
0100
0000
0010
0001
0010
0000
0000
0100
0000
0010
0000
,
0001
0000
0001
0100
0001
0100
0000
0010
0100
0010
0000
0000
0110
0000
0100
0000
,
0001
1000
0000
0010
0100
0000
0001
0000
1000
0100
0000
0010
0001
0000
1000
0000
,
0010
0000
0010
0000
0100
0001
0000
0010
0000
0100
0000
1000
0010
0000
1000
0000
,
0100
0000
0100
0000
0010
0001
0000
1000
0000
0010
0000
1000
0100
0000
0010
0000
,
0001
0000
0001
0000
0100
0001
0000
1000
0000
0010
0000
0100
0010
0000
1000
0000
,
0001
0000
0001
0000
0010
0100
0000
0010
0000
0001
0000
1000
0010
0000
1000
0000
,
1010
0000
0000
0000
0010
0100
0000
0001
0000
1000
0000
0100
0000
0000
1000
0000
,
1100
0000
0000
0000
0100
0010
0000
0100
0000
1000
0000
0001
0000
0000
0100
0000
,
0101
0000
0000
0000
0001
0010
0000
0001
0000
1000
0000
0010
0000
0000
1000
0000
,
1010
0000
0000
0010
0100
0000
0001
0000
0101
0000
0000
0001
1000
0000
0100
0000
,
1100
0000
0000
0000
;

//---------------dance-single - ----------------
#NOTEDATA:;
#CHARTNAME:X-Scale 10;
#STEPSTYPE:dance-single;
#DESCRIPTION:;
#CHARTSTYLE:;
#DIFFICULTY:Medium;
#METER:7;
#RADARVALUES:0.458466,0.491742,0.225872,0.207049,0.592913,341.000000,317.000000,24.000000,22.000000,0.000000,0.000000,0.000000,0.000000,0.000000,0.458466,0.491742,0.225872,0.207049,0.592913,341.000000,317.000000,24.000000,22.000000,0.000000,0.000000,0.000000,0.000000,0.000000;
#CREDIT:iamthek3n;
#NOTES:
0000
0000
0000
0000
,
0000
0000
0000
0000
,
0000
0000
0000
0000
,
0000
0000
0000
0000
,
1100
0000
1000
0000
0100
0000
0000
1000
0000
0100
0000
1000
0000
0000
0000
0000
,
0101
0000
0001
0000
0100
0000
0000
0001
0000
0100
0000
0001
0000
0000
0000
0000
,
0110
0000
0100
0000
0010
0000
0000
0100
0000
0010
0000
0100
0000
0000
0001
0000
,
0010
0000
0000
0100
0000
0000
0001
0000
0010
0000
0000
0100
0000
0000
1000
0000
,
1100
0000
0000
0000
0100
0000
0000
1000
0000
0010
0000
1000
0000
0000
0100
0000
,
0010
0000
0010
0000
0001
0000
0000
0010
0000
0100
0000
0010
0000
0000
0001
0000
,
1000
0000
1000
0000
0010
0000
0000
1000
0000
0001
0000
1000
0000
0000
0100
0000
,
0010
0000
0010
0000
0001
0000
0000
1000
0000
0100
1000
0000
0001
0000
0100
0001
,
0100
0000
0010
0000
0010
0000
0000
1000
0000
0001
0000
0100
0000
0000
0001
0000
,
0010
0000
0010
0000
0100
0000
0000
1000
0000
0100
0000
0010
0000
0000
0001
0000
,
1000
0000
1000
0000
0010
0000
0000
1000
0000
0001
0000
0100
0000
0000
0010
0000
,
0000
1000
0000
0100
1000
0000
0001
0000
0000
1000
0000
0100
1000
0000
0001
0000
,
1001
0000
1000
0000
0100
1000
0000
0001
0000
0100
0000
0020
0000
0000
1000
0000
,
1030
0000
0001
0000
0010
0001
0000
1000
0000
0010
0000
2000
0000
0000
0100
0000
,
3100
0000
0010
0000
0100
1000
0000
0001
0000
0010
0000
0200
0000
0000
0010
0000
,
0310
0001
2000
0000
3010
1000
0002
0000
,
0013
0000
0010
0000
0100
1000
0000
0001
0000
0100
0000
0010
0100
0000
0000
0000
,
0001
0000
0001
0000
0010
0001
0000
1000
0000
0010
0000
1000
0100
0000
0000
0000
,
1100
0000
0000
1001
0000
0101
0101
0000
,
1002
0000
0000
0000
0000
0000
0000
0000
0000
0000
0100
0000
0000
1000
0000
0000
,
0203
0000
0000
0000
0301
0000
0000
0000
0000
0000
1000
0000
0000
0100
0000
0000
,
0020
0000
0000
0002
0000
0000
0000
0000
0033
0000
1000
0000
0000
0001
0000
0000
,
0200
0000
0000
0000
0310
0000
0000
0000
0000
0000
1000
0000
0000
0001
0000
0000
,
1000
0000
0000
0100
1000
0000
0000
0100
0000
0100
0010
0001
1000
0001
0100
0010
,
0100
0000
0001
0000
0010
0000
0000
0100
0000
0001
0000
0010
0000
0000
0100
0000
,
1000
0000
0000
0001
0000
0000
0100
0000
0001
0000
0000
0000
0101
0000
0000
0000
,
0001
0000
1000
0000
0100
0000
0000
0001
0000
1000
0000
0100
0000
0000
1000
0000
,
0010
0000
0000
0100
0000
0000
0001
0000
0010
0000
0000
0000
0011
0000
0000
0000
,
0001
0000
0010
0000
0100
0000
0000
0001
0000
0010
0000
0100
0000
0000
0000
0000
,
1000
0000
0001
0000
0100
0000
0000
1000
0000
0001
0000
0100
0000
0000
0001
0000
,
0010
0000
0000
0100
0000
0000
0001
0000
0010
0000
0000
0100
0000
0000
1000
0000
,
1010
0000
0000
1001
0000
0101
0101
0000
,
1001
0000
1000
0000
0100
1000
0000
0001
0000
0001
0000
0100
0010
0000
0100
0000
,
0001
0000
0010
0000
0100
0000
0010
0000
0001
0000
1000
0001
1000
0000
0010
0000
,
0100
0000
0001
0000
0010
0001
0000
1000
0000
1000
0000
0010
0100
0000
0000
0000
,
0001
0000
0010
0001
0000
0000
1000
0001
1000
0000
0010
1000
0000
0000
0001
0000
,
0100
0000
0001
0000
0010
0100
0000
1000
0000
1000
0000
0010
1000
0000
0000
0000
,
0001
0000
0010
0000
1000
0000
0010
0000
0001
0000
1000
0001
1000
0000
0100
0000
,
0010
0000
0001
0000
0100
0001
0000
1000
0000
1000
0000
0001
0100
0000
0010
0000
,
1000
0000
0000
0001
0000
0000
0010
0000
1000
0000
0000
0001
0000
0000
0100
0000
,
0101
0000
0000
0000
0001
1000
0000
0100
0000
1000
0000
0010
0100
0000
0010
0000
,
1000
0000
0000
0000
0100
0010
0000
0001
0000
1000
0000
0001
0100
0000
0001
0000
,
1000
0000
0000
0000
0100
1000
0000
0001
0000
0010
0000
0001
1000
0000
0100
0000
,
0010
0000
0000
0000
0100
1000
0000
0001
0000
0000
0100
0000
0000
0001
0000
0000
,
0022
0000
0000
0000
0033
0000
0000
0000
0000
0000
0010
0000
0000
0100
0000
0000
,
2100
0000
0000
0002
0000
0000
0000
0000
3003
0000
1000
0000
0000
0100
0000
0000
,
0220
0000
0000
0000
0330
0000
0000
0010
0000
0000
0001
0000
0000
1000
0000
0000
,
2002
3003
0220
0330
,
2002
3003
0000
0000
;

//---------------dance-single - ----------------
#NOTEDATA:;
#CHARTNAME:X-Scale 6;
#STEPSTYPE:dance-single;
#DESCRIPTION:;
#CHARTSTYLE:;
#DIFFICULTY:Easy;
#METER:4;
#RADARVALUES:0.290406,0.367042,0.178815,0.159992,0.000000,216.000000,197.000000,19.000000,17.000000,0.000000,0.000000,0.000000,0.000000,0.000000,0.290406,0.367042,0.178815,0.159992,0.000000,216.000000,197.000000,19.000000,17.000000,0.000000,0.000000,0.000000,0.000000,0.000000;
#CREDIT:iamthek3n;
#NOTES:
// measure 0
0000
0000
0000
0000
,  // measure 1
0000
0000
0000
0000
,  // measure 2
0000
0000
0000
0000
,  // measure 3
0000
0000
0000
0000
,  // measure 4
0011
0000
0020
0000
,  // measure 5
0130
0100
0000
0000
2000
0000
0000
0000
,  // measure 6
3010
0000
0200
0000
,  // measure 7
0301
1000
0001
1000
,  // measure 8
1001
0000
0001
0000
0100
0001
1000
0000
,  // measure 9
0010
0000
0100
0000
0001
0010
0100
0000
,  // measure 10
1000
0000
0001
0000
0100
0001
1000
0000
,  // measure 11
0010
0000
1000
0000
0100
0010
0001
1000
,  // measure 12
0010
0000
0100
0000
0001
1000
0010
0000
,  // measure 13
1000
0000
0001
0000
0010
0001
1000
0000
,  // measure 14
0100
0000
1000
0000
0001
1000
0010
0000
,  // measure 15
1000
0000
0100
0010
0001
0000
0010
0100
,  // measure 16
1000
0001
0200
0010
,  // measure 17
0301
0010
0200
1000
,  // measure 18
0310
0100
2000
0100
,  // measure 19
3001
0020
0130
0020
,  // measure 20
0031
0000
1000
0000
0001
0000
1001
1000
,  // measure 21
0100
0000
0010
0000
0001
0000
0011
0010
,  // measure 22
0110
0000
0000
1010
0000
0000
1001
0000
,  // measure 23
0002
0000
0000
0000
,  // measure 24
0013
0100
0010
0001
,  // measure 25
1000
0010
1000
0001
,  // measure 26
0010
0100
1000
0001
,  // measure 27
1000
0000
1000
0000
1000
0100
0010
0001
,  // measure 28
0100
0000
0001
0000
1000
0000
0010
1000
,  // measure 29
0001
0000
0010
0100
1000
0000
1100
0000
,  // measure 30
0100
0010
0001
0000
1000
0000
0001
0100
,  // measure 31
0010
0000
0100
0001
0010
0000
0101
0000
,  // measure 32
1000
0001
0100
0000
0010
0000
1000
0000
,  // measure 33
0001
0010
0100
0000
0010
0000
0001
1000
,  // measure 34
0100
0000
1000
0001
0100
0000
0010
0100
,  // measure 35
0110
0000
0000
1010
0000
0000
1001
0000
,  // measure 36
0101
0001
0200
0010
,  // measure 37
0301
0100
0010
1000
0100
0000
1000
0100
,  // measure 38
0010
0100
2000
0010
,  // measure 39
3001
0100
0001
0000
0001
0100
0001
0000
,  // measure 40
0101
0001
0020
0100
,  // measure 41
0031
0010
0100
1000
0010
0000
1000
0001
,  // measure 42
0100
0001
2000
0010
,  // measure 43
3001
0000
1000
0100
0010
0000
0001
0010
,  // measure 44
0200
0000
0010
0000
,  // measure 45
2300
0000
0010
0000
,  // measure 46
3002
0000
0010
0000
,  // measure 47
0203
0000
0000
0000
,  // measure 48
0301
0000
0000
0000
,  // measure 49
1001
0000
0000
0000
,  // measure 50
1010
0000
0000
0000
,  // measure 51
0110
0000
1001
0000
,  // measure 52
0110
0000
0000
0000
;

//---------------dance-single - ----------------
#NOTEDATA:;
#CHARTNAME:X-Scale 1;
#STEPSTYPE:dance-single;
#DESCRIPTION:;
#CHARTSTYLE:;
#DIFFICULTY:Beginner;
#METER:1;
#RADARVALUES:0.107558,0.146817,0.037645,0.000000,0.000000,80.000000,76.000000,4.000000,0.000000,0.000000,0.000000,0.000000,0.000000,0.000000,0.107558,0.146817,0.037645,0.000000,0.000000,80.000000,76.000000,4.000000,0.000000,0.000000,0.000000,0.000000,0.000000,0.000000;
#CREDIT:iamthek3n;
#NOTES:
// measure 0
0000
0000
0000
0000
,  // measure 1
0000
0000
0000
0000
,  // measure 2
0000
0000
0000
0000
,  // measure 3
0000
0000
0000
0000
,  // measure 4
1000
0000
0000
0000
,  // measure 5
0001
0000
0000
0000
,  // measure 6
1000
0000
0000
0000
,  // measure 7
0001
0000
0000
0000
,  // measure 8
0000
0000
0000
0000
,  // measure 9
0000
1000
0000
0100
,  // measure 10
0000
1000
0000
0100
,  // measure 11
0000
0010
0000
0001
,  // measure 12
0000
0010
0000
0001
,  // measure 13
0000
0100
0000
0010
,  // measure 14
0000
0100
0000
0010
,  // measure 15
0000
1000
0000
1000
,  // measure 16
0000
0001
0000
0100
,  // measure 17
0000
0001
0000
1000
,  // measure 18
0000
0001
0000
0100
,  // measure 19
0000
0001
0000
1000
,  // measure 20
0000
0100
0000
0010
,  // measure 21
0000
0100
0000
1000
,  // measure 22
0000
0000
0000
0000
,  // measure 23
1001
0000
0000
0000
,  // measure 24
0110
0000
0000
0000
,  // measure 25
1000
0000
0000
0000
,  // measure 26
0001
0000
0000
0000
,  // measure 27
1000
0000
0001
0000
,  // measure 28
0000
1000
0000
0100
,  // measure 29
0000
0010
0000
0001
,  // measure 30
0000
0100
0000
0010
,  // measure 31
0000
1000
0000
0001
,  // measure 32
0000
0010
0000
0100
,  // measure 33
0000
0010
0000
0001
,  // measure 34
0000
1000
0000
1000
,  // measure 35
0000
0000
0000
0000
,  // measure 36
1001
0000
1000
0000
,  // measure 37
0100
0000
1000
0000
,  // measure 38
0001
0000
0100
0000
,  // measure 39
0001
0000
1000
0000
,  // measure 40
0001
0000
0100
0000
,  // measure 41
0010
0000
1000
0000
,  // measure 42
0100
0000
0010
0000
,  // measure 43
0001
0000
1000
0000
,  // measure 44
0001
0000
0000
0000
,  // measure 45
0010
0000
0000
0000
,  // measure 46
0100
0000
0000
0000
,  // measure 47
1000
0000
0000
0000
,  // measure 48
0010
0000
0000
0000
,  // measure 49
0100
0000
0000
0000
,  // measure 50
0001
0000
0000
0000
,  // measure 51
0001
0000
1000
0000
,  // measure 52
1001
0000
0000
0000
;
