#VERSION:0.83;
#TITLE:Still in Love;
#SUBTITLE:;
#ARTIST:musicbyLUKAS;
#TITLETRANSLIT:;
#SUBTITLETRANSLIT:;
#ARTISTTRANSLIT:;
#GENRE:Progressive House;
#ORIGIN:;
#CREDIT:;
#BANNER:Still in Love-bn.png;
#BACKGROUND:Still in Love-bg.png;
#PREVIEWVID:;
#JACKET:Still in Love-jacket.png;
#CDIMAGE:;
#DISCIMAGE:;
#LYRICSPATH:;
#CDTITLE:cdtitle.png;
#MUSIC:Still in Love.ogg;
#OFFSET:-0.002000;
#SAMPLESTART:36.192001;
#SAMPLELENGTH:15.238000;
#SELECTABLE:YES;
#BPMS:0.000=126.000;
#STOPS:;
#DELAYS:;
#WARPS:;
#TIMESIGNATURES:0.000=4=4;
#TICKCOUNTS:0.000=4;
#COMBOS:0.000=1;
#SPEEDS:0.000=1.000=0.000=0;
#SCROLLS:0.000=1.000;
#FAKES:;
#LABELS:0.000=Song Start;
#BGCHANGES:0.000=Still in Love.avi=1.000=1=0=0=StretchNoLoop==CrossFade==,
99999=-nosongbg-=1.000=0=0=0 // don't automatically add -songbackground-
;
#KEYSOUNDS:;
#ATTACKS:
;

//---------------dance-single - ----------------
#NOTEDATA:;
#CHARTNAME:X-Scale 13;
#STEPSTYPE:dance-single;
#DESCRIPTION:;
#CHARTSTYLE:;
#DIFFICULTY:Hard;
#METER:9;
#RADARVALUES:0.509510,0.589856,0.107355,0.047713,0.650094,299.000000,290.000000,9.000000,4.000000,0.000000,0.000000,0.000000,0.000000,0.000000,0.509510,0.589856,0.107355,0.047713,0.650094,299.000000,290.000000,9.000000,4.000000,0.000000,0.000000,0.000000,0.000000,0.000000;
#CREDIT:iamthek3n;
#NOTES:
0000
0000
0000
0000
,
1100
0000
1000
0001
0100
0000
0010
0100
,
0001
0000
0000
0000
0010
0000
0000
0100
0000
0100
0000
0000
1000
0000
0000
0010
,
0000
0010
0000
0000
0001
0000
0000
0000
1000
0000
0001
0000
1000
0000
0000
0000
,
0010
0000
0000
0000
0100
0000
0010
0100
0000
0100
0001
0000
1000
0000
1000
0000
,
1001
0000
0001
0000
0100
0000
0001
0100
0010
0100
0001
0000
0101
0000
0000
0000
,
1000
0000
0001
0000
1000
0000
0010
1000
0001
1000
0010
0000
1010
0000
0000
0000
,
1000
0000
0100
0000
0010
0000
0001
1000
0010
1000
0001
0000
1001
0000
0000
0000
,
0001
0000
0010
0000
0100
0000
1000
0100
0010
0100
1000
0000
0100
0000
0000
0000
,
1000
0000
0000
0000
0010
0000
0000
0100
0000
0100
0000
0000
0001
0000
0000
0010
,
0000
0010
0000
0000
0100
0000
0000
1000
0000
1000
0000
0000
0001
0000
0000
0100
,
0000
0100
0000
0000
1000
0000
0000
0010
0000
0010
0000
0000
0001
0000
0000
0100
,
0000
0100
0000
0000
0010
0000
0000
1000
0000
1000
0000
0000
0100
0000
0000
0010
,
0000
0010
0000
0000
0001
0000
0000
0100
0000
0100
0000
0000
1000
0000
0000
0010
,
0000
0010
0000
0000
0100
0000
0000
0001
0000
0001
0000
0000
0010
0000
0000
0100
,
0000
0100
0000
0000
0001
0000
0000
1000
0000
1000
0000
0000
0010
0000
0000
0000
,
1000
0000
0001
0000
0010
0000
0001
0200
,
0000
0000
0000
0300
0000
0000
0000
0000
,
0001
0100
1000
0100
0002
0000
0000
0003
,
0101
0000
0000
0000
1000
0000
0000
0001
0010
0000
0001
0000
0100
0001
0000
0000
,
1000
0100
0001
0100
0020
0000
0001
0000
,
0130
0010
0000
0000
0100
0000
0000
1000
0001
0000
1000
0000
0010
1000
0000
0000
,
0001
0000
0000
0100
0010
0000
1000
0000
0100
1000
0000
0000
1100
0000
0000
1000
,
0001
1000
0000
0000
0100
0000
0010
0001
0000
0000
1000
0000
0001
0100
0000
0000
,
0001
0100
0010
1000
0020
0000
0001
0000
,
0130
0010
0000
0000
1000
0000
0100
0010
0000
0000
0001
0000
0100
0001
0000
1000
,
0001
0000
0000
0010
0000
0000
1000
0000
0000
0100
0000
0000
0001
0000
0000
0000
,
0101
0000
0100
0000
0001
0000
0000
0010
0001
0000
0010
0100
0000
0100
0000
0000
,
1000
0000
0000
0001
0100
0001
0000
0000
0010
0000
0000
0100
0000
0010
0000
0001
,
0010
0001
0000
0000
1000
0000
0000
0001
0010
0000
0001
1000
0000
1000
0000
0000
,
0100
0000
0000
0010
0100
0010
0000
0000
0001
0000
0000
0010
0000
0001
0000
1000
,
0010
1000
0000
0000
1000
0000
0000
0010
1000
0000
0001
0010
0000
0010
0000
0000
,
0001
0000
0100
0000
1000
0000
0100
0000
0001
0000
1000
0100
0000
0100
0000
1000
,
0001
1000
0000
0000
0100
0000
0000
0010
0001
0000
1000
0001
0000
0001
0000
0000
,
0100
0000
0000
0010
0000
0010
0000
0000
1000
0000
0000
0001
0000
0001
0000
0000
,
1001
0000
0001
0000
1000
0000
0000
0100
0000
1000
0000
0000
0001
0000
0000
0100
,
0000
0000
0000
0001
0000
0000
0000
0000
0000
0000
0000
0000
0010
0000
0000
0000
0000
0000
0000
0000
0000
0100
0000
0000
1000
0000
0000
0000
0000
0000
1000
0000
0000
0000
0001
0000
0100
0000
0000
0000
0000
0000
0000
0000
0000
0000
0000
0000
,
0001
0000
1000
0000
0100
0000
0000
0010
0000
0001
0000
0000
1000
0000
0000
0010
,
0000
0000
0000
1000
0000
0000
0000
0000
0000
0000
0000
0000
0001
0000
0000
0000
0000
0000
0000
0000
0000
0010
0000
0000
0001
0000
0000
0000
0000
0000
0001
0000
0000
0000
0010
0000
0100
0000
0000
0000
0000
0000
0000
0000
0000
0000
0000
0000
,
1000
0000
0010
0000
1000
0000
0000
0100
0010
0000
0100
0000
1000
0000
0000
0000
,
0001
0000
0000
0000
0000
0000
0100
0000
0000
0000
0000
0000
0001
0000
0000
0000
0000
0000
0000
0000
0000
0010
0000
0000
0001
0000
0000
0000
0000
0000
0001
0000
0000
0000
1000
0000
0010
0000
0000
0000
0000
0000
0000
0000
0000
0000
0000
0000
,
0010
0000
0000
0000
0000
0000
1000
0000
0000
0000
0000
0000
0001
0000
0000
0000
0000
0000
0000
0000
0000
0000
0001
0000
0010
0000
0000
0000
0000
0000
0001
0000
0000
0000
0000
0000
1000
0000
0000
0000
0000
0000
0000
0000
0000
0100
0000
0000
,
0000
0100
0000
0000
0010
0000
0000
0001
0000
0001
0000
0000
1000
0000
0001
0000
,
1000
0000
0000
0000
;

//---------------dance-single - ----------------
#NOTEDATA:;
#CHARTNAME:X-Scale 9;
#STEPSTYPE:dance-single;
#DESCRIPTION:;
#CHARTSTYLE:;
#DIFFICULTY:Medium;
#METER:7;
#RADARVALUES:0.410676,0.512918,0.143140,0.274352,0.381707,241.000000,229.000000,12.000000,23.000000,0.000000,0.000000,0.000000,0.000000,0.000000,0.410676,0.512918,0.143140,0.274352,0.381707,241.000000,229.000000,12.000000,23.000000,0.000000,0.000000,0.000000,0.000000,0.000000;
#CREDIT:iamthek3n;
#NOTES:
0000
0000
0000
0000
,
0001
0000
1000
0010
0000
0100
0001
0010
,
0100
0000
0000
0000
1000
0000
0020
1000
0000
1000
0030
0000
1010
0000
0000
0000
,
0001
0000
0000
0000
1001
0000
0000
1000
0000
1000
0000
0000
0100
0000
0000
0000
,
0010
0000
0000
0000
0101
0000
0000
0001
0100
0001
0100
0000
0010
0000
1000
0000
,
0100
0000
0000
0000
1100
0000
0000
1000
0000
1000
0000
0000
1001
0000
0000
0001
,
0000
0001
0000
0000
0011
0000
0000
0010
0100
0010
0100
0000
1100
0000
0000
0000
,
1001
0000
0000
0000
0101
0000
0000
0100
0000
0100
0000
0000
0010
0000
0000
1000
,
0001
0000
1000
0000
0100
0000
0000
0010
0000
0010
0001
0000
1000
0000
0001
0000
,
0020
0000
0130
2000
0010
0000
3001
0010
,
0200
0000
0000
0000
2300
0000
0000
0001
3000
0001
0000
0000
1000
0000
0000
0100
,
0000
0100
0000
0000
0010
0000
0000
0000
0001
0000
0010
0000
2000
0000
0000
0000
,
3200
0000
0000
0000
0301
0000
0000
1000
0000
1000
0000
0000
0010
0000
0000
0000
,
0200
0000
0000
0000
0302
0000
0000
0000
0023
0000
0000
0000
0100
0000
0000
0001
,
0030
0001
0000
0000
2000
0000
0000
0000
3002
0000
0000
0000
0103
0000
0020
0000
,
0001
0130
0010
1000
,
0001
0000
0020
0000
0230
0000
2300
0002
,
0000
0000
0000
3003
0000
0000
0000
0000
,
1000
0010
1000
0010
0200
0000
0000
0300
,
0101
0000
0000
0000
0100
0000
0000
0001
0000
0000
1000
0000
0000
0001
0000
0000
,
0010
0001
1000
0001
0020
0000
1000
0000
,
0031
0000
0000
0000
0010
0000
0000
0100
0000
0000
1000
0000
0000
0001
0000
0000
,
0010
0000
0000
0001
0000
0000
1000
0000
0000
0001
0000
0000
0010
0000
0200
0000
,
1000
0000
0000
0000
0310
0000
0000
0100
0000
0000
1000
0000
0000
0001
0000
0000
,
0100
0001
0010
0100
2000
0000
0010
0000
,
3001
0000
0000
0000
1000
0000
0000
0100
0000
0000
0001
0000
0000
0100
0000
0000
,
1000
0000
0000
0001
0000
0000
0100
0000
0000
0001
0000
0000
0101
0000
0200
0000
,
0010
0000
0000
0000
0301
0000
0000
0000
1000
0000
0000
0100
0000
1000
0000
0000
,
0001
0000
0000
0100
0000
0001
0000
0000
0010
0000
0000
0100
0000
1000
0000
0001
,
1000
0000
0000
0000
0100
0000
0000
0000
0010
0000
0000
0001
0000
0100
0000
0000
,
0001
0000
0000
0010
0000
0100
0000
0000
1000
0000
0000
0001
0000
0100
0000
0001
,
1000
0000
0000
0000
0100
0000
0000
0000
1000
0000
0000
0001
0000
0100
0000
0000
,
0001
0000
0000
0010
0000
0100
0000
0000
1000
0000
0000
0010
0000
1000
0000
0001
,
1000
0000
0000
0000
0100
0000
0000
0000
0010
0000
0000
0001
0000
1000
0000
0000
,
0001
0000
0000
0010
0000
0100
0000
0000
1000
0000
0000
0010
0000
1000
0000
0000
,
1001
0000
1000
0000
0010
1000
0010
0000
,
0100
0000
0001
0000
0010
0100
0010
0000
,
0001
0000
1000
0000
0100
0010
0100
0000
,
1000
0000
0001
0000
0100
0010
0100
0000
,
0001
0000
0010
0000
0100
0010
0001
0000
,
1000
0000
0001
0000
0100
0001
1000
0000
,
0010
0000
0100
0000
0001
0010
0100
0000
,
2000
0100
0010
0100
,
3001
0000
0000
0000
;

//---------------dance-single - ----------------
#NOTEDATA:;
#CHARTNAME:X-Scale 6;
#STEPSTYPE:dance-single;
#DESCRIPTION:;
#CHARTSTYLE:;
#DIFFICULTY:Easy;
#METER:4;
#RADARVALUES:0.308433,0.333397,0.023857,0.190853,0.000000,181.000000,179.000000,2.000000,16.000000,0.000000,0.000000,0.000000,0.000000,0.000000,0.308433,0.333397,0.023857,0.190853,0.000000,181.000000,179.000000,2.000000,16.000000,0.000000,0.000000,0.000000,0.000000,0.000000;
#CREDIT:iamthek3n;
#NOTES:
// measure 0
0000
0000
0000
0000
,  // measure 1
1000
0000
0001
0000
0100
0000
0001
0010
,  // measure 2
0100
0010
0001
1000
,  // measure 3
0010
0000
1000
0000
0001
1000
0100
0000
,  // measure 4
1000
0000
0010
0000
1000
1000
0001
0001
,  // measure 5
0100
0000
0001
0000
1000
0100
0010
0000
,  // measure 6
0100
0000
1000
0000
0001
0100
0001
0000
,  // measure 7
1000
0000
0001
0000
0010
0100
1000
0000
,  // measure 8
0001
1000
0010
1000
,  // measure 9
0002
0000
0000
0203
0000
0000
0301
0010
,  // measure 10
0200
2300
3001
0000
,  // measure 11
1000
0000
0000
0000
0100
0010
0002
0000
,  // measure 12
0203
0301
1000
0000
,  // measure 13
0010
1000
0002
0000
,  // measure 14
0103
0000
0001
0000
0010
0000
0100
2000
,  // measure 15
0002
3000
1000
0000
0100
0000
1000
0000
,  // measure 16
2000
0000
0000
0000
,  // measure 17
3003
0000
0000
0000
,  // measure 18
1000
0100
0010
0000
,  // measure 19
0011
0001
1000
0001
,  // measure 20
0010
0100
2000
0010
,  // measure 21
3001
1000
0010
1000
,  // measure 22
0001
0000
0010
0000
0100
0000
0010
0001
,  // measure 23
1000
0001
0100
0001
,  // measure 24
1000
0100
0020
0100
,  // measure 25
0031
0010
0100
1000
,  // measure 26
0001
0000
0100
0000
0001
0000
1000
0100
,  // measure 27
0010
0000
0100
0000
1000
0001
0100
0001
,  // measure 28
1000
0000
0100
0000
0010
0100
1000
0100
,  // measure 29
0010
0000
0001
0000
1000
0001
0100
0001
,  // measure 30
1000
0000
0200
0000
0320
0000
0031
0020
,  // measure 31
0100
0000
0031
0000
0010
0100
1000
0001
,  // measure 32
1000
0000
0010
0000
0100
0010
1000
0001
,  // measure 33
0010
0000
0001
0000
1000
0001
0100
0001
,  // measure 34
1000
0100
1000
0100
,  // measure 35
1100
1000
0001
1000
,  // measure 36
0010
0100
0001
0010
,  // measure 37
0100
0010
0001
1000
,  // measure 38
0001
0100
0001
1000
,  // measure 39
0100
0010
0001
1000
,  // measure 40
0001
0010
0100
1000
,  // measure 41
0001
0100
0010
0100
,  // measure 42
0002
1000
0000
1000
,  // measure 43
0003
0000
0000
0000
;

//---------------dance-single - ----------------
#NOTEDATA:;
#CHARTNAME:X-Scale 2;
#STEPSTYPE:dance-single;
#DESCRIPTION:;
#CHARTSTYLE:;
#DIFFICULTY:Beginner;
#METER:2;
#RADARVALUES:0.115875,0.152981,0.035785,0.000000,0.000000,68.000000,65.000000,3.000000,0.000000,0.000000,0.000000,0.000000,0.000000,0.000000,0.115875,0.152981,0.035785,0.000000,0.000000,68.000000,65.000000,3.000000,0.000000,0.000000,0.000000,0.000000,0.000000,0.000000;
#CREDIT:iamthek3n;
#NOTES:
// measure 0
0000
0000
0000
0000
,  // measure 1
0001
0000
0000
0000
,  // measure 2
0010
0000
0000
0000
,  // measure 3
0100
0000
0000
0000
,  // measure 4
1000
0000
0000
0000
,  // measure 5
0001
0000
0100
0000
,  // measure 6
0010
0000
1000
0000
,  // measure 7
0100
0000
0010
0000
,  // measure 8
0001
0000
0000
0000
,  // measure 9
1000
0000
0000
0000
,  // measure 10
0100
0000
0000
0000
,  // measure 11
0010
0000
0000
0000
,  // measure 12
0001
0000
0000
0000
,  // measure 13
0100
0000
0000
0000
,  // measure 14
0010
0000
0000
0000
,  // measure 15
1000
0000
0000
0000
,  // measure 16
0001
0000
0000
0000
,  // measure 17
0000
0000
0000
0000
,  // measure 18
0000
0000
0000
0000
,  // measure 19
1001
0000
1000
0000
,  // measure 20
0001
0000
0100
0000
,  // measure 21
0001
0000
1000
0000
,  // measure 22
0001
0000
0100
0000
,  // measure 23
0001
0000
0010
0000
,  // measure 24
0100
0000
0010
0000
,  // measure 25
0001
0000
0010
0000
,  // measure 26
0100
0000
0000
0000
,  // measure 27
1001
0000
1000
0000
,  // measure 28
0010
0000
1000
0000
,  // measure 29
0001
0000
0100
0000
,  // measure 30
0001
0000
1000
0000
,  // measure 31
0100
0000
1000
0000
,  // measure 32
0001
0000
0010
0000
,  // measure 33
0001
0000
1000
0000
,  // measure 34
0001
0000
0000
0000
,  // measure 35
1001
0000
1000
0000
,  // measure 36
0001
0000
0010
0000
,  // measure 37
0001
0000
1000
0000
,  // measure 38
0100
0000
0010
0000
,  // measure 39
0100
0000
1000
0000
,  // measure 40
0001
0000
0100
0000
,  // measure 41
0001
0000
1000
0000
,  // measure 42
0000
0001
0000
0001
;
