#TITLE:Stereo Love;
#SUBTITLE:;
#ARTIST:Edward Maya & Vika Jigulina;
#TITLETRANSLIT:;
#SUBTITLETRANSLIT:;
#ARTISTTRANSLIT:;
#GENRE:Progressive House;
#CREDIT:;
#BANNER:stereo love-bn.png;
#BACKGROUND:stereo love-bg.png;
#LYRICSPATH:;
#CDTITLE:cdtitle.png;
#MUSIC:stereo love.ogg;
#OFFSET:-0.001000;
#SAMPLESTART:92.598999;
#SAMPLELENGTH:15.118000;
#SELECTABLE:YES;
#BPMS:0.000000=126.999992
;
#STOPS:
;
#BGCHANGES:0.000=Stereo Love.avi=1.000=1=0=0=StretchNoLoop==CrossFade==,
99999=-nosongbg-=1.000=0=0=0 // don't automatically add -songbackground-
;
#KEYSOUNDS:;
#ATTACKS:;

//---------------dance-single - ----------------
#NOTES:
     dance-single:
     X-Scale 12:
     Hard:
     8:
     0.487519,0.568536,0.254885,0.127443,0.201784,482.000000,446.000000,36.000000,18.000000,0.000000,0.000000,0.487519,0.568536,0.254885,0.127443,0.201784,482.000000,446.000000,36.000000,18.000000,0.000000,0.000000:
// measure 0
0000
0000
0000
0000
,  // measure 1
0000
0000
0000
0000
,  // measure 2
0000
0000
0000
0000
,  // measure 3
0000
0000
0000
0000
,  // measure 4
0000
0000
0000
0000
,  // measure 5
1000
0000
0100
1000
0000
0000
0001
0000
0010
0000
0100
0000
1000
0000
0001
0000
,  // measure 6
0100
0001
1000
0100
0010
0100
1000
0001
,  // measure 7
0100
0000
0000
0100
0000
0000
0010
0000
0000
0000
0010
0000
0000
0000
1000
0000
,  // measure 8
0100
0000
0000
0010
0000
0000
0001
0000
0000
0000
0001
0000
0000
0000
0001
0000
,  // measure 9
1000
0000
0000
0100
0000
0000
1000
0000
0000
0000
0001
0000
0000
0000
0100
0010
,  // measure 10
0100
0000
0000
0001
0000
0000
0010
0000
0000
0000
0100
0000
0000
0000
1000
0100
,  // measure 11
1000
0000
0000
0001
0000
0000
0100
0000
0000
0000
0010
0000
0000
0000
0100
0010
,  // measure 12
1000
0000
0000
0001
0000
0000
0010
0000
0000
0000
0001
0000
0000
0000
0001
1000
,  // measure 13
0010
0000
0000
0100
0000
0000
0001
0000
0000
0000
1000
0000
0000
0000
1000
0100
,  // measure 14
1000
0000
0000
0010
0000
0000
0100
0000
0000
0000
0001
0000
1000
0000
0002
0000
,  // measure 15
0010
0000
0000
0100
0000
0000
0100
0000
0003
0000
1000
0000
0010
0000
2000
0000
,  // measure 16
0001
0000
0000
0100
0000
0000
3200
0000
0000
0000
0320
0000
0000
0000
0032
0000
,  // measure 17
0010
1000
0100
1000
,  // measure 18
0013
0100
1000
0100
,  // measure 19
1000
0010
0001
0100
,  // measure 20
1000
0010
0100
0010
,  // measure 21
1000
0000
0000
1000
0000
0000
1000
0000
0000
0000
0010
0000
0100
0000
0010
0000
,  // measure 22
0110
0000
0000
0110
0000
0000
1001
0000
0000
0000
1010
0000
0000
0000
0011
0000
,  // measure 23
0011
0000
0000
0011
0000
0000
0101
0000
0000
0000
0110
0000
0000
0000
1100
0000
,  // measure 24
2100
0000
0000
0100
0000
0000
0001
0000
0000
0000
0010
0000
0000
0000
0000
0000
,  // measure 25
3001
1000
0010
0000
0100
0010
1000
0100
,  // measure 26
0001
0000
0100
0000
1000
0000
0000
0000
0001
0000
0000
0100
0001
0000
1000
0000
,  // measure 27
0010
0100
0001
0000
0010
0100
1000
0002
,  // measure 28
0000
0000
0203
0000
0000
0000
0320
0000
0001
0000
0030
0100
0010
0000
0100
0000
,  // measure 29
0001
1000
0100
0000
0010
0100
1000
0001
,  // measure 30
0100
0000
0001
0000
1000
0000
0000
0000
0100
0000
0000
0010
0001
0000
1000
0000
,  // measure 31
0010
1000
0001
0000
0010
0100
1000
0020
,  // measure 32
0000
0000
0230
0000
0000
0000
0302
0000
0000
0000
0000
1003
0001
0000
1000
0000
,  // measure 33
0010
0000
0000
0000
1000
0000
0100
0000
1000
0000
0001
0100
0001
0000
0010
0000
,  // measure 34
1000
0000
0010
0000
0001
0000
0100
0000
0010
0000
0100
0010
0100
0000
0001
0000
,  // measure 35
1000
0000
0100
0000
0001
0000
0100
0000
1000
0000
0001
0100
0001
0000
1000
0000
,  // measure 36
0010
0000
0001
0000
0010
0000
0100
0000
0010
0000
1000
0010
1000
0000
0100
0000
,  // measure 37
0001
0000
0100
0000
0010
0000
0001
0000
1000
0000
0001
1000
0001
0000
0100
0000
,  // measure 38
0010
0000
0100
0000
0001
0000
0010
0000
0100
0000
1000
0100
1000
0000
0001
0000
,  // measure 39
1000
0000
0000
0100
1000
0000
0001
0000
0010
0000
0000
0000
0100
0000
0010
0000
,  // measure 40
0100
0000
1000
0001
0000
0000
0001
0000
0000
0000
0010
0100
0000
0000
0100
0000
,  // measure 41
0110
0000
0010
0001
1000
0001
0010
0000
,  // measure 42
0100
0000
1000
0010
0001
0010
1000
0000
,  // measure 43
0100
0000
0010
0001
1000
0001
0010
0000
,  // measure 44
0001
0000
1000
0010
0100
0010
1000
0000
,  // measure 45
0100
0000
0000
0010
0001
0000
1000
0000
0000
0000
0010
0000
1000
0000
0001
0000
,  // measure 46
0001
0000
0000
0100
0010
0000
0100
0000
0000
0000
0001
0000
0000
0000
1000
0000
,  // measure 47
1000
0000
0000
0100
0010
0000
0100
0000
0000
0000
1000
0000
0000
0000
0001
0000
,  // measure 48
0001
0000
0000
0010
0000
0000
0200
0000
0000
0000
2000
0000
0000
0000
3300
0000
,  // measure 49
1100
0000
0000
1000
0100
0000
1000
0000
0010
0000
0001
0000
1000
0000
0100
0000
,  // measure 50
0001
0010
0100
0000
1000
0010
0100
0010
,  // measure 51
1000
0000
0000
0100
0010
0000
0001
0000
1000
0000
0001
0000
0100
0000
0000
0000
,  // measure 52
0010
0000
0000
0100
0010
0000
0100
0000
0001
0000
0010
0000
1000
0000
0010
0000
,  // measure 53
0001
0000
0000
0010
0100
0000
0010
0000
0001
0000
1000
0000
0010
0000
0001
0000
,  // measure 54
1000
0100
0010
0000
1000
0010
0100
0010
,  // measure 55
1000
0000
0000
0100
0010
0000
0100
0000
1000
0000
0001
0000
0100
0000
0001
0000
,  // measure 56
1000
0000
0000
1100
0000
0000
0210
0000
0000
0000
0020
0000
0000
0000
0330
0000
,  // measure 57
1001
0000
0000
0001
0100
0000
0001
0000
0010
0000
0100
0000
1000
0000
0000
0000
,  // measure 58
0010
0000
0000
1000
0010
0000
1000
0000
0001
0000
0100
0000
0001
0000
1000
0000
,  // measure 59
1100
0000
0000
1010
0000
0000
1100
0000
1000
0000
1001
0000
0001
0000
0000
0000
,  // measure 60
0011
0000
0000
0110
0000
0000
1001
0000
0001
0000
0101
0000
0100
0000
0000
0000
,  // measure 61
0110
0000
0000
0010
0100
0000
0001
0000
0010
0000
1000
0000
0010
0000
0001
0000
,  // measure 62
0100
0000
0000
0010
0100
0000
0001
0000
1000
0000
0100
0000
1000
0000
0001
0000
,  // measure 63
0101
0000
0000
0110
0000
0000
0011
0000
0001
0000
1001
0000
1000
0000
0000
0000
,  // measure 64
0101
0000
0000
0011
0000
0000
1010
0000
1000
0000
1100
0000
0100
0000
0000
0000
,  // measure 65
1010
0000
0000
1000
0100
0000
1000
0000
0001
0000
0100
0000
0010
0000
0100
0000
,  // measure 66
1000
0100
0010
0100
0001
1000
0010
1000
,  // measure 67
0001
0000
0000
0010
0001
0000
1000
0000
0000
0000
0010
0000
1000
0000
0001
0000
,  // measure 68
0100
0000
0000
0010
0100
0000
0001
0000
0010
0000
1000
0000
0010
0000
0001
0000
,  // measure 69
1000
0000
0000
0100
1000
0000
0100
0000
0001
0000
0100
0000
0010
0000
0001
0000
,  // measure 70
1000
0010
0001
0010
0100
0010
1000
0001
,  // measure 71
0010
0000
0000
0001
1000
0000
0010
0000
1000
0000
0000
0000
0100
0000
0010
0000
,  // measure 72
0001
0000
0000
1001
0000
0000
0102
0000
0000
0000
0200
0000
0000
0000
0000
0000
,  // measure 73
0303
0000
0000
0000
;

//---------------dance-single - ----------------
#NOTES:
     dance-single:
     X-Scale 8:
     Medium:
     6:
     0.385362,0.439323,0.035401,0.325687,0.095582,381.000000,376.000000,5.000000,46.000000,0.000000,0.000000,0.385362,0.439323,0.035401,0.325687,0.095582,381.000000,376.000000,5.000000,46.000000,0.000000,0.000000:
// measure 0
0000
0000
0000
0000
,  // measure 1
0000
0000
0000
0000
,  // measure 2
0000
0000
0000
0000
,  // measure 3
0000
0000
0000
0000
,  // measure 4
0000
0000
0000
0000
,  // measure 5
0001
0000
0000
1000
0000
0100
0000
1000
,  // measure 6
1000
0000
0000
0100
0000
0000
0010
0000
0000
0000
0010
0000
0000
0000
0010
0000
,  // measure 7
0001
0000
0000
0100
0000
0000
0001
0000
0000
0000
1000
0000
0000
0000
0020
0000
,  // measure 8
0000
2030
0000
3002
0000
0203
0000
0300
,  // measure 9
0002
0000
0000
0010
0000
0010
0000
0000
,  // measure 10
2003
0000
0000
0100
0000
0100
0000
0000
,  // measure 11
3001
0000
0000
0100
0000
0000
0001
0000
0000
0000
1000
0000
0000
0000
0020
0000
,  // measure 12
0000
0032
0000
0203
0000
2300
0000
3002
,  // measure 13
0000
0000
0000
1000
0000
0000
0100
0000
0000
0000
0100
0000
0000
0000
0000
0000
,  // measure 14
0010
0000
0000
0100
0000
0000
1000
0000
0003
0000
1000
0000
0001
0000
2000
0000
,  // measure 15
0000
0000
0000
0000
3000
1000
0001
2000
,  // measure 16
0000
0000
0000
3200
0000
0320
0000
0032
,  // measure 17
0010
1000
0100
1000
,  // measure 18
0013
0001
0010
1000
,  // measure 19
0010
0001
0100
0010
,  // measure 20
1000
0001
0100
0010
,  // measure 21
1000
0000
0000
1000
0000
0000
1000
0000
0000
0000
0001
0000
0000
0000
0010
0000
,  // measure 22
0010
0000
0000
0010
0000
0000
0010
0000
0000
0000
0100
0000
0000
0000
1000
0000
,  // measure 23
1000
0000
0000
1000
0000
0000
1000
0000
0000
0000
0001
0000
0000
0000
0100
0000
,  // measure 24
0100
0000
0000
0100
0000
0000
0100
0000
0000
0000
0010
0000
0000
0000
0000
0000
,  // measure 25
0110
0000
0100
0010
1000
0001
0100
0010
,  // measure 26
0000
0000
1000
0100
0001
0100
0010
0001
,  // measure 27
0000
0000
1000
0010
0001
0010
0100
0010
,  // measure 28
1000
0001
0100
0001
1000
0000
0100
0000
,  // measure 29
1000
0000
0001
0010
1000
0001
0100
1000
,  // measure 30
0000
0000
0001
0100
0010
0001
0010
0100
,  // measure 31
0000
0000
0001
1000
0010
1000
0001
0010
,  // measure 32
1000
0010
0100
0010
0001
0000
1000
0000
,  // measure 33
0010
1000
0001
2000
0000
3200
0000
0302
,  // measure 34
0000
0023
0000
2030
0000
3002
0000
2003
,  // measure 35
0000
0000
3000
0100
0000
1000
0000
0001
0000
0010
0000
0000
0001
0000
1000
0000
,  // measure 36
0100
0001
0100
0010
0001
1000
0010
0100
,  // measure 37
0001
0010
0100
2000
0000
3020
0000
0032
,  // measure 38
0000
0203
0000
2300
0000
3002
0000
2003
,  // measure 39
0000
0000
3000
0100
1000
0000
0000
0001
0000
0100
0000
0000
0010
0000
0100
0000
,  // measure 40
0001
1000
0100
0001
0100
1000
0001
0100
,  // measure 41
0001
0000
1000
0010
1000
0000
0100
0000
,  // measure 42
0010
0000
0001
0010
0001
0000
1000
0000
,  // measure 43
0010
0000
0100
0001
0100
0000
0010
0000
,  // measure 44
0001
0000
0010
0100
0010
0000
1000
0000
,  // measure 45
0001
0000
1000
0100
1000
0000
0010
0000
,  // measure 46
1000
0000
0000
1000
0000
0000
1000
0000
0000
0000
0100
0000
0000
0000
0010
0000
,  // measure 47
0010
0000
0000
0010
0000
0000
0010
0000
0000
0000
0001
0000
0000
0000
0100
0000
,  // measure 48
0100
0000
0000
0100
0000
0000
0100
0000
0000
0000
0010
0000
0000
0000
0000
0000
,  // measure 49
1001
0000
1000
0000
0010
1000
0001
1000
,  // measure 50
0010
0000
1000
0000
0100
0010
0001
0000
,  // measure 51
1000
0010
0100
0001
0010
0100
2000
0000
,  // measure 52
3010
1000
0100
0001
0100
1000
0001
0200
,  // measure 53
1000
0000
0301
0000
0100
0010
1000
0001
,  // measure 54
0010
0000
0001
0000
1000
0100
0010
0000
,  // measure 55
0100
1000
0001
0100
0010
1000
0001
0200
,  // measure 56
0000
1300
0100
0010
0100
0001
0010
0100
,  // measure 57
1200
0000
0310
0100
1000
0001
0200
0000
,  // measure 58
0302
0000
1003
0001
0010
0100
0010
0100
,  // measure 59
2000
0000
3100
0010
0002
0000
1003
0001
,  // measure 60
0100
0000
0000
0100
0000
0000
0100
0000
0010
0000
1000
0000
0002
0000
0000
0000
,  // measure 61
0203
0000
1300
0100
0001
0010
0200
0000
,  // measure 62
2300
0000
3010
1000
0002
0000
0013
0001
,  // measure 63
0200
0000
1300
0100
0010
0100
0001
0010
,  // measure 64
0100
0000
0000
0100
0000
0000
0100
0000
1000
0000
0001
0000
1000
0000
0000
0000
,  // measure 65
1010
0000
0000
1000
0010
0000
1000
0000
0001
0000
0100
0000
0010
0000
1000
0000
,  // measure 66
0100
0010
0001
0000
1000
0001
0100
0001
,  // measure 67
1000
0000
0000
0010
0100
0000
0010
0000
1000
0000
0001
0000
0100
0000
0000
0000
,  // measure 68
0001
0000
0000
0010
0001
0000
1000
0000
0001
0000
0010
0000
0100
0000
0000
0000
,  // measure 69
1001
0000
0000
0001
0010
0000
0001
0000
1000
0000
0010
0000
0001
0000
0010
0000
,  // measure 70
0100
0010
1000
0000
0001
0010
1000
0010
,  // measure 71
0001
0000
0000
0100
0001
0000
1000
0000
0010
0000
1000
0000
0001
0000
0000
0000
,  // measure 72
0010
0000
0000
0010
0000
0000
0020
0000
0000
0000
0200
0000
0000
0000
0000
0000
,  // measure 73
0330
0000
0000
0000
;

//---------------dance-single - ----------------
#NOTES:
     dance-single:
     X-Scale 6:
     Easy:
     4:
     0.283206,0.335953,0.007080,0.318607,0.000000,280.000000,279.000000,1.000000,45.000000,0.000000,0.000000,0.283206,0.335953,0.007080,0.318607,0.000000,280.000000,279.000000,1.000000,45.000000,0.000000,0.000000:
// measure 0
0000
0000
0000
0000
,  // measure 1
0000
0000
0000
0000
,  // measure 2
0000
0000
0000
0000
,  // measure 3
0000
0000
0000
0000
,  // measure 4
0000
0000
0000
0000
,  // measure 5
1000
0000
0000
0100
0000
0100
0000
0000
,  // measure 6
0001
0000
0000
0010
0000
0010
0000
0000
,  // measure 7
1000
0000
0000
0001
0000
0001
0000
0000
,  // measure 8
0100
0000
0000
0010
0000
0010
0000
0000
,  // measure 9
2000
0000
0000
0100
0000
0100
0000
0000
,  // measure 10
3002
0000
0000
0010
0000
0010
0000
0000
,  // measure 11
0103
0000
0000
0010
0000
0010
0000
0000
,  // measure 12
1000
0000
0000
0100
0000
0100
0000
0000
,  // measure 13
0020
0000
0000
0001
0000
0001
0000
0000
,  // measure 14
0100
0000
0000
0100
0030
0100
0000
0000
,  // measure 15
0010
0000
0000
0001
0000
0001
0000
0000
,  // measure 16
1000
0000
0000
0010
0000
0010
0000
0000
,  // measure 17
1000
0001
1000
0100
,  // measure 18
0010
0001
0010
0100
,  // measure 19
0010
0001
0100
0010
,  // measure 20
1000
0001
0100
0010
,  // measure 21
0100
0001
1000
0100
,  // measure 22
0010
0000
0000
0010
0000
0002
0000
0000
,  // measure 23
1003
0000
0000
1000
0000
0020
0000
0000
,  // measure 24
0130
0000
0000
0100
0000
0002
0000
0000
,  // measure 25
1003
0001
1000
0010
,  // measure 26
0100
0001
1000
0001
,  // measure 27
0010
0000
0100
0000
1000
0000
0010
2000
,  // measure 28
0000
3002
0000
0203
0300
0200
0300
0200
,  // measure 29
0310
0100
0001
0010
,  // measure 30
0001
1000
0100
0010
,  // measure 31
0001
0000
0010
0000
0100
2000
0000
3002
,  // measure 32
0000
0203
0000
0302
0003
0002
0003
0002
,  // measure 33
1003
0000
0001
0000
0100
0000
0010
1000
,  // measure 34
0000
1000
0001
0000
0100
0000
0001
0100
,  // measure 35
0001
0000
0010
0000
0100
0000
0010
0001
,  // measure 36
0000
0001
1000
0000
0010
0000
1000
0001
,  // measure 37
1000
0000
0100
0000
0010
0000
0001
0100
,  // measure 38
0000
0100
0010
0000
1000
0000
0001
0010
,  // measure 39
0001
1000
0010
1000
,  // measure 40
0001
0000
0000
0010
0000
0010
0000
0000
,  // measure 41
0100
0000
0000
1000
0000
1000
0000
0000
,  // measure 42
0001
0000
0000
0010
0000
0010
0000
0000
,  // measure 43
0001
0000
0000
1000
0000
1000
0000
0000
,  // measure 44
0100
0000
0000
0010
0000
0010
0000
0000
,  // measure 45
0001
0000
0000
1000
0000
1000
0000
0100
,  // measure 46
0010
0000
0000
0001
0000
0001
0000
0100
,  // measure 47
0001
0000
0000
0010
0000
0010
0000
0100
,  // measure 48
1000
0000
0000
0001
0000
0001
0000
0000
,  // measure 49
1001
1000
0001
1000
,  // measure 50
0010
0100
0001
0010
,  // measure 51
0100
0000
1000
0000
0001
0100
0002
0000
,  // measure 52
0013
0000
0100
0000
1000
0000
0010
2000
,  // measure 53
0001
3010
1000
0001
,  // measure 54
0010
0100
0010
0001
,  // measure 55
1000
0000
0010
0000
0100
0001
0020
0000
,  // measure 56
0130
0000
1000
0000
0001
0000
1000
0200
,  // measure 57
0020
0000
0330
0001
0010
0100
2000
0000
,  // measure 58
3002
0000
0003
0100
0001
0100
0001
0000
,  // measure 59
2000
0000
3100
0000
1000
0000
0001
0200
,  // measure 60
0000
0000
0310
0100
0001
1000
0200
0000
,  // measure 61
2300
0000
3000
0010
1000
0001
0020
0000
,  // measure 62
0032
0000
0003
1000
0020
0000
0130
0001
,  // measure 63
0020
0000
0130
0010
0001
0000
1000
0020
,  // measure 64
0000
0000
0130
0001
0010
0100
2000
0000
,  // measure 65
3020
0000
0030
1000
0001
0100
0020
0000
,  // measure 66
2030
0000
3000
0010
1000
0001
1000
0000
,  // measure 67
0200
0000
0310
0100
2000
0000
3001
0200
,  // measure 68
0000
0000
0300
0001
0100
0010
2000
0000
,  // measure 69
3020
0000
0030
0100
0001
0010
0200
0000
,  // measure 70
2300
0000
3000
1000
0100
0010
0001
0000
,  // measure 71
1000
0000
0001
0100
0001
0000
1000
0100
,  // measure 72
2000
0000
0000
0001
0000
0001
0000
0000
,  // measure 73
3000
0000
0000
0000
;

//---------------dance-single - ----------------
#NOTES:
     dance-single:
     X-Scale 2:
     Beginner:
     1:
     0.108225,0.152931,0.014160,0.000000,0.000000,107.000000,105.000000,2.000000,0.000000,0.000000,0.000000,0.108225,0.152931,0.014160,0.000000,0.000000,107.000000,105.000000,2.000000,0.000000,0.000000,0.000000:
// measure 0
0000
0000
0000
0000
,  // measure 1
0000
0000
0000
0000
,  // measure 2
0000
0000
0000
0000
,  // measure 3
0000
0000
0000
0000
,  // measure 4
0000
0000
0000
0000
,  // measure 5
0001
0000
0000
0000
,  // measure 6
1000
0000
0000
0000
,  // measure 7
0001
0000
0000
0000
,  // measure 8
1000
0000
0000
0000
,  // measure 9
0100
0000
0000
0000
,  // measure 10
0010
0000
0000
0000
,  // measure 11
0100
0000
0000
0000
,  // measure 12
0010
0000
0000
0000
,  // measure 13
0001
0000
0000
0000
,  // measure 14
0100
0000
0000
0000
,  // measure 15
0001
0000
0000
0000
,  // measure 16
0100
0000
0000
0000
,  // measure 17
0010
0000
0000
0000
,  // measure 18
1000
0000
0000
0000
,  // measure 19
0010
0000
0000
0000
,  // measure 20
1000
0000
0000
0000
,  // measure 21
0100
0000
0000
0000
,  // measure 22
0010
0000
0000
0000
,  // measure 23
0100
0000
0000
0000
,  // measure 24
0010
0000
0000
0000
,  // measure 25
0001
0000
1000
0000
,  // measure 26
0001
0000
0100
0000
,  // measure 27
0001
0000
1000
0000
,  // measure 28
0001
0000
0010
0000
,  // measure 29
0100
0000
0010
0000
,  // measure 30
0001
0000
0010
0000
,  // measure 31
0100
0000
1000
0000
,  // measure 32
0001
0000
1000
0000
,  // measure 33
0100
0000
1000
0000
,  // measure 34
0001
0000
0100
0000
,  // measure 35
0010
0000
0100
0000
,  // measure 36
0001
0000
0100
0000
,  // measure 37
0010
0000
1000
0000
,  // measure 38
0001
0000
1000
0000
,  // measure 39
0010
0000
1000
0000
,  // measure 40
0001
0000
0000
0000
,  // measure 41
1000
0000
0000
0000
,  // measure 42
0100
0000
0000
0000
,  // measure 43
1000
0000
0000
0000
,  // measure 44
0100
0000
0000
0000
,  // measure 45
0010
0000
0000
0000
,  // measure 46
0001
0000
0000
0000
,  // measure 47
0010
0000
0000
0000
,  // measure 48
0001
0000
0000
0000
,  // measure 49
1001
0000
0001
0000
,  // measure 50
0010
0000
0001
0000
,  // measure 51
0100
0000
0001
0000
,  // measure 52
0010
0000
0100
0000
,  // measure 53
1000
0000
0100
0000
,  // measure 54
0010
0000
0100
0000
,  // measure 55
1000
0000
0001
0000
,  // measure 56
1000
0000
0000
0000
,  // measure 57
1001
0000
1000
0000
,  // measure 58
0001
0000
0100
0000
,  // measure 59
0001
0000
1000
0000
,  // measure 60
0100
0000
0010
0000
,  // measure 61
0100
0000
1000
0000
,  // measure 62
0001
0000
0010
0000
,  // measure 63
0001
0000
1000
0000
,  // measure 64
0010
0000
0100
0000
,  // measure 65
0010
0000
1000
0000
,  // measure 66
0001
0000
1000
0000
,  // measure 67
0100
0000
0010
0000
,  // measure 68
0001
0000
0100
0000
,  // measure 69
0010
0000
1000
0000
,  // measure 70
0001
0000
0010
0000
,  // measure 71
0001
0000
1000
0000
,  // measure 72
0001
0000
0000
0000
;
