#VERSION:0.83;
#TITLE:Sexy Love;
#SUBTITLE:;
#ARTIST:Ne-Yo;
#TITLETRANSLIT:;
#SUBTITLETRANSLIT:;
#ARTISTTRANSLIT:;
#GENRE:R&B;
#ORIGIN:;
#CREDIT:;
#BANNER:Sexy Love-bn.png;
#BACKGROUND:Sexy Love-bg.png;
#PREVIEWVID:;
#JACKET:Sexy Love-jacket.png;
#CDIMAGE:;
#DISCIMAGE:;
#LYRICSPATH:;
#CDTITLE:cdtitle.png;
#MUSIC:Sexy Love.ogg;
#OFFSET:-0.006000;
#SAMPLESTART:61.283001;
#SAMPLELENGTH:20.426001;
#SELECTABLE:YES;
#BPMS:0.000=94.000;
#STOPS:;
#DELAYS:;
#WARPS:;
#TIMESIGNATURES:0.000=4=4;
#TICKCOUNTS:0.000=4;
#COMBOS:0.000=1;
#SPEEDS:0.000=1.000=0.000=0;
#SCROLLS:0.000=1.000;
#FAKES:;
#LABELS:0.000=Song Start;
#BGCHANGES:-0.012=Sexy Love.avi=1.000=1=0=0=StretchNoLoop==CrossFade==,
99999=-nosongbg-=1.000=0=0=0 // don't automatically add -songbackground-
;
#KEYSOUNDS:;
#ATTACKS:
;

//---------------dance-single - ----------------
#NOTEDATA:;
#CHARTNAME:X-Scale 11;
#STEPSTYPE:dance-single;
#DESCRIPTION:;
#CHARTSTYLE:;
#DIFFICULTY:Hard;
#METER:7;
#RADARVALUES:0.405065,0.478159,0.095092,0.224762,0.540293,328.000000,317.000000,11.000000,26.000000,0.000000,0.000000,0.000000,0.000000,0.000000,0.405065,0.478159,0.095092,0.224762,0.540293,328.000000,317.000000,11.000000,26.000000,0.000000,0.000000,0.000000,0.000000,0.000000;
#CREDIT:iamthek3n;
#NOTES:
// measure 0
0000
0000
0000
0000
,  // measure 1
0000
0000
0000
0000
,  // measure 2
0000
0000
0000
0000
,  // measure 3
0000
0000
0000
0000
,  // measure 4
1000
0000
0000
0100
0000
0000
2000
0000
0001
0000
0000
0010
0000
0000
3100
0010
,  // measure 5
0001
0000
0000
0010
0000
0000
0200
0000
1000
0000
0000
0001
0000
0000
1300
0000
,  // measure 6
0002
0010
1000
0100
,  // measure 7
1003
0000
0000
0100
0000
0000
2000
0000
0000
0000
0010
0000
0000
0001
3000
0000
,  // measure 8
1010
0000
0000
0010
0000
0100
0000
0000
0001
0000
0000
0010
0000
0100
0000
0000
,  // measure 9
1000
0000
0000
0001
0000
0010
0000
0000
0100
0000
0000
0010
0000
0001
0000
0000
,  // measure 10
0100
0000
0000
0010
0000
0000
1000
0000
0001
0000
0000
0010
0000
0001
0000
0000
,  // measure 11
0100
0000
0000
0010
0000
0000
2000
0000
0010
0000
0002
0000
0003
0200
0000
0300
,  // measure 12
3100
0000
0000
0001
0000
1000
0000
0000
0100
0000
0000
1000
0000
0001
0000
0000
,  // measure 13
0100
0000
0000
0010
0000
0100
0000
0000
0001
0000
0000
0010
0000
0100
0000
0000
,  // measure 14
1000
0000
0010
0100
0000
0001
0000
1000
0100
0000
0010
0000
0002
0000
0000
0000
,  // measure 15
2003
0000
3000
0200
0000
0300
2000
0000
0100
0000
0020
0000
0030
0002
0000
3003
,  // measure 16
1001
0000
0000
0001
1000
0000
0010
0000
1000
0000
0000
0100
0010
0000
0100
0000
,  // measure 17
0010
0100
1000
0001
0000
1000
0000
0010
0000
0100
0010
0000
1000
0000
0001
0100
,  // measure 18
0001
0000
0000
1000
0100
0000
1000
0000
0001
0000
0010
0100
1000
0001
0100
0000
,  // measure 19
0010
0000
0100
0001
0000
0010
0000
0001
0000
1000
0020
0000
0130
0002
0000
0003
,  // measure 20
1000
0000
0000
0100
0010
0000
0001
0000
1000
0000
0001
0000
0010
0000
0100
0010
,  // measure 21
0001
0000
1000
0010
0000
0100
0001
0000
1000
0010
0100
0001
0010
0100
1000
0000
,  // measure 22
0001
0000
0010
0100
0000
0010
0000
0001
1000
0000
0001
0000
0200
0000
0000
0000
,  // measure 23
0320
0000
0030
2000
0000
3000
0002
0000
0000
0000
0200
0000
0300
0020
0000
0033
,  // measure 24
0011
0000
0000
0001
0010
0000
0001
0000
1000
0000
0100
0000
0001
0000
0100
0010
,  // measure 25
0001
0000
0000
1000
0001
0000
0100
0000
0010
0000
1000
0000
0001
0100
0001
0100
,  // measure 26
0010
0000
0000
1000
0100
0000
1000
0000
0001
0000
0010
0000
1000
0000
0010
0100
,  // measure 27
1000
0000
0001
1000
0000
0100
1000
0000
0001
0100
0010
1000
0100
0010
0001
0000
,  // measure 28
1000
0000
0000
0100
0010
0000
0100
0000
1000
0000
0001
1000
0001
0010
0100
0010
,  // measure 29
0001
0000
0000
1000
0010
0000
1000
0000
0001
0010
0100
1000
0010
0100
0001
0000
,  // measure 30
1000
0000
0000
0100
1000
0001
0100
0010
1000
0000
0100
0000
0020
0000
0001
0000
,  // measure 31
0031
0000
0000
0010
0001
0000
1000
0000
0010
0000
0000
0100
0010
0000
1000
0000
,  // measure 32
1001
0000
0000
0001
0100
0000
0001
0000
1000
0000
0000
0100
1000
0000
0010
1000
,  // measure 33
0001
0000
0000
1000
0001
0000
0100
0000
0001
0010
0100
1000
0010
0100
0001
0000
,  // measure 34
1000
0000
0000
0100
1000
0000
0001
0000
0100
0000
0010
0100
0010
0000
1000
0100
,  // measure 35
0010
0000
0100
1000
0000
0001
0100
0010
0000
1000
0000
0001
0000
0010
0000
0200
,  // measure 36
1000
0000
0000
0010
0000
0000
1300
0000
1000
0000
0001
1000
0001
0000
0010
0100
,  // measure 37
1000
0000
0000
0100
0010
0000
0001
0000
1000
0000
0010
0100
0010
0000
0100
0000
,  // measure 38
0110
0000
0000
0010
0000
1000
0002
0000
0003
0010
0000
0100
2000
0000
0000
3000
,  // measure 39
1100
0000
0000
0110
0000
0000
1100
0000
1001
0000
0000
0110
0000
0000
1001
0000
,  // measure 40
0001
0000
0000
0010
0000
0100
0000
0000
1000
0000
0000
0010
0000
1000
0000
0000
,  // measure 41
0001
0000
0000
0010
0000
0001
0000
0000
1000
0000
0000
0100
0000
0010
0000
0000
,  // measure 42
0001
0000
0000
0010
0000
0000
0001
0000
1000
0000
0000
0000
0100
0000
1000
0001
,  // measure 43
0100
0000
0000
0000
0010
0000
0000
0200
0000
0000
0000
0000
0000
0000
0000
0000
,  // measure 44
0000
0300
0000
0000
;

//---------------dance-single - ----------------
#NOTEDATA:;
#CHARTNAME:X-Scale 7;
#STEPSTYPE:dance-single;
#DESCRIPTION:;
#CHARTSTYLE:;
#DIFFICULTY:Medium;
#METER:5;
#RADARVALUES:0.327263,0.401654,0.069157,0.371722,0.272308,265.000000,257.000000,8.000000,43.000000,0.000000,0.000000,0.000000,0.000000,0.000000,0.327263,0.401654,0.069157,0.371722,0.272308,265.000000,257.000000,8.000000,43.000000,0.000000,0.000000,0.000000,0.000000,0.000000;
#CREDIT:iamthek3n;
#NOTES:
0000
0000
0000
0000
,
0000
0000
0000
0000
,
0000
0000
0000
0000
,
0000
0000
0000
0000
,
0010
0000
0000
1000
0000
0000
0010
0000
0100
0000
0000
0000
0110
0000
0000
0000
,
0001
0000
0000
1000
0000
0000
0001
0000
0010
0000
0000
0000
0011
0000
0000
0000
,
0020
1000
0100
1000
,
0031
0000
0000
0010
0000
0000
0100
0000
0000
0000
1000
0000
0000
0100
0000
0000
,
1100
0000
0000
0000
1000
0000
0100
0000
1000
0000
0000
0000
0001
0000
0100
0001
,
0100
0000
0010
0100
0010
0000
1000
0010
,
1000
0000
0000
0000
0100
0000
0010
0000
0100
0000
0000
0000
0010
0000
0001
0010
,
0001
0000
0000
0000
0100
0000
0010
0000
0100
0000
0001
0000
0000
1000
0000
0000
,
0001
0000
0010
0100
0010
0000
0001
1000
,
0001
0000
0100
0010
0100
0000
0001
0010
,
0001
0000
1001
0000
0001
0010
0200
0000
,
2300
0000
0000
3200
0000
0000
0320
0000
0000
0000
2030
0000
3000
0020
0000
0030
,
0011
0000
0000
0001
1000
0000
0010
0000
1000
0000
0000
0000
1010
0000
0000
0000
,
0010
0000
1000
0001
0100
0000
0001
0000
,
0010
0000
0000
0100
1000
0000
0001
0000
0010
0000
0000
0000
0011
0000
0000
0000
,
0001
0000
0000
1000
0010
0000
1000
0000
0100
0000
2000
0000
3000
0002
0000
0003
,
0100
0000
0000
0010
0100
0000
0001
0000
0010
0000
0000
0000
0001
0000
1000
0000
,
0001
0000
0000
0100
0010
0000
0100
0000
0001
0000
0000
0000
0010
0000
0100
0000
,
2000
0000
0100
0000
3001
0010
0200
0000
,
0302
0000
0000
0203
0000
0000
2300
0000
0000
0000
3020
0000
0030
2000
0000
0000
,
3020
0000
0000
2030
0000
0000
3002
0000
0000
0000
0010
0000
0013
0000
0100
0010
,
0002
0000
0000
2003
0000
0000
3020
0000
0000
0000
0000
0100
0130
0000
0010
0000
,
1000
0000
0000
0100
0000
0000
0020
0000
0000
0000
0001
0000
0031
0000
0010
0100
,
1000
0000
0001
0100
0000
0010
2000
0000
0000
0000
3002
0000
0003
0020
0000
0030
,
0100
0000
0000
0010
0000
0000
0002
0000
0000
0000
0100
0000
0103
0000
0100
0001
,
1000
0000
0000
0100
1000
0000
0002
0000
0010
0000
0000
0100
0103
0000
0010
0000
,
0200
0000
1000
0000
0301
0010
0200
0000
,
1300
0000
0000
0100
0010
0000
0100
0000
1000
0000
0002
0000
0103
0020
0000
0030
,
1001
0000
0000
1000
0100
0000
1000
0000
0001
0000
0010
0000
0100
0000
0010
0100
,
1000
0000
0000
0010
1000
0000
0001
0000
0100
0000
0001
0100
0001
0100
0001
0000
,
1000
0000
0000
0100
0010
0000
0100
0000
1000
0000
0000
0010
0100
0000
0001
0010
,
0100
0000
0010
0001
0000
1000
0010
0000
0100
0000
0001
1000
0001
1000
0001
0000
,
0010
0000
0000
0100
0010
0000
0001
0000
1000
0000
0000
0010
1000
0000
0001
0010
,
0100
0000
0000
0010
0001
0000
2000
0000
0010
0000
0000
0000
3001
0000
0010
0000
,
0200
0000
0000
0000
0001
0000
0000
0000
1300
0100
0000
0100
0020
0000
0000
0000
,
0031
0000
0000
0100
0000
0000
0001
0000
1000
0000
0020
0000
0030
2000
0000
3000
,
0001
0000
0000
0010
0000
0001
0000
0000
1000
0000
0000
0010
0000
1000
0000
0000
,
0001
0000
0000
0100
0000
0010
0000
0000
1000
0000
0000
0001
0000
0100
0000
0000
,
0002
0000
0000
0023
0000
0000
0230
0000
0000
0000
0000
0000
0000
0000
1300
0100
,
0020
0000
0000
0000
0032
0000
0000
2000
0000
0000
0000
0000
0000
0000
0000
0000
,
0000
3003
0000
0000
;

//---------------dance-single - ----------------
#NOTEDATA:;
#CHARTNAME:X-Scale 4;
#STEPSTYPE:dance-single;
#DESCRIPTION:;
#CHARTSTYLE:;
#DIFFICULTY:Easy;
#METER:2;
#RADARVALUES:0.187713,0.223033,0.017289,0.034579,0.000000,152.000000,150.000000,2.000000,4.000000,0.000000,0.000000,0.000000,0.000000,0.000000,0.187713,0.223033,0.017289,0.034579,0.000000,152.000000,150.000000,2.000000,4.000000,0.000000,0.000000,0.000000,0.000000,0.000000;
#CREDIT:iamthek3n;
#NOTES:
0000
0000
0000
0000
,
0000
0000
0000
0000
,
0000
0000
0000
0000
,
0000
0000
0000
0000
,
1000
0000
0100
0000
,
0010
0000
0001
0000
,
0100
0000
0010
0000
,
1000
0000
0001
0000
,
0100
0001
0000
1000
,
0010
1000
0000
0100
,
0010
0001
0000
1000
,
0010
1000
0000
0001
,
1000
0010
0000
0100
,
0001
1000
0000
0001
,
0010
0100
0000
1000
,
0100
1000
0000
0001
,
0100
0001
1000
0010
,
0100
0010
1000
0001
,
0010
0100
0010
0001
,
1000
0100
0010
0001
,
1000
0001
0100
0010
,
0100
0000
0001
0000
1000
0000
0100
0010
,
0002
0000
0100
0000
,
1003
0001
0100
0001
,
1000
0000
0100
0010
0100
0000
1000
0000
,
0001
0000
0100
0010
0100
0000
0001
0000
,
1000
0000
0100
0010
0100
0000
1000
0000
,
0001
0000
0100
0001
0100
0000
0010
0000
,
1000
0000
0100
0010
0100
0000
1000
0000
,
0001
0000
0100
0010
0100
0000
0001
0010
,
0200
1000
0010
1300
,
1100
0000
1000
0001
0200
0000
0010
0000
,
0301
0000
0010
0100
1000
0000
0010
0000
,
1000
0000
0100
0010
0001
0000
1000
0000
,
0010
0000
0100
0001
1000
0000
0001
0000
,
0100
0000
0001
0010
0100
0000
0010
0000
,
0001
0000
1000
0010
1000
0000
0100
0000
,
0010
0000
0001
0100
0001
0000
0010
0100
,
2000
0010
0001
3100
,
1000
0000
0001
0010
0100
0000
0110
0000
,
0010
0000
0001
0000
,
1000
0000
0001
0000
,
0100
0000
0010
0000
,
1000
0000
0000
0000
;

//---------------dance-single - ----------------
#NOTEDATA:;
#CHARTNAME:X-Scale 1;
#STEPSTYPE:dance-single;
#DESCRIPTION:;
#CHARTSTYLE:;
#DIFFICULTY:Beginner;
#METER:1;
#RADARVALUES:0.088917,0.092930,0.000000,0.000000,0.000000,72.000000,72.000000,0.000000,0.000000,0.000000,0.000000,0.000000,0.000000,0.000000,0.088917,0.092930,0.000000,0.000000,0.000000,72.000000,72.000000,0.000000,0.000000,0.000000,0.000000,0.000000,0.000000,0.000000;
#CREDIT:iamthek3n;
#NOTES:
0000
0000
0000
0000
,
0000
0000
0000
0000
,
0000
0000
0000
0000
,
0000
0000
0000
0000
,
1000
0000
0000
0000
,
0001
0000
0000
0000
,
1000
0000
0000
0000
,
0001
0000
0000
0000
,
0010
0000
0100
0000
,
0010
0000
0100
0000
,
1000
0000
0010
0000
,
1000
0000
0010
0000
,
0100
0000
0001
0000
,
0100
0000
0001
0000
,
1000
0000
0001
0000
,
1000
0000
0010
0000
,
0100
0000
0010
0000
,
0100
0000
0001
0000
,
0010
0000
0001
0000
,
0010
0000
0100
0000
,
1000
0000
0100
0000
,
1000
0000
0010
0000
,
1000
0000
0001
0000
,
1000
0000
0010
0000
,
1000
0000
0001
0000
,
0010
0000
0001
0000
,
1000
0000
0100
0000
,
0010
0000
0001
0000
,
1000
0000
0010
0000
,
1000
0000
0001
0000
,
1000
0000
0010
0000
,
1000
0000
0001
0000
,
0010
0000
0100
0000
,
1000
0000
0010
0000
,
1000
0000
0100
0000
,
0010
0000
0001
0000
,
1000
0000
0010
0000
,
1000
0000
0001
0000
,
0010
0000
0001
0000
,
1000
0000
0100
0000
,
1000
0000
0000
0000
,
0001
0000
0000
0000
,
1000
0000
0000
0000
,
0001
0000
0000
0000
;
