#VERSION:0.83;
#TITLE:SUGAR;
#SUBTITLE:;
#ARTIST:BROCKHAMPTON;
#TITLETRANSLIT:;
#SUBTITLETRANSLIT:;
#ARTISTTRANSLIT:;
#GENRE:Alternative R&B;
#ORIGIN:;
#CREDIT:;
#BANNER:SUGAR-bn.png;
#BACKGROUND:SUGAR-bg.png;
#PREVIEWVID:;
#JACKET:SUGAR-jacket.png;
#CDIMAGE:;
#DISCIMAGE:;
#LYRICSPATH:;
#CDTITLE:cdtitle.png;
#MUSIC:SUGAR.ogg;
#OFFSET:-0.246000;
#SAMPLESTART:47.563000;
#SAMPLELENGTH:15.610000;
#SELECTABLE:YES;
#BPMS:0.000=123.000;
#STOPS:;
#DELAYS:;
#WARPS:;
#TIMESIGNATURES:0.000=4=4;
#TICKCOUNTS:0.000=4;
#COMBOS:0.000=1;
#SPEEDS:0.000=1.000=0.000=0;
#SCROLLS:0.000=1.000;
#FAKES:;
#LABELS:0.000=Song Start;
#BGCHANGES:-0.446=SUGAR.avi=1.000=1=0=1===CrossFade==,
99999=-nosongbg-=1.000=0=0=0 // don't automatically add -songbackground-
;
#KEYSOUNDS:;
#ATTACKS:
;

//---------------dance-single - ----------------
#NOTEDATA:;
#CHARTNAME:X-Scale 13;
#STEPSTYPE:dance-single;
#DESCRIPTION:;
#CHARTSTYLE:;
#DIFFICULTY:Hard;
#METER:9;
#RADARVALUES:0.512065,0.584403,0.136119,0.308536,0.294924,395.000000,380.000000,15.000000,34.000000,0.000000,0.000000,0.000000,0.000000,0.000000,0.512065,0.584403,0.136119,0.308536,0.294924,395.000000,380.000000,15.000000,34.000000,0.000000,0.000000,0.000000,0.000000,0.000000;
#CREDIT:iamthek3n;
#NOTES:
0000
0000
0000
0000
,
0000
0000
0000
0000
,
0000
0000
0000
0000
,
0000
0000
0000
0000
,
0000
0000
1000
0100
0001
0100
1000
0000
,
0000
0000
0001
0100
0010
0100
0001
0000
,
1000
0000
0010
1000
0001
0100
0020
0000
,
2030
0000
3100
0010
0001
1000
0002
0000
,
0000
0003
0101
0100
0010
0100
0001
1000
,
0100
0000
0001
0000
0100
0000
0000
1000
0100
0000
1000
0000
0001
0000
0000
0000
,
0010
0000
0100
0000
0010
0000
0001
0010
0100
0000
0010
0000
0001
0000
1000
0001
,
0100
0000
0010
0000
1000
0000
0000
0100
1000
0000
0001
0000
0100
0000
0010
0100
,
0010
0000
1000
0000
0001
0100
0001
0000
0001
0100
0001
0000
1000
0000
0010
0100
,
0010
0000
1000
0000
0001
0000
0000
0010
0001
0000
1000
0000
0001
0000
0010
0100
,
1000
0000
0001
1000
0010
0000
1000
0000
0001
0000
1000
0000
1100
0000
0000
1000
,
0001
0000
0010
0000
0100
0000
0010
0100
1000
0000
0001
0000
1001
0000
0000
0000
,
0100
0000
0000
0001
0000
0000
1000
0000
0000
0010
1000
0000
0001
0000
1000
0000
0100
0000
0020
0000
0000
0000
0000
0000
,
0230
0000
0000
0300
0000
0000
0110
0000
0000
0100
1000
0000
0001
0000
0100
0000
0010
0000
2000
0000
0000
0000
0000
0000
,
3002
0000
0003
0000
0101
0000
0010
0100
0000
0000
0001
0100
0002
0000
0000
0000
,
2003
0000
0000
0000
0000
0000
3010
0000
1000
0000
0001
0100
0001
0000
0010
0000
0100
0000
2000
0000
0000
0000
0000
0000
,
3001
0000
0000
1000
0000
0000
0001
0000
0000
0000
0000
0000
1001
0000
0000
0000
0000
0000
0000
0000
1000
0000
0000
0000
0100
0000
0000
0000
1000
0000
0000
0000
0001
0000
0000
0000
0200
0000
0000
0000
0000
0000
0000
0000
0000
0000
0000
0000
,
0302
0000
0000
0003
0000
0000
1000
0000
0001
0000
0100
0000
0010
0000
1000
0000
0100
0000
0010
0000
0001
0000
1000
0000
,
0001
0010
0100
1000
0001
0100
0001
1000
0100
1000
0001
0100
,
0001
0000
0000
0010
0001
1000
0010
0001
0010
1000
0001
0100
,
0001
0000
0101
0100
0010
0100
0001
0000
,
0010
0010
0100
0010
0001
1000
0010
0000
,
0100
0100
0001
1000
0010
0100
0001
0000
,
0010
0000
0010
0000
0001
0000
1000
0000
0001
0000
0010
0000
0100
0010
0001
0000
,
1000
0000
0001
0000
0020
0000
0100
0000
0100
0000
0130
1000
0200
0000
0000
0000
,
0010
0000
1300
0100
1000
0001
0100
0001
,
0010
0000
0100
0000
1000
0000
0010
1000
0010
0000
0100
0000
0101
0000
0001
0000
,
1000
0000
0000
0100
0010
0000
0100
1000
0100
0000
1000
0000
1001
0000
0001
0000
,
0000
0000
0201
0000
0000
0320
2030
0000
,
0100
0000
3001
0010
1000
0001
0100
1000
,
0001
0100
0020
0000
0000
2030
3200
0000
,
0010
0000
0000
0000
1300
0100
1000
0000
0001
0000
0100
0000
0010
0000
0001
0000
,
0010
1000
0200
0000
0000
0010
0320
0000
,
1000
0000
0000
0000
0031
0000
0010
0100
1000
0000
0001
1000
0100
0000
1000
0000
,
0001
0100
0020
0000
0000
1000
2030
0000
,
3020
0030
0020
0000
1000
0000
2030
0000
,
3100
0010
0001
0000
1000
0010
1010
0000
,
1000
0000
0001
0010
1000
0010
0001
1000
,
0010
0100
0001
0000
0010
0100
1100
0000
,
1000
0000
0000
0000
0001
0000
0100
0000
0010
0000
0100
0000
0001
0100
0001
0000
,
0100
0000
0010
0000
1000
0010
1000
0000
0001
0000
0010
0000
0101
0000
0001
0000
,
1000
0000
0001
0000
0100
0000
0001
0010
0001
0000
0100
0010
0100
0000
0001
0000
,
1000
0100
0001
0100
0010
0001
1000
0000
,
0020
0030
0010
0100
0001
1000
0002
0000
,
1003
0001
1000
0100
0001
0100
0020
0000
,
0032
0000
0000
0000
1003
0000
0001
0000
0100
0000
0010
0000
1000
0010
1000
0000
,
0001
0000
0100
0000
1000
0000
0100
0000
0001
0000
1000
0001
2000
0000
3000
0000
,
1100
0000
0000
0000
0100
0000
0010
0000
0001
0000
1000
0000
0010
2000
0000
0000
,
0000
3000
1001
0001
1000
0100
0010
0000
,
0001
0000
0100
0001
0010
0100
1000
0000
,
0010
0000
1000
0001
0100
0010
1000
0000
,
0000
0002
0000
0000
0000
0000
0000
0000
,
0003
0000
0000
0000
;

//---------------dance-single - ----------------
#NOTEDATA:;
#CHARTNAME:X-Scale 8;
#STEPSTYPE:dance-single;
#DESCRIPTION:;
#CHARTSTYLE:;
#DIFFICULTY:Medium;
#METER:6;
#RADARVALUES:0.383725,0.457359,0.154268,0.390207,0.018149,296.000000,279.000000,17.000000,43.000000,0.000000,0.000000,0.000000,0.000000,0.000000,0.383725,0.457359,0.154268,0.390207,0.018149,296.000000,279.000000,17.000000,43.000000,0.000000,0.000000,0.000000,0.000000,0.000000;
#CREDIT:iamthek3n;
#NOTES:
// measure 0
0000
0000
0000
0000
,  // measure 1
0000
0000
0000
0000
,  // measure 2
0000
0000
0000
0000
,  // measure 3
0000
0000
0000
0000
,  // measure 4
0000
0000
0100
0000
1000
0100
1000
0000
,  // measure 5
0000
0000
0001
0000
0100
0001
0100
0000
,  // measure 6
0010
0000
1000
0000
0100
1000
0100
0000
,  // measure 7
0010
0000
0001
0000
1000
0001
2000
0000
,  // measure 8
0000
3000
1001
0000
1000
0010
1000
0000
,  // measure 9
0001
0000
0010
0000
0100
0010
0001
0000
,  // measure 10
1000
0000
1010
0000
0010
0100
0001
0000
,  // measure 11
0010
0000
0001
0000
1000
0100
0010
0000
,  // measure 12
0011
0000
1010
1000
0001
1000
0010
0000
,  // measure 13
0100
0000
0001
0000
0010
0100
1000
0000
,  // measure 14
0010
0000
0001
0010
1000
0001
0101
0000
,  // measure 15
0001
0010
0100
0001
0100
1000
1100
0000
,  // measure 16
1000
0000
0001
0100
0010
0100
0002
0000
,  // measure 17
2003
0000
3010
1000
0001
0010
0200
0000
,  // measure 18
0302
0000
0103
1000
0001
0100
0020
0000
,  // measure 19
2030
0000
3100
1000
0001
0010
0200
0000
,  // measure 20
0310
0001
0010
0000
0100
0000
1000
0000
0001
0000
0100
0000
0102
0000
0000
0000
,  // measure 21
0023
0000
0130
0010
0001
1000
1010
0000
,  // measure 22
1000
1000
1001
0001
0010
0001
0200
0000
,  // measure 23
0310
0100
0001
0010
0100
1000
1001
0000
,  // measure 24
0001
0000
0011
0001
2000
0000
3010
1000
,  // measure 25
0002
0000
0013
0100
2000
0000
3020
0000
,  // measure 26
0031
0010
1000
0100
0020
0000
1030
0010
,  // measure 27
0002
0000
0000
0000
0103
0000
0001
0000
1000
0000
0000
0010
2000
0000
0000
0000
,  // measure 28
3100
0010
0001
1000
0020
0000
0130
0000
,  // measure 29
0011
0000
0010
0100
2000
0000
3001
0000
,  // measure 30
0100
0000
0101
0001
0100
0001
1000
0000
,  // measure 31
1100
0000
0000
0000
0100
0000
0010
0000
0001
0000
1000
0000
0010
1000
0010
0000
,  // measure 32
0100
0000
1002
0000
0000
0013
0200
0000
,  // measure 33
0001
0000
1300
0100
0001
0100
0010
0001
,  // measure 34
1000
0010
0200
0000
0000
0301
0020
0000
,  // measure 35
1000
0000
0031
0000
0010
0100
1000
0001
,  // measure 36
0100
0010
2000
0000
0000
3100
0020
0000
,  // measure 37
1000
0000
0031
0010
0100
0010
0001
1000
,  // measure 38
0010
0100
0002
0000
0000
1000
2003
0000
,  // measure 39
3002
0003
0002
0000
0010
0000
2003
0000
,  // measure 40
3100
0000
1002
0000
0000
0013
0200
0000
,  // measure 41
0001
0000
1300
0100
0001
0100
1000
0010
,  // measure 42
0001
0010
2000
0000
0000
3001
0020
0000
,  // measure 43
0100
0000
0031
0000
0010
0100
1000
0001
,  // measure 44
0100
0000
0010
0000
2000
0000
0000
0000
0000
0000
3010
1000
0002
0000
0000
0000
,  // measure 45
0010
0000
0103
0001
1000
0100
1000
0001
,  // measure 46
0010
0100
2000
0000
0000
0000
3002
0000
,  // measure 47
2003
3000
2000
0000
0000
0000
3002
0000
,  // measure 48
0003
0011
0010
0001
,  // measure 49
0010
0001
0010
0100
,  // measure 50
1000
0001
0100
0000
0010
0000
0100
0000
,  // measure 51
0010
0100
0010
1000
,  // measure 52
0001
0010
0100
0000
1000
0000
0100
0000
,  // measure 53
1000
0100
1000
0001
,  // measure 54
0100
0001
1000
0000
0100
0000
1000
0000
,  // measure 55
0100
0020
0000
0000
0000
0000
0000
0000
,  // measure 56
0030
0000
0000
0000
;

//---------------dance-single - ----------------
#NOTEDATA:;
#CHARTNAME:X-Scale 3;
#STEPSTYPE:dance-single;
#DESCRIPTION:;
#CHARTSTYLE:;
#DIFFICULTY:Easy;
#METER:2;
#RADARVALUES:0.168528,0.203270,0.063522,0.190566,0.000000,130.000000,123.000000,7.000000,21.000000,0.000000,0.000000,0.000000,0.000000,0.000000,0.168528,0.203270,0.063522,0.190566,0.000000,130.000000,123.000000,7.000000,21.000000,0.000000,0.000000,0.000000,0.000000,0.000000;
#CREDIT:iamthek3n;
#NOTES:
// measure 0
0000
0000
0000
0000
,  // measure 1
0000
0000
0000
0000
,  // measure 2
0000
0000
0000
0000
,  // measure 3
0000
0000
0000
0000
,  // measure 4
0000
1000
0000
0001
,  // measure 5
0000
0100
0000
0001
,  // measure 6
0000
1000
0000
0100
,  // measure 7
0000
0010
0000
0001
,  // measure 8
0000
1001
0000
1000
,  // measure 9
0000
0001
0100
0001
,  // measure 10
0000
0010
0000
0100
,  // measure 11
0000
1000
0010
1000
,  // measure 12
0000
0001
0000
0100
,  // measure 13
0000
0001
0010
0001
,  // measure 14
0000
1000
0000
0010
,  // measure 15
0000
1000
0000
0100
,  // measure 16
0000
0010
0000
0002
,  // measure 17
2000
3003
0000
0200
,  // measure 18
0020
0330
0000
0002
,  // measure 19
0020
0033
0000
0200
,  // measure 20
2000
3300
0000
0100
,  // measure 21
1000
0001
0000
0100
,  // measure 22
0000
0001
0000
1000
,  // measure 23
0100
1000
0000
0001
,  // measure 24
0000
1001
0000
1000
,  // measure 25
0010
1000
0000
0100
,  // measure 26
0010
0001
0000
1000
,  // measure 27
0001
0100
0000
0010
,  // measure 28
0100
0002
0000
2003
,  // measure 29
0000
3010
0000
1000
,  // measure 30
0100
0010
0000
0001
,  // measure 31
1000
0001
0000
0100
,  // measure 32
0000
1001
0000
1000
,  // measure 33
0010
1000
0000
0001
,  // measure 34
0000
0100
0000
0010
,  // measure 35
1000
0010
0000
1000
,  // measure 36
0000
0100
0000
0010
,  // measure 37
0001
0010
0000
0100
,  // measure 38
0000
2000
0000
3002
,  // measure 39
0203
0302
0000
2003
,  // measure 40
3100
1000
0000
0001
,  // measure 41
0010
0001
0000
1000
,  // measure 42
0000
0100
0000
0010
,  // measure 43
0100
1000
0000
0001
,  // measure 44
0000
0100
0000
0001
,  // measure 45
1000
0001
0000
0100
,  // measure 46
0000
0002
0000
2003
,  // measure 47
3020
2030
0000
3200
,  // measure 48
0300
1100
0000
1000
,  // measure 49
0000
0001
0000
0100
,  // measure 50
0000
0101
0000
0001
,  // measure 51
0000
0010
0000
0100
,  // measure 52
0000
1010
0000
1000
,  // measure 53
0000
0010
0000
0100
,  // measure 54
0000
1001
0000
0001
,  // measure 55
0000
0002
0000
0000
0000
0000
0000
0000
,  // measure 56
0003
0000
0000
0000
;

//---------------dance-single - ----------------
#NOTEDATA:;
#CHARTNAME:X-Scale 2;
#STEPSTYPE:dance-single;
#DESCRIPTION:;
#CHARTSTYLE:;
#DIFFICULTY:Beginner;
#METER:1;
#RADARVALUES:0.111488,0.147689,0.018149,0.000000,0.000000,86.000000,84.000000,2.000000,0.000000,0.000000,0.000000,0.000000,0.000000,0.000000,0.111488,0.147689,0.018149,0.000000,0.000000,86.000000,84.000000,2.000000,0.000000,0.000000,0.000000,0.000000,0.000000,0.000000;
#CREDIT:iamthek3n;
#NOTES:
// measure 0
0000
0000
0000
0000
,  // measure 1
0000
0000
0000
0000
,  // measure 2
0000
0000
0000
0000
,  // measure 3
0000
0000
0000
0000
,  // measure 4
0000
0001
0000
0000
,  // measure 5
0000
1000
0000
0000
,  // measure 6
0000
0001
0000
0000
,  // measure 7
0000
1000
0000
0000
,  // measure 8
0000
1001
0000
1000
,  // measure 9
0000
0100
0000
1000
,  // measure 10
0000
0001
0000
0100
,  // measure 11
0000
0001
0000
0010
,  // measure 12
0000
0100
0000
0010
,  // measure 13
0000
0001
0000
1000
,  // measure 14
0000
0010
0000
1000
,  // measure 15
0000
0001
0000
0010
,  // measure 16
0000
0001
0000
0000
,  // measure 17
0000
1000
0000
0000
,  // measure 18
0000
0100
0000
0000
,  // measure 19
0000
0010
0000
0000
,  // measure 20
0000
0001
0000
0100
,  // measure 21
0000
0001
0000
1000
,  // measure 22
0000
0001
0000
0100
,  // measure 23
0000
0001
0000
0000
,  // measure 24
0000
1001
0000
1000
,  // measure 25
0000
0100
0000
1000
,  // measure 26
0000
0001
0000
0010
,  // measure 27
0000
0001
0000
0100
,  // measure 28
0000
0010
0000
0100
,  // measure 29
0000
0001
0000
0010
,  // measure 30
0000
0100
0000
1000
,  // measure 31
0000
0010
0000
1000
,  // measure 32
0000
0001
0000
1000
,  // measure 33
0000
0010
0000
1000
,  // measure 34
0000
0001
0000
0010
,  // measure 35
0000
0001
0000
0100
,  // measure 36
0000
0010
0000
0100
,  // measure 37
0000
0001
0000
1000
,  // measure 38
0000
0100
0000
0010
,  // measure 39
0000
0100
0000
0010
,  // measure 40
0000
0001
0000
1000
,  // measure 41
0000
0001
0000
0100
,  // measure 42
0000
0010
0000
0100
,  // measure 43
0000
0001
0000
0010
,  // measure 44
0000
0100
0000
1000
,  // measure 45
0000
0001
0000
1000
,  // measure 46
0000
0010
0000
0000
,  // measure 47
0000
0010
0000
0000
,  // measure 48
0000
1000
0000
0000
,  // measure 49
0000
0010
0000
0000
,  // measure 50
0000
0100
0000
0000
,  // measure 51
0000
0001
0000
0000
,  // measure 52
0000
0010
0000
0000
,  // measure 53
0000
0100
0000
0000
,  // measure 54
0000
1000
0000
0000
;
