#TITLE:Running Back;
#SUBTITLE:;
#ARTIST:Jessica Mauboy;
#TITLETRANSLIT:;
#SUBTITLETRANSLIT:;
#ARTISTTRANSLIT:;
#GENRE:Pop-R&B;
#CREDIT:;
#BANNER:Running Back-bn.png;
#BACKGROUND:Running Back-bg.png;
#LYRICSPATH:;
#CDTITLE:cdtitle.png;
#MUSIC:Running Back.ogg;
#OFFSET:-0.007000;
#SAMPLESTART:43.088001;
#SAMPLELENGTH:22.500000;
#SELECTABLE:YES;
#BPMS:0.000000=86.000000
;
#STOPS:
;
#BGCHANGES:0.000=Running Back.avi=1.000=1=0=0=StretchNoLoop==CrossFade==,
99999=-nosongbg-=1.000=0=0=0 // don't automatically add -songbackground-
;
#KEYSOUNDS:;
#ATTACKS:;

//---------------dance-single - ----------------
#NOTES:
     dance-single:
     X-Scale 10:
     Hard:
     7:
     0.412308,0.429873,0.155728,0.145346,0.275119,278.000000,263.000000,15.000000,14.000000,0.000000,0.000000,0.412308,0.429873,0.155728,0.145346,0.275119,278.000000,263.000000,15.000000,14.000000,0.000000,0.000000:
// measure 0
0000
0000
0000
0000
,  // measure 1
0000
0000
0000
0000
,  // measure 2
0000
0000
0000
0000
,  // measure 3
0000
0000
0000
0000
,  // measure 4
1100
0000
1000
0000
0100
0000
1000
0000
0001
0100
0010
0100
0001
0000
0010
0000
,  // measure 5
0100
0000
0000
1000
0100
0000
1000
0000
0001
0010
1000
0010
0001
0000
1000
0100
,  // measure 6
0010
0000
0001
0000
1000
0000
0010
0000
0100
0001
1000
0001
0010
0000
0100
0000
,  // measure 7
1000
0000
0010
1000
0010
0000
0100
0000
0001
1000
1000
0000
1010
0000
0100
0000
,  // measure 8
1001
0000
0010
0000
1000
0000
0001
0000
0100
0000
0010
0100
0001
0010
0100
0000
,  // measure 9
1100
0000
1000
0100
1000
0000
0001
0000
0010
0001
0001
0000
0011
0000
0010
0100
,  // measure 10
1000
0000
0001
0000
0100
0000
0010
0100
1000
0000
0100
0000
0001
0000
1000
0000
,  // measure 11
1001
0000
0001
0001
0100
0000
0010
0000
1000
0000
0100
1000
0001
0000
0100
0000
,  // measure 12
0101
0000
0001
0100
0001
0000
0010
0000
0100
0000
1000
0010
0100
0001
0010
0100
,  // measure 13
1000
0000
0010
0000
1000
0000
0100
0000
0010
0001
0010
0000
0100
0000
1000
0100
,  // measure 14
1000
0000
0001
0000
0100
0000
0010
0000
0100
0001
0001
0000
0010
0000
0100
0000
,  // measure 15
1100
0000
0000
1001
0000
0000
0101
0000
0100
0000
0010
0000
0100
0000
0000
0000
,  // measure 16
0110
0000
0000
0100
0010
0100
0001
0000
1000
0000
0100
0000
0020
0000
0000
0000
,  // measure 17
0031
0010
0200
0000
1300
0100
0001
0010
,  // measure 18
1000
0000
0001
0000
0100
0001
1000
0000
0010
0000
1000
0000
0002
0000
0000
0013
,  // measure 19
0100
0000
1000
0000
0020
0000
0000
0130
0001
0000
0100
0000
1000
0000
0100
0000
,  // measure 20
0001
0000
0000
0010
0100
0010
0001
0000
1000
0000
0010
0000
0200
0000
0000
0000
,  // measure 21
0301
0000
1000
0000
0200
0000
0000
0000
0301
0000
0100
0000
1000
0000
0001
0100
,  // measure 22
0001
0000
1000
0000
0010
1000
0001
0000
0010
0000
0100
0000
2000
0000
0000
3100
,  // measure 23
0010
0000
0001
0000
0200
0000
0000
0310
0100
0000
0001
0000
0010
0000
0100
0000
,  // measure 24
1100
0000
1000
0100
1000
0000
0001
0000
0100
0010
0010
0000
0100
0000
0001
0000
,  // measure 25
1000
0000
0100
0010
0001
0000
1000
0000
0010
1000
1000
0000
0001
0000
0100
0000
,  // measure 26
0001
0000
1000
0100
0010
0000
0100
0000
1000
0001
0001
0000
0100
0000
0001
0000
,  // measure 27
0010
0000
0100
0000
2000
0000
0000
3100
0010
0000
0001
0000
0200
0000
0000
0310
,  // measure 28
0100
0000
0001
0100
0001
0000
1000
0000
0010
0000
1000
0000
0001
0000
0010
0000
,  // measure 29
0100
0000
1000
0100
1000
0000
0001
0000
0100
0000
0010
0000
0100
0000
0001
0010
,  // measure 30
0100
1000
0100
0001
0100
1000
0001
0100
,  // measure 31
0001
0000
0010
0000
0200
0000
0000
1300
0001
0000
0100
0000
0020
0000
0000
0130
,  // measure 32
0110
0000
0000
1001
0000
0000
1010
0000
0000
1000
1000
0020
0200
0000
0000
0000
,  // measure 33
0000
0330
0000
0000
0000
0000
0000
0000
;

//---------------dance-single - ----------------
#NOTES:
     dance-single:
     X-Scale 9:
     Medium:
     6:
     0.361881,0.376861,0.072673,0.218019,0.212828,244.000000,237.000000,7.000000,21.000000,0.000000,0.000000,0.361881,0.376861,0.072673,0.218019,0.212828,244.000000,237.000000,7.000000,21.000000,0.000000,0.000000:
// measure 0
0000
0000
0000
0000
,  // measure 1
0000
0000
0000
0000
,  // measure 2
0000
0000
0000
0000
,  // measure 3
0000
0000
0000
0000
0000
0000
0000
0002
,  // measure 4
0000
0000
2003
0000
0000
0000
3000
0010
1000
0001
1000
0010
1000
0000
0100
0000
,  // measure 5
0020
0000
0000
0000
0031
0000
0000
0010
0100
0010
0001
1000
0010
0000
1000
0000
,  // measure 6
0002
0000
0000
0000
0013
0000
0000
0100
0010
0001
1000
0000
0010
0000
0100
0000
,  // measure 7
0002
0000
0000
0000
1000
0000
0000
0000
1003
0000
0000
1000
0000
0000
1000
0000
0000
0000
0100
0000
0100
0000
0000
0000
0010
0000
0000
0000
0002
0000
0000
0000
,  // measure 8
0000
0000
2003
0000
0000
3100
1000
0001
0100
0000
0010
0000
0001
0010
0100
0000
,  // measure 9
0020
0000
0000
0000
1030
0000
0010
0000
0100
0000
0001
0000
0010
0100
0010
0000
,  // measure 10
0002
0000
0000
0000
1003
0000
0001
0100
0010
0000
0100
0000
0001
0000
1000
0000
,  // measure 11
0100
0000
0000
0000
2000
0000
0000
0000
0001
0000
0000
0001
0000
0000
0001
0000
3000
0000
0000
0000
1000
0000
0100
0000
1000
0000
0000
0000
0001
0000
0000
0000
,  // measure 12
0010
0000
1000
0000
0010
0000
0100
0000
2000
0000
0000
0000
3100
0010
0100
0000
,  // measure 13
0010
0000
0001
0000
1000
0000
0010
0000
0200
0000
0000
0000
0301
0000
0100
0010
,  // measure 14
0100
0000
0001
0000
1000
0000
0010
0000
0200
0010
0010
0000
0001
0000
1000
0000
,  // measure 15
0301
0000
0000
0000
0000
0000
0100
0000
0001
0000
0000
1000
0000
0000
1000
0000
0010
0000
0000
0000
1000
0000
0000
0000
0001
0000
0000
0000
0000
0000
0000
0000
,  // measure 16
0101
0100
0010
1000
0001
0100
0010
1000
,  // measure 17
0100
0000
0010
0000
0002
0000
0000
0000
0103
0000
0010
0000
1000
0000
0001
0010
,  // measure 18
0001
0000
0010
0000
1000
0000
0010
0000
0100
0000
1000
0000
0002
0000
0000
0103
,  // measure 19
0000
0000
0001
0000
2000
0000
0000
3010
1000
0000
0001
0000
0010
0000
0100
0000
,  // measure 20
1000
0010
0100
0010
0001
0010
1000
0100
,  // measure 21
0010
0000
0100
0000
2000
0000
0000
0000
3001
0000
1000
0000
0010
0000
0100
0010
,  // measure 22
0100
0000
0001
0000
0010
0000
1000
0000
0010
0000
0001
0000
0200
0000
0000
0310
,  // measure 23
0000
0000
1000
0000
0200
0000
0000
0310
0100
0000
1000
0000
0001
0000
0100
0000
,  // measure 24
0101
0001
0010
1000
0010
0100
1000
0001
,  // measure 25
0100
0000
0010
0000
1000
0000
0100
0000
0001
0000
0100
0000
1000
0000
0001
1000
,  // measure 26
0001
0100
0010
0100
0001
1000
0010
0100
,  // measure 27
0010
0000
1000
0010
0000
0000
1000
0000
0001
0010
0001
0000
1000
0000
0000
0000
,  // measure 28
1010
0000
1000
0010
1000
0001
0010
0001
,  // measure 29
1000
0000
0100
0000
0001
0000
0100
0000
1000
0000
0100
0000
0010
0000
0001
0010
,  // measure 30
0001
0100
0010
1000
0001
0010
1000
0010
,  // measure 31
0001
0000
0100
0010
0000
0000
0100
0000
0001
0010
0010
0000
0102
0000
0000
1003
,  // measure 32
1001
0000
0000
0110
0000
0000
1001
0000
0000
1000
1000
0100
0020
0000
0000
0000
,  // measure 33
0030
0000
0000
0000
;

//---------------dance-single - ----------------
#NOTES:
     dance-single:
     X-Scale 5:
     Easy:
     3:
     0.261029,0.308341,0.020764,0.186873,0.000000,176.000000,174.000000,2.000000,18.000000,0.000000,0.000000,0.261029,0.308341,0.020764,0.186873,0.000000,176.000000,174.000000,2.000000,18.000000,0.000000,0.000000:
// measure 0
0000
0000
0000
0000
,  // measure 1
0000
0000
0000
0000
,  // measure 2
0000
0000
0000
0000
,  // measure 3
0000
0000
0000
0000
,  // measure 4
1000
0000
0010
1000
0000
1000
0100
0010
,  // measure 5
0001
0000
0100
0001
0000
0001
1000
0010
,  // measure 6
1000
0000
0100
0010
0000
0010
0001
1000
,  // measure 7
0010
0000
1000
0001
0000
0001
0010
0100
,  // measure 8
1000
0000
0010
1000
0000
1000
0001
0100
,  // measure 9
0010
0000
0100
0001
0000
0001
1000
0100
,  // measure 10
1000
0000
0100
0010
0000
0010
0001
0100
,  // measure 11
0010
0000
1000
0001
0000
0001
0100
0010
,  // measure 12
0100
0000
0001
0010
0100
0000
1000
0000
,  // measure 13
0001
0000
1000
0100
0010
0000
0001
0000
,  // measure 14
0100
0000
0010
0100
0002
0000
0100
0000
,  // measure 15
1003
0000
0100
0000
1000
0001
0100
0000
,  // measure 16
0102
0000
1003
0100
0000
0100
0020
0000
,  // measure 17
0031
0100
0020
0000
1030
0000
0010
1000
,  // measure 18
0002
0000
0013
0100
0000
0100
2000
0000
,  // measure 19
3100
0100
2000
0000
3001
0000
1000
0100
,  // measure 20
0020
0000
0031
0100
0000
0100
0020
0000
,  // measure 21
1030
0100
0020
0000
0031
0000
0010
0100
,  // measure 22
2000
0000
3010
0000
1000
0001
0200
0000
,  // measure 23
0301
0001
0200
0000
0301
0000
1000
0000
,  // measure 24
1001
1000
0100
0010
0001
1000
0100
0010
,  // measure 25
0001
1000
0100
0010
0001
0010
0100
1000
,  // measure 26
0001
0010
0100
1000
0001
0010
0100
1000
,  // measure 27
0001
1000
0020
0000
0130
0001
0020
0000
,  // measure 28
0130
0010
0001
1000
0100
0010
0001
1000
,  // measure 29
0010
0100
0001
1000
0010
0100
0001
1000
,  // measure 30
0010
1000
0100
1000
0010
1000
0100
0010
,  // measure 31
0001
1000
0020
0000
0130
0010
2000
0000
,  // measure 32
3100
0000
0000
0100
0000
0000
0200
0000
,  // measure 33
0300
0000
0000
0000
;

//---------------dance-single - ----------------
#NOTES:
     dance-single:
     X-Scale 1:
     Beginner:
     1:
     0.072673,0.099666,0.010382,0.000000,0.000000,49.000000,48.000000,1.000000,0.000000,0.000000,0.000000,0.072673,0.099666,0.010382,0.000000,0.000000,49.000000,48.000000,1.000000,0.000000,0.000000,0.000000:
// measure 0
0000
0000
0000
0000
,  // measure 1
0000
0000
0000
0000
,  // measure 2
0000
0000
0000
0000
,  // measure 3
0000
0000
0000
0000
,  // measure 4
0001
0000
0000
0000
,  // measure 5
1000
0000
0000
0000
,  // measure 6
0001
0000
0000
0000
,  // measure 7
1000
0000
0000
0000
,  // measure 8
0100
0000
0000
0000
,  // measure 9
0010
0000
0000
0000
,  // measure 10
0100
0000
0000
0000
,  // measure 11
0010
0000
0000
0000
,  // measure 12
0000
0001
0000
1000
,  // measure 13
0000
0010
0000
1000
,  // measure 14
0000
0001
0000
0010
,  // measure 15
0000
0100
0000
1000
,  // measure 16
0000
0001
0000
0100
,  // measure 17
0000
0001
0000
1000
,  // measure 18
0000
0100
0000
1000
,  // measure 19
0000
0001
0000
0100
,  // measure 20
0000
0010
0000
0100
,  // measure 21
0000
0001
0000
0010
,  // measure 22
0000
0100
0000
0010
,  // measure 23
0000
0001
0000
0000
,  // measure 24
1001
0000
1000
0000
,  // measure 25
0010
0000
1000
0000
,  // measure 26
0001
0000
0010
0000
,  // measure 27
0100
0000
1000
0000
,  // measure 28
0010
0000
1000
0000
,  // measure 29
0001
0000
0100
0000
,  // measure 30
0001
0000
1000
0000
,  // measure 31
0100
0000
0010
0000
,  // measure 32
0001
0000
0000
0000
;
