#VERSION:0.83;
#TITLE:Ringo Love;
#SUBTITLE:;
#ARTIST:Golin;
#TITLETRANSLIT:;
#SUBTITLETRANSLIT:;
#ARTISTTRANSLIT:;
#GENRE:Electropop;
#ORIGIN:;
#CREDIT:;
#BANNER:Ringo Love-bn.png;
#BACKGROUND:Ringo Love-bg.png;
#PREVIEWVID:;
#JACKET:Ringo Love-jacket.png;
#CDIMAGE:;
#DISCIMAGE:;
#LYRICSPATH:;
#CDTITLE:cdtitle.png;
#MUSIC:Ringo Love.ogg;
#OFFSET:-0.005000;
#SAMPLESTART:59.453999;
#SAMPLELENGTH:16.990999;
#SELECTABLE:YES;
#BPMS:0.000=113.000;
#STOPS:4.000=2.124,
138.000=4.447;
#DELAYS:;
#WARPS:;
#TIMESIGNATURES:0.000=4=4;
#TICKCOUNTS:0.000=4;
#COMBOS:0.000=1;
#SPEEDS:0.000=1.000=0.000=0;
#SCROLLS:0.000=1.000;
#FAKES:;
#LABELS:0.000=Song Start;
#BGCHANGES:;
#KEYSOUNDS:;
#ATTACKS:
;

//---------------dance-single - ----------------
#NOTEDATA:;
#CHARTNAME:X-Scale 14;
#STEPSTYPE:dance-single;
#DESCRIPTION:;
#CHARTSTYLE:;
#DIFFICULTY:Hard;
#METER:9;
#RADARVALUES:0.548075,0.685425,0.387691,0.105000,0.432114,475.000000,427.000000,48.000000,13.000000,0.000000,0.000000,5.000000,0.000000,0.000000,0.548075,0.685425,0.387691,0.105000,0.432114,475.000000,427.000000,48.000000,13.000000,0.000000,0.000000,5.000000,0.000000,0.000000;
#CREDIT:iamthek3n;
#NOTES:
// measure 0
0000
0000
0000
0000
,  // measure 1
0000
0000
0000
0000
,  // measure 2
0000
0000
0000
0000
,  // measure 3
1000
0000
0000
0000
1001
0000
0001
0000
0000
0000
0010
0000
0100
0010
0000
0000
,  // measure 4
0001
0000
0000
0000
0011
0000
0010
0000
0000
0000
0100
0000
1000
0100
0000
0000
,  // measure 5
1000
0000
0000
0000
1001
0000
0001
0000
0000
0000
0100
0000
0010
0100
0000
0000
,  // measure 6
0001
0000
1000
0000
1000
0000
0100
0000
0001
0000
0100
0000
1000
0100
0000
0000
,  // measure 7
0101
0000
0000
0001
1000
0000
0010
0000
0000
1000
0000
0100
0000
0100
0000
0000
,  // measure 8
0010
0000
0100
0000
1100
0000
1000
0000
0001
0000
0100
0000
0010
0100
0000
0000
,  // measure 9
0001
0000
0000
0010
0100
0000
0010
0000
0001
1000
0000
0100
0010
0100
0000
0000
,  // measure 10
1000
0000
0000
0010
0000
0000
0100
0000
0010
0100
0000
0001
0010
0001
1000
0000
,  // measure 11
1001
0000
0000
1000
0100
0000
1000
0000
0001
0100
0001
0000
0010
0100
0010
0000
,  // measure 12
0001
0000
0000
0010
0001
0000
1000
0000
0010
1000
0010
0000
0100
0010
0100
0000
,  // measure 13
0001
0000
0000
1000
0010
0000
1000
0000
0100
0010
0000
0010
0001
1000
0001
0000
,  // measure 14
1001
0000
1000
0100
1000
0000
0010
0000
0001
0000
0010
0000
1000
0010
0000
0000
,  // measure 15
1010
0000
0000
0000
1001
0000
0001
0000
0100
0001
1000
0000
0100
1000
0000
0000
,  // measure 16
1100
0000
0000
0000
0110
0000
0010
0000
0001
0000
1000
0000
0010
1000
0000
0001
,  // measure 17
1000
0000
0100
0010
0100
0000
0000
1000
0010
0000
1000
0000
0001
0010
0001
0010
,  // measure 18
0001
0100
0000
0010
0000
0000
0100
0000
0000
0001
0000
0000
1000
0100
0000
0000
,  // measure 19
1100
0000
1000
0000
0001
0000
0020
0000
0000
0100
0030
0000
0020
0000
0000
0000
,  // measure 20
0031
0000
0000
0010
0001
0000
1000
0000
0010
0000
0100
0000
0002
0000
1000
0000
,  // measure 21
1003
0000
0001
0000
0010
0000
0200
0000
0000
0010
0300
0000
0100
0000
0100
0000
,  // measure 22
1100
0000
0000
1000
0010
0000
1000
0000
0001
0100
0001
0000
0100
0000
0001
0000
,  // measure 23
0011
0000
0000
0010
0100
0000
1000
0000
0010
0100
0010
0000
0010
0000
1000
0000
,  // measure 24
0001
0000
0000
0010
0001
0000
1000
0000
0100
0010
0100
0000
1000
0000
1000
0000
,  // measure 25
1001
0000
0000
0001
0100
0000
0001
0000
0000
0010
0100
0000
1010
0000
1000
0000
,  // measure 26
0001
0000
0000
0100
0001
0000
1000
0000
0010
0000
0100
0000
0001
0000
0001
0000
,  // measure 27
0101
0000
0100
0000
0010
0000
0100
0000
0000
0001
0010
0000
0101
0000
0000
0000
,  // measure 28
1100
0000
0000
0100
0010
0000
0100
0000
0000
1000
0001
0000
1001
0000
0000
0000
,  // measure 29
0110
0000
0100
0000
0010
0000
0100
0000
0000
0001
0010
0000
0101
0000
0000
0000
,  // measure 30
1001
1000
0000
1000
0100
0000
0010
0001
0010
0100
0010
0000
0001
0100
0010
1000
,  // measure 31
0001
0000
0100
0000
0001
0000
0001
0000
0010
0100
0010
0000
0110
0000
0000
0000
,  // measure 32
1001
1000
0000
0001
0100
0000
0001
1000
0100
0000
0100
0000
0010
0001
0100
0001
,  // measure 33
0010
0000
0000
0100
1000
0000
0001
0000
0000
0100
0001
0000
1001
0000
0000
0000
,  // measure 34
0100
1100
2200
0000
3300
0000
0101
1010
,  // measure 35
0101
0000
0110
0000
1010
1010
1000
0001
,  // measure 36
1000
0040
0000
0030
0010
0000
0100
0000
0110
0000
0000
0000
1010
0000
0101
0000
,  // measure 37
1010
0000
1100
0000
0012
0010
1000
0100
,  // measure 38
0000
0000
0000
0100
0000
0000
0100
0000
0000
0000
0000
0000
1000
0000
0000
0000
0003
0000
0001
0000
0000
0000
0000
0000
1001
0000
0000
0000
0000
0000
0000
0000
0000
0000
0000
0000
0011
0000
0000
0000
0000
0000
1100
0000
0000
0000
0000
0000
,  // measure 39
0011
0000
0101
0000
0110
0110
2000
0000
,  // measure 40
0000
0000
0000
0000
0000
0000
3002
1000
,  // measure 41
1000
0000
0010
0000
0100
0200
0000
0000
,  // measure 42
0000
0300
1003
0001
1000
0000
0001
0100
,  // measure 43
0001
0100
1000
0100
1000
0100
0010
0100
,  // measure 44
0010
1000
0001
0100
0001
1000
0100
0010
,  // measure 45
0100
0010
0001
0010
0001
1000
0010
1000
,  // measure 46
0010
0000
0100
0000
0100
0010
0100
0000
0001
0100
0000
0000
0101
0000
0001
0000
,  // measure 47
0001
1000
0010
0000
1000
0000
0100
0000
0010
0100
1000
0000
0001
0000
0010
0001
,  // measure 48
0000
1000
0010
0000
0100
0000
1000
0000
0100
0000
0001
0000
0010
0000
0100
0000
,  // measure 49
1000
0100
1000
0000
0001
0000
0100
0000
0001
0100
0001
0000
0010
0000
0100
0000
,  // measure 50
1000
0000
0000
0100
0000
0000
0010
0000
0000
0000
0000
0000
0100
0000
0000
0000
0000
0000
1000
0000
0000
0000
0000
0000
0001
0000
0000
0100
0000
0000
0001
0000
0000
0000
0000
0000
0100
0000
0001
0000
0100
0000
0001
0000
0000
0000
0000
0000
,  // measure 51
0010
0000
0000
0100
0000
0000
1000
0000
0000
0000
0000
0000
0010
0000
0100
0000
0010
0000
0100
0000
0000
0000
0000
0000
0001
0000
0000
1000
0000
0000
0010
0000
0000
0000
0000
0000
1000
0000
0001
0000
1000
0000
0001
0000
0000
0000
0000
0000
,  // measure 52
0010
0000
0000
0100
0000
0000
0010
0000
0000
0000
0000
0000
0001
0000
0100
0000
0001
0000
0100
0000
0000
0000
0000
0000
0010
0000
0000
1000
0000
0000
0001
0000
0000
0000
0000
0000
0100
0000
0000
0001
0000
0000
1000
0000
0000
0100
0000
0000
,  // measure 53
0001
0000
0000
0100
0000
0000
1000
0000
0000
0001
0000
0000
0100
0000
0000
0010
0000
0000
0100
0000
0000
0001
0000
0000
0010
0000
0000
0100
0000
0000
1000
0000
0000
0010
0000
0000
4000
0000
0040
0000
0000
0000
0000
0000
0000
0000
0000
0000
,  // measure 54
3030
0000
0000
0000
4000
0000
0004
0000
0000
0000
0000
0000
3003
0000
0000
0001
0000
0000
0001
0000
0000
0000
0000
0000
0020
0000
0000
0230
0000
0000
2300
0000
0000
0000
0000
0000
3000
0000
0000
0000
0000
0000
0000
0000
0000
0000
0000
0000
;

//---------------dance-single - ----------------
#NOTEDATA:;
#CHARTNAME:X-Scale 10;
#STEPSTYPE:dance-single;
#DESCRIPTION:;
#CHARTSTYLE:;
#DIFFICULTY:Medium;
#METER:7;
#RADARVALUES:0.408460,0.463260,0.161538,0.258461,0.133269,354.000000,334.000000,20.000000,32.000000,0.000000,0.000000,0.000000,0.000000,0.000000,0.408460,0.463260,0.161538,0.258461,0.133269,354.000000,334.000000,20.000000,32.000000,0.000000,0.000000,0.000000,0.000000,0.000000;
#CREDIT:iamthek3n;
#NOTES:
0000
0000
0000
0000
,
0000
0000
0000
0000
,
0000
0000
0000
0000
,
0000
2000
0000
3010
1000
0001
0100
0010
,
1000
0000
0100
0000
0020
0000
0001
0000
0030
0000
0010
0000
0000
0001
0000
0000
,
1000
0010
0001
0010
0100
0010
1000
0001
,
0000
0010
0010
1000
0001
0100
0010
0000
,
1000
0000
0100
0000
0000
0000
0100
0000
0001
0000
0000
0010
0000
0010
0000
0000
,
0100
1000
0000
0001
1000
0010
2000
0000
,
3100
0010
0001
1000
0001
0100
0010
0100
,
0001
0101
1000
1100
,
1001
0000
0000
0001
0000
0000
0010
0000
0100
0000
0010
0000
0001
0000
1000
0000
,
0010
0000
0000
0010
0000
0000
0100
0000
0001
0100
0000
0000
0100
0010
0000
0000
,
1000
0001
0010
0001
1000
0100
0010
0001
,
0011
0000
0000
0001
0000
0000
1000
0000
0010
0000
0100
0000
0002
0000
0000
0000
,
0013
0000
0100
0000
0000
0000
0100
0000
0001
0000
1000
0100
0000
1000
0000
0000
,
1100
0000
1000
0000
0000
0000
0001
0000
0100
0000
0010
0000
0100
0010
0000
1000
,
0010
0000
0000
0000
1010
0000
0000
1000
0001
0000
0100
0000
0002
0000
0000
0000
,
0013
0001
0000
0100
0000
0000
1000
0000
0000
0010
0000
0000
0001
0000
0000
0000
,
0011
0010
0100
2000
0000
3000
2001
0000
,
3010
0000
0000
1000
0000
0000
0100
0000
0010
0000
0001
0000
0200
0000
0000
0000
,
0310
0100
0001
2000
0000
3000
1010
2000
,
0100
0000
3000
1000
0000
0000
0001
0000
0100
0000
0010
0000
2000
0000
0000
0000
,
3100
0010
0001
1000
0010
0100
0002
0000
,
1003
0000
0200
0000
2300
0000
3001
0001
,
1001
0010
1000
0002
0000
0003
0102
0000
,
1003
0000
0000
0001
0000
0000
0100
0000
0001
0000
1000
0000
0010
0000
0000
0000
,
1010
1000
1000
0000
1001
0000
0001
0100
,
0001
0000
0000
0010
0001
0000
1000
0000
0100
0000
0010
0000
0002
0000
0000
0000
,
0103
0100
0100
0000
0101
0000
0001
1000
,
0001
0000
0000
0010
0100
0000
1000
0000
0010
0000
1000
0000
0002
0000
0000
0000
,
0013
0010
0010
0000
0011
0000
1000
0001
,
1000
0100
0000
0100
0010
0000
0001
0010
0001
0000
0010
0000
0200
0000
0000
0000
,
1300
0000
0000
0100
1000
0000
0001
0000
0100
0000
0010
0000
2000
0000
0000
0000
,
3001
0010
0020
0000
0030
0000
1000
1000
,
2000
3000
1001
0000
0001
0002
0013
0000
,
0100
0000
1000
0100
0020
0000
0031
0001
,
0002
0003
1001
0000
1200
2000
3000
0000
,
0010
0000
0301
0100
1000
0000
1100
1000
,
2000
3000
1001
0000
0001
0002
0023
0000
,
0000
0000
0000
0000
0000
0000
0100
0100
,
0100
0000
0100
0000
0100
0100
0000
0000
,
0000
0000
0031
0010
0100
0000
1000
0100
,
1000
0000
0100
0000
0010
0000
0001
0000
0010
0000
0001
0000
0100
0000
0000
0001
,
0000
1000
0010
0100
0001
0000
0010
0100
,
0010
0100
1000
0010
1000
0010
0100
0000
,
0001
0000
1000
0000
1000
0000
0010
0000
1000
0010
0000
0000
0100
0000
0001
0000
,
1000
0001
0010
0100
0010
0001
1000
0010
,
0100
0010
1000
0100
0001
0100
0010
0001
,
1000
0010
0100
0010
1000
0001
0010
1000
,
0010
0100
1000
0002
0010
0000
1003
0001
,
0100
0001
0100
0000
0010
0000
1000
0000
0010
1000
0010
0000
0100
0000
0001
0000
,
0010
0001
0010
0000
0100
0000
1000
0000
0100
0010
0100
0000
1000
0000
1000
0000
,
0001
0001
0100
0100
0010
0010
2000
0000
,
0001
0000
0000
0000
0010
0010
0000
0000
3001
1000
0001
0000
0000
0000
0000
0000
;

//---------------dance-single - ----------------
#NOTEDATA:;
#CHARTNAME:X-Scale 5;
#STEPSTYPE:dance-single;
#DESCRIPTION:;
#CHARTSTYLE:;
#DIFFICULTY:Easy;
#METER:4;
#RADARVALUES:0.289614,0.353768,0.096923,0.290768,0.000000,251.000000,239.000000,12.000000,36.000000,0.000000,0.000000,0.000000,0.000000,0.000000,0.289614,0.353768,0.096923,0.290768,0.000000,251.000000,239.000000,12.000000,36.000000,0.000000,0.000000,0.000000,0.000000,0.000000;
#CREDIT:iamthek3n;
#NOTES:
0000
0000
0000
0000
,
0000
0000
0000
0000
,
0000
0000
0000
0000
,
0001
0000
0000
0010
0000
0000
0001
0000
,
1000
0000
0000
0100
0000
0000
1000
0000
,
0001
0000
0000
0010
0000
0000
0100
0000
,
1000
0001
1000
0000
0100
0000
0010
0000
,
0002
0100
0000
0100
,
0103
0000
0010
0100
0000
0001
1000
0000
,
0100
1000
0001
0100
,
0001
1001
1000
0010
,
1010
1000
0010
0100
0001
0010
0100
0010
,
0001
1000
0020
0000
0030
0000
0110
0000
,
0100
0001
1000
0001
0010
0100
1000
0001
,
1000
0000
0100
1000
0001
0100
0010
0000
,
0110
0000
0100
0001
0010
0000
0100
1000
,
0001
0000
0100
0001
1000
0000
0010
1000
,
0001
0000
0101
0000
0001
0100
0002
0000
,
1003
0000
0000
0010
0000
0000
1000
0000
,
0001
0000
1000
0020
0000
0030
0020
0000
,
0230
0000
0301
0010
1000
0010
0002
0000
,
1003
0001
0010
0200
0000
0300
0100
0200
,
2000
0300
3100
1000
0001
0100
0020
0000
,
1030
0010
1000
0100
2000
0000
3020
0000
,
0032
0000
0203
0000
2300
0000
3001
0001
,
1000
0010
1000
0200
0000
0300
0200
0000
,
0320
0000
0031
0010
0100
1000
0002
0000
,
0103
0001
0100
0000
0100
0000
0100
0001
,
0010
0000
0100
0000
1000
0100
0010
0000
,
0001
0100
0001
0000
0001
0000
0001
0100
,
0010
0000
1000
0000
0010
0100
0010
0000
,
1000
0100
1000
0000
0001
0000
0001
0010
,
0100
0000
0010
0000
0001
1000
0020
0000
,
2000
3030
1010
0000
0001
0010
0200
0000
,
0320
0031
0002
0000
0003
0000
1000
0000
,
1000
0000
1001
0000
0001
0010
0000
0000
,
0000
0000
0100
0010
0101
0000
0001
0000
,
0001
0000
1001
0000
1000
0100
0000
0000
,
0000
0000
0001
0100
1001
0000
1000
0000
,
1000
0000
1100
0000
0100
1000
0002
0000
,
0000
0000
0000
0020
,
0000
0000
0000
0000
,
0000
0033
0000
1001
,
0000
1000
1000
0000
0001
0000
0100
0000
,
0000
0001
0001
0000
0010
0000
0100
0000
,
0000
1000
1000
0000
0010
0000
1000
0000
,
0000
0001
0001
0000
0100
0000
0001
0000
,
1000
0001
0100
0010
,
1000
0000
0100
0010
0100
1000
0100
0000
,
0010
0001
1000
0010
,
1000
0000
0001
0100
0001
1000
0020
0000
,
0130
2000
3001
0020
,
0032
0000
0023
0000
0032
0000
1003
0001
,
0100
0010
1000
0100
0010
0001
0200
0000
,
0000
0000
0000
0300
0020
0200
0330
0000
;

//---------------dance-single - ----------------
#NOTEDATA:;
#CHARTNAME:X-Scale 1;
#STEPSTYPE:dance-single;
#DESCRIPTION:;
#CHARTSTYLE:;
#DIFFICULTY:Beginner;
#METER:1;
#RADARVALUES:0.092307,0.110048,0.000000,0.000000,0.000000,80.000000,80.000000,0.000000,0.000000,0.000000,0.000000,0.000000,0.000000,0.000000,0.092307,0.110048,0.000000,0.000000,0.000000,80.000000,80.000000,0.000000,0.000000,0.000000,0.000000,0.000000,0.000000,0.000000;
#CREDIT:iamthek3n;
#NOTES:
0000
0000
0000
0000
,
0000
0000
0000
0000
,
0000
0000
0000
0000
,
1000
0000
0000
0000
,
0001
0000
0000
0000
,
1000
0000
0000
0000
,
0001
0000
0000
0000
,
0010
0000
0000
0000
,
0100
0000
0000
0000
,
0010
0000
0000
0000
,
0100
0000
0000
0000
,
1000
0000
0000
0000
,
0001
0000
0000
0000
,
0100
0000
0000
0000
,
0001
0000
0000
0000
,
1000
0000
0000
0000
,
0100
0000
0000
0000
,
0010
0000
0000
0000
,
0001
0000
0000
0000
,
0000
1000
0000
0100
,
0000
0010
0000
0100
,
0000
1000
0000
0100
,
0000
0010
0000
0001
,
0000
1000
0000
0001
,
0000
0010
0000
0001
,
0000
1000
0000
0010
,
0000
1000
0000
0001
,
0000
0100
0000
0001
,
0000
1000
0000
0010
,
0000
1000
0000
0100
,
0000
0010
0000
0001
,
0000
0100
0000
0001
,
0000
0010
0000
0100
,
0000
1000
0000
0001
,
0000
0000
0000
0001
,
0000
0001
0000
0000
,
0000
0000
0000
1000
,
0000
1000
0000
0000
,
0000
0000
0000
0001
,
0000
0100
0000
0001
,
0000
0000
0000
1000
,
0000
0010
0000
1000
,
0000
0000
0000
0001
,
0000
0010
0000
0100
,
0000
1000
0000
0010
,
0000
0100
0000
0001
,
0000
1000
0000
0100
,
0000
1000
0000
0001
,
0000
0100
0000
0001
,
0000
0010
0000
0001
,
0000
1000
0000
0010
,
0000
1000
0000
0100
,
0000
1000
0000
0001
,
0000
0100
0000
0001
,
0000
0000
1000
0000
;
