#VERSION:0.83;
#TITLE:Replay;
#SUBTITLE:(누난 너무 예뻐);
#ARTIST:SHINee;
#TITLETRANSLIT:;
#SUBTITLETRANSLIT:(Noona, You're So Pretty);
#ARTISTTRANSLIT:;
#GENRE:R&B;
#ORIGIN:;
#CREDIT:;
#BANNER:Replay-bn.png;
#BACKGROUND:Replay-bg.png;
#PREVIEWVID:;
#JACKET:Replay-jacket.png;
#CDIMAGE:;
#DISCIMAGE:;
#LYRICSPATH:;
#CDTITLE:cdtitle.png;
#MUSIC:Replay.ogg;
#OFFSET:-0.003000;
#SAMPLESTART:56.403000;
#SAMPLELENGTH:19.200001;
#SELECTABLE:YES;
#BPMS:0.000=100.000;
#STOPS:;
#DELAYS:;
#WARPS:;
#TIMESIGNATURES:0.000=4=4;
#TICKCOUNTS:0.000=4;
#COMBOS:0.000=1;
#SPEEDS:0.000=1.000=0.000=0;
#SCROLLS:0.000=1.000;
#FAKES:;
#LABELS:0.000=Song Start;
#BGCHANGES:0.000=Replay.avi=1.000=1=0=0=StretchNoLoop==CrossFade==,
99999=-nosongbg-=1.000=0=0=0 // don't automatically add -songbackground-
;
#KEYSOUNDS:;
#ATTACKS:
;

//---------------dance-single - ----------------
#NOTEDATA:;
#CHARTNAME:X-Scale 12;
#STEPSTYPE:dance-single;
#DESCRIPTION:;
#CHARTSTYLE:;
#DIFFICULTY:Hard;
#METER:8;
#RADARVALUES:0.477134,0.512523,0.128131,0.119589,0.384392,391.000000,376.000000,15.000000,14.000000,0.000000,0.000000,0.000000,0.000000,0.000000,0.477134,0.512523,0.128131,0.119589,0.384392,391.000000,376.000000,15.000000,14.000000,0.000000,0.000000,0.000000,0.000000,0.000000;
#CREDIT:iamthek3n;
#NOTES:
0000
0000
0000
0000
,
0000
0000
0000
0000
,
0000
0000
0000
0000
,
0000
0000
0000
0000
,
1010
0000
1000
0000
0000
0000
0001
0000
0000
0000
1000
0010
1000
0000
0001
0000
,
0010
0000
0100
0000
0000
0000
0010
0000
0000
0000
0100
1000
0100
0000
1000
0100
,
0000
1000
0100
1000
0000
0000
0001
0100
0000
0001
0100
0001
0101
0000
0001
1000
,
0000
0001
1000
0001
0000
0000
0100
0010
0000
1000
0100
1000
1100
0000
0010
0000
,
0011
0000
0010
0000
0100
0000
1000
0100
1000
0000
0001
0000
0100
0001
0000
0000
,
1000
0000
0010
0000
0100
0000
0001
0010
0100
0010
0001
0000
1000
0010
0000
0000
,
1010
1000
0001
0010
1000
0100
0001
1000
,
0001
0000
0010
0100
0010
0000
0001
0010
0002
0000
0000
0023
0000
0000
0230
0000
,
1000
0000
0310
0000
0001
0000
1000
0001
0100
0000
0010
0000
0100
0001
0000
0000
,
0011
0000
0010
0000
0100
0000
1000
0010
1000
0001
0100
0000
0020
0000
0000
0000
,
1030
0000
0100
0000
1000
0000
0001
0100
0000
0001
0010
0100
1000
0000
0100
0000
,
0002
0000
0000
0023
0000
0000
1030
0010
1000
0000
0100
0000
0010
0000
0100
0000
,
1010
0010
0100
0000
0001
0010
1000
0010
,
0100
0000
1000
0000
0001
0000
1000
0000
0100
0000
0000
0010
0100
0000
0000
1000
,
0010
0000
1000
0000
1001
0000
0000
0000
0001
0000
0000
0010
0001
0000
1000
0000
,
0200
0000
0000
0010
0000
0000
1300
0100
1000
0000
0001
0000
0100
0000
0010
0000
,
0001
0010
2000
0000
3001
0100
0010
1000
,
0001
0000
0100
0000
0001
0000
1000
0000
0010
0000
0000
0100
0001
0000
0010
0000
,
0100
0000
1000
0000
0200
0000
0000
0000
0010
0000
1000
0000
0310
0000
0100
1000
,
0100
1000
0001
0000
0100
0001
1000
0001
,
1001
0000
0000
1000
0100
0000
0010
0000
0100
0000
0010
0001
1000
0001
0100
0010
,
1000
0000
0000
0010
0100
0000
0001
0000
1000
0000
0001
0010
0100
1000
0010
0100
,
0001
0000
0000
0010
0100
0000
1000
0000
0001
0000
0000
0100
0001
0000
1000
0000
,
0010
0000
0000
0100
0010
0000
0100
0000
1000
0000
0100
0000
0001
0000
1000
0000
,
0001
0000
0100
0010
0100
0000
0000
0000
0001
0100
0010
1000
0100
0010
0100
1000
,
0001
0000
0000
0100
0001
0000
1000
0000
0010
1000
0001
0100
0010
0100
0001
0010
,
0100
0000
0000
1000
0100
0000
1000
0000
0001
0000
0000
0100
0010
0000
0100
0000
,
0001
0000
0000
0010
0100
0000
0010
0000
0001
0000
0000
0010
0100
0000
0010
0000
,
0001
0000
0000
0000
0000
0000
1000
0000
0000
0001
0000
0000
1000
0000
0000
0000
0100
0000
0000
0000
0010
0000
0000
0000
0002
0000
0000
0000
0000
0000
0010
0000
0000
0000
0000
0000
0010
0000
0000
0000
0000
0000
0000
0000
0000
0000
0000
0000
,
1003
0000
0010
1000
0001
0100
0020
0000
0000
1030
0200
0000
0010
0000
0000
0000
,
1300
0000
0000
0100
0010
0000
0001
0000
1000
0000
0000
0010
0100
0000
0001
0000
,
1000
0000
0000
0010
1000
0000
0001
0000
0010
0000
1000
0000
0010
0000
0100
0000
,
1000
0000
0001
0100
0001
0000
1000
0000
0010
0000
1000
0000
1001
0000
0000
0000
,
0101
0000
0100
0010
0100
0000
0001
0000
0010
0000
0100
0000
1100
0000
0000
0000
,
1001
0000
0000
0001
0100
0000
0001
0000
1000
0000
0000
0100
0010
0000
0001
0000
,
0100
0000
0000
0010
0100
0000
0001
0000
1000
0000
0100
0000
2000
0000
0000
0000
,
3001
0000
0000
0100
0010
0000
0100
0000
0001
0000
0010
0000
1000
0000
0010
0000
,
0001
0000
0000
0100
0010
0000
1000
0000
0100
0000
0001
0000
0100
0000
1000
0000
,
0010
0000
0000
0100
0010
0000
1000
0000
0001
0000
0010
0000
0100
0010
0000
0001
,
0000
1000
0001
0100
0001
0000
0010
0100
1000
0000
0100
0000
0001
0000
0100
0000
,
1000
0000
0000
0010
1000
0000
0001
0000
0100
0000
0010
0000
0100
0000
0000
0000
,
0001
0000
0000
0010
0001
0000
0010
0000
1000
0000
0010
0000
0001
0000
0000
0000
,
1001
0000
0000
1000
0100
0000
1000
0000
0010
0000
0100
0000
0010
0000
0000
0000
,
0101
0000
0000
0001
1000
0000
0001
0000
0100
0000
0001
0000
1000
0100
0020
0000
,
0030
0000
0000
0000
;

//---------------dance-single - ----------------
#NOTEDATA:;
#CHARTNAME:X-Scale 8;
#STEPSTYPE:dance-single;
#DESCRIPTION:;
#CHARTSTYLE:;
#DIFFICULTY:Medium;
#METER:6;
#RADARVALUES:0.345343,0.408950,0.076878,0.410018,0.106776,283.000000,274.000000,9.000000,48.000000,0.000000,0.000000,0.000000,0.000000,0.000000,0.345343,0.408950,0.076878,0.410018,0.106776,283.000000,274.000000,9.000000,48.000000,0.000000,0.000000,0.000000,0.000000,0.000000;
#CREDIT:iamthek3n;
#NOTES:
// measure 0
0000
0000
0000
0000
,  // measure 1
0000
0000
0000
0000
,  // measure 2
0000
0000
0000
0000
,  // measure 3
0000
0000
0000
0000
,  // measure 4
1001
0000
0001
0000
0100
0001
0100
0000
,  // measure 5
0010
0000
1000
0000
0100
0010
0100
0000
,  // measure 6
1000
0000
0001
0000
0010
0100
0010
0000
,  // measure 7
0001
0000
1000
0000
0010
0100
0010
0000
,  // measure 8
0110
0000
0100
0000
0001
0000
0000
0000
1000
0000
0002
0000
0003
2000
0000
3000
,  // measure 9
0010
0000
1000
0000
0001
0000
0000
0000
0100
0000
0020
0000
0030
2000
0000
3000
,  // measure 10
0001
1000
0100
0000
0010
0100
1000
0002
,  // measure 11
0000
0000
0203
0000
0310
0000
0000
0000
2000
0000
3000
0100
2000
0000
3020
0000
,  // measure 12
0001
0000
0030
0000
0110
0000
0000
0000
0010
0000
0200
0000
0300
0002
0000
0003
,  // measure 13
0010
0001
0010
0000
0100
1000
0020
0000
,  // measure 14
1030
0010
1000
0001
0100
0001
1000
0100
,  // measure 15
0020
0000
0000
0032
0000
0000
2003
0000
0000
0000
3000
0000
1001
0000
0000
0000
,  // measure 16
0110
0010
1000
0000
0100
0010
0001
1000
,  // measure 17
0010
0100
0001
0000
1000
0000
1010
0000
,  // measure 18
0010
0100
0001
0000
0010
0000
0011
0000
,  // measure 19
0001
0000
0000
0010
0001
0000
1000
0000
0010
0000
0001
0000
0010
0000
0100
0000
,  // measure 20
0010
1000
0100
0000
0010
0100
1000
0001
,  // measure 21
0100
0001
1000
0000
0100
0000
0110
0000
,  // measure 22
0010
0001
2000
0000
0100
0000
3001
0000
,  // measure 23
0010
0001
1000
0000
0100
0010
0001
1000
,  // measure 24
0020
0000
2030
0000
0100
0100
3100
0000
,  // measure 25
0020
0000
0032
0000
0100
0100
0103
0000
,  // measure 26
0002
0203
2300
3200
,  // measure 27
0302
0000
0203
0000
1300
0100
0001
1000
,  // measure 28
0020
0000
0230
0000
0001
0001
0301
0000
,  // measure 29
0020
0000
0230
0000
1000
1000
1300
0000
,  // measure 30
2000
3020
0032
0023
,  // measure 31
2030
0000
3020
0000
0031
0010
1000
0001
,  // measure 32
1000
0000
0000
0100
1000
0000
0001
0000
0100
0000
0010
0000
0100
0000
0000
0000
,  // measure 33
0001
0000
0000
0010
0001
0000
1000
0000
0010
0000
0100
0000
0001
0000
0000
0000
,  // measure 34
0020
0230
2300
3002
,  // measure 35
2003
0000
3200
0000
0301
0100
1000
0010
,  // measure 36
1000
0000
0000
0010
0100
0000
0001
0000
1000
0000
0100
0000
1000
0000
0000
0000
,  // measure 37
0001
0000
0000
0100
0001
0000
1000
0000
0100
0000
0010
0000
0001
0000
0000
0000
,  // measure 38
2000
3020
0032
0023
,  // measure 39
0230
0000
0320
0000
1030
0010
1000
0000
,  // measure 40
1010
0000
1000
0000
0001
0000
0010
0001
0000
0010
0100
0000
0010
0000
0001
0000
,  // measure 41
1000
0000
0010
0000
0100
0000
0010
1000
0000
0001
0100
0000
0001
0000
1000
0000
,  // measure 42
0100
0000
0000
1000
0001
0000
0100
0000
0001
0000
0010
0000
1000
0000
0010
0000
,  // measure 43
0001
0000
0000
0100
0010
0000
0100
0000
0001
0000
1000
0000
0100
0000
1000
0000
,  // measure 44
0010
0000
0100
0000
0001
0000
0010
0001
0000
0010
0100
0000
1000
0000
0001
0000
,  // measure 45
1000
0000
0010
0000
0100
0000
0010
1000
0000
0100
0010
0000
0001
0000
1000
0000
,  // measure 46
0001
0000
0000
0010
0001
0000
1000
0000
0010
0000
0100
0010
0100
0000
0001
0000
,  // measure 47
0010
0000
0001
1000
0000
0010
0000
0000
1000
0000
0100
0000
1000
0001
1000
0000
;

//---------------dance-single - ----------------
#NOTEDATA:;
#CHARTNAME:X-Scale 5;
#STEPSTYPE:dance-single;
#DESCRIPTION:;
#CHARTSTYLE:;
#DIFFICULTY:Easy;
#METER:3;
#RADARVALUES:0.263583,0.245370,0.008542,0.170841,0.000000,216.000000,215.000000,1.000000,20.000000,0.000000,0.000000,0.000000,0.000000,0.000000,0.263583,0.245370,0.008542,0.170841,0.000000,216.000000,215.000000,1.000000,20.000000,0.000000,0.000000,0.000000,0.000000,0.000000;
#CREDIT:iamthek3n;
#NOTES:
// measure 0
0000
0000
0000
0000
,  // measure 1
0000
0000
0000
0000
,  // measure 2
0000
0000
0000
0000
,  // measure 3
0000
0000
0000
0000
,  // measure 4
1000
0001
0100
0001
,  // measure 5
1000
0001
0100
0001
,  // measure 6
1000
0100
0010
0100
,  // measure 7
1000
0100
0010
0100
,  // measure 8
1000
0000
0001
0000
0100
0001
0100
0000
,  // measure 9
0010
0000
1000
0000
0010
0100
0010
0000
,  // measure 10
1000
0000
0100
0000
0010
0001
0010
0000
,  // measure 11
0100
0000
1000
0000
0001
0010
0001
0000
,  // measure 12
1000
0000
0001
0000
0100
0010
0100
0000
,  // measure 13
0001
0000
0010
0000
0100
1000
0100
0000
,  // measure 14
0010
0000
0001
0000
0100
0001
0100
0000
,  // measure 15
0010
0000
1000
0000
0100
0010
0100
0000
,  // measure 16
1000
0100
0010
0000
0001
0000
1000
0000
,  // measure 17
0001
0010
0100
0000
1000
0000
0010
0100
,  // measure 18
0001
1000
0100
0000
0010
0000
0001
0000
,  // measure 19
1000
0000
0001
0000
0100
0001
1000
0000
,  // measure 20
0010
0100
0001
0000
1000
0000
0100
0000
,  // measure 21
0010
0100
1000
0000
0001
0000
0100
0010
,  // measure 22
1000
0010
0100
0000
0001
0000
0010
0000
,  // measure 23
0100
0000
0010
0000
0001
1000
0001
0000
,  // measure 24
2001
3200
0010
1300
,  // measure 25
0002
0023
0100
0031
,  // measure 26
2000
3020
2030
3002
,  // measure 27
2003
0000
3020
0000
0130
0010
1000
0001
,  // measure 28
0020
0230
1000
0310
,  // measure 29
0002
2003
0100
3010
,  // measure 30
0200
0320
2030
3002
,  // measure 31
0203
0000
0320
0000
1030
0010
1000
0000
,  // measure 32
0001
0010
0000
0010
0100
0000
1000
0000
,  // measure 33
0001
0100
0000
0100
0010
0000
1000
0000
,  // measure 34
0100
0010
0000
0010
0001
0000
1000
0000
,  // measure 35
0001
0100
0000
0100
0001
0000
1000
0000
,  // measure 36
0100
0010
0000
0010
0001
0000
1000
0000
,  // measure 37
0010
0100
0000
0100
0001
0000
1000
0000
,  // measure 38
0001
0010
0000
0010
0100
0000
1000
0000
,  // measure 39
0001
0100
0000
0100
0001
1000
0001
0000
,  // measure 40
0100
0000
0010
0000
1000
0100
1000
0000
,  // measure 41
0010
0000
0100
0000
0001
0100
0001
0000
,  // measure 42
0010
0000
0100
0000
1000
0100
1000
0000
,  // measure 43
0001
0000
0010
0000
0100
0010
0100
0000
,  // measure 44
1000
0000
0001
0000
0100
0010
0100
0000
,  // measure 45
0001
0000
1000
0000
0010
0100
0010
0000
,  // measure 46
1000
0000
0001
0000
0010
0001
0010
0000
,  // measure 47
0100
0000
1000
0000
0001
0100
0010
1000
;

//---------------dance-single - ----------------
#NOTEDATA:;
#CHARTNAME:X-Scale 1;
#STEPSTYPE:dance-single;
#DESCRIPTION:;
#CHARTSTYLE:;
#DIFFICULTY:Beginner;
#METER:1;
#RADARVALUES:0.084200,0.101437,0.008542,0.000000,0.000000,69.000000,68.000000,1.000000,0.000000,0.000000,0.000000,0.000000,0.000000,0.000000,0.084200,0.101437,0.008542,0.000000,0.000000,69.000000,68.000000,1.000000,0.000000,0.000000,0.000000,0.000000,0.000000,0.000000;
#CREDIT:iamthek3n;
#NOTES:
// measure 0
0000
0000
0000
0000
,  // measure 1
0000
0000
0000
0000
,  // measure 2
0000
0000
0000
0000
,  // measure 3
0000
0000
0000
0000
,  // measure 4
0001
0000
0000
0000
,  // measure 5
1000
0000
0000
0000
,  // measure 6
0001
0000
0000
0000
,  // measure 7
1000
0000
0000
0000
,  // measure 8
0100
0000
0000
0000
,  // measure 9
0010
0000
0000
0000
,  // measure 10
0100
0000
0000
0000
,  // measure 11
0010
0000
0000
0000
,  // measure 12
0001
0000
0000
0000
,  // measure 13
0100
0000
0000
0000
,  // measure 14
0001
0000
0000
0000
,  // measure 15
0100
0000
0000
0000
,  // measure 16
0001
0000
1000
0000
,  // measure 17
0010
0000
1000
0000
,  // measure 18
0001
0000
1000
0000
,  // measure 19
0010
0000
1000
0000
,  // measure 20
0001
0000
0010
0000
,  // measure 21
0100
0000
0010
0000
,  // measure 22
0001
0000
0010
0000
,  // measure 23
0100
0000
0010
0000
,  // measure 24
0001
0000
1000
0000
,  // measure 25
0010
0000
1000
0000
,  // measure 26
0001
0000
0100
0000
,  // measure 27
0001
0000
1000
0000
,  // measure 28
0100
0000
0010
0000
,  // measure 29
0100
0000
1000
0000
,  // measure 30
0001
0000
1000
0000
,  // measure 31
0010
0000
1000
0000
,  // measure 32
0001
0000
0010
0000
,  // measure 33
0001
0000
1000
0000
,  // measure 34
0001
0000
0010
0000
,  // measure 35
0001
0000
1000
0000
,  // measure 36
0100
0000
0010
0000
,  // measure 37
0001
0000
0100
0000
,  // measure 38
0010
0000
1000
0000
,  // measure 39
0001
0000
0000
0000
,  // measure 40
1000
0000
0000
0000
,  // measure 41
0100
0000
0000
0000
,  // measure 42
0010
0000
0000
0000
,  // measure 43
0001
0000
0000
0000
,  // measure 44
0100
0000
0000
0000
,  // measure 45
0010
0000
0000
0000
,  // measure 46
1000
0000
0000
0000
,  // measure 47
0001
0000
1001
0000
;
