#VERSION:0.83;
#TITLE:On A Night Like This;
#SUBTITLE:;
#ARTIST:Kylie Minogue;
#TITLETRANSLIT:;
#SUBTITLETRANSLIT:;
#ARTISTTRANSLIT:;
#GENRE:Dance Pop;
#ORIGIN:;
#CREDIT:;
#BANNER:On A Night Like This-bn.png;
#BACKGROUND:On A Night Like This-bg.png;
#PREVIEWVID:;
#JACKET:On A Night Like This-jacket.png;
#CDIMAGE:;
#DISCIMAGE:;
#LYRICSPATH:;
#CDTITLE:cdtitle.png;
#MUSIC:On A Night Like This.ogg;
#OFFSET:-0.016000;
#SAMPLESTART:44.324001;
#SAMPLELENGTH:14.769000;
#SELECTABLE:YES;
#BPMS:0.000=130.000;
#STOPS:;
#DELAYS:;
#WARPS:;
#TIMESIGNATURES:0.000=4=4;
#TICKCOUNTS:0.000=4;
#COMBOS:0.000=1;
#SPEEDS:0.000=1.000=0.000=0;
#SCROLLS:0.000=1.000;
#FAKES:;
#LABELS:0.000=Song Start;
#BGCHANGES:0.000=On A Night Like This.avi=1.000=1=0=0=StretchNoLoop==CrossFade==,
99999=-nosongbg-=1.000=0=0=0 // don't automatically add -songbackground-
;
#KEYSOUNDS:;
#ATTACKS:
;

//---------------dance-single - ----------------
#NOTEDATA:;
#CHARTNAME:X-Scale 11;
#STEPSTYPE:dance-single;
#DESCRIPTION:;
#CHARTSTYLE:;
#DIFFICULTY:Hard;
#METER:8;
#RADARVALUES:0.417470,0.657515,0.087669,0.584458,0.230130,400.000000,388.000000,12.000000,80.000000,0.000000,0.000000,0.000000,0.000000,0.000000,0.417470,0.657515,0.087669,0.584458,0.230130,400.000000,388.000000,12.000000,80.000000,0.000000,0.000000,0.000000,0.000000,0.000000;
#CREDIT:iamthek3n;
#NOTES:
// measure 0
0000
0000
0000
0000
,  // measure 1
0000
0000
0000
0000
,  // measure 2
0000
0000
0000
0000
,  // measure 3
0000
0000
0000
0000
,  // measure 4
1000
0000
0010
2000
0000
3002
0000
0003
,  // measure 5
0010
0000
0100
0020
0000
0032
0000
0003
,  // measure 6
0200
1000
0010
0001
,  // measure 7
0301
0000
0000
0000
0101
0000
0000
0000
1000
0001
1000
0001
1000
0001
1000
0001
,  // measure 8
1000
0000
0000
0100
0000
0000
1000
0000
0000
0000
0001
0000
0000
0001
0000
0000
,  // measure 9
0001
0000
0000
0010
0000
0000
0100
0000
0000
0000
1000
0000
0000
1000
0000
0000
,  // measure 10
1000
0000
0010
2000
0000
3002
0000
0023
,  // measure 11
0000
0000
2030
0000
0000
0000
3200
0000
0000
0000
0001
0000
0301
0100
0000
0000
,  // measure 12
0001
0000
0000
1000
0000
0000
0010
0000
0000
0000
0100
0000
0000
0100
0000
0000
,  // measure 13
0100
0000
0000
0001
0000
0000
0010
0000
0000
0000
0001
0000
0000
0001
0000
0000
,  // measure 14
0001
0000
0010
2000
0000
3002
0000
0203
,  // measure 15
0000
2300
0000
3020
0000
2030
0001
0001
,  // measure 16
3001
0000
1000
0020
0000
2030
0000
3000
,  // measure 17
0001
0000
0010
0200
0000
2300
0000
3000
,  // measure 18
0001
0000
0101
0000
0100
0020
0000
2030
,  // measure 19
0000
3002
0000
0023
0000
0230
1000
2000
,  // measure 20
0300
0000
3100
2000
0000
3002
0000
0003
,  // measure 21
1000
0000
0001
0200
0000
0320
0000
0030
,  // measure 22
0100
0000
0001
0020
0000
2030
0000
3020
,  // measure 23
0000
0230
0000
2300
0000
3002
0010
0013
,  // measure 24
0012
0000
0103
0200
0000
0302
0000
2003
,  // measure 25
0100
0000
0000
0010
0000
0000
3001
0000
0000
0000
1000
0000
0010
0000
0100
0000
,  // measure 26
0001
0000
0000
0000
0010
0000
0200
0000
0000
0000
0320
0000
0000
0100
0000
0000
,  // measure 27
0031
0000
0010
0200
0000
0310
0001
1000
,  // measure 28
0002
0000
0103
0020
0000
2030
0000
3002
,  // measure 29
0010
0000
0000
0100
0000
0000
1003
0000
0000
0000
0001
0000
1000
0000
0010
0000
,  // measure 30
1000
0000
0000
0000
0100
0000
0020
0000
0000
0000
0032
0000
0000
1000
0000
0000
,  // measure 31
1003
0001
0100
0020
0000
0230
0000
0302
,  // measure 32
0100
0000
0000
1000
0000
0000
0010
0000
0003
0000
0001
0000
0010
0001
0000
0000
,  // measure 33
0010
0000
0000
0100
0000
0000
1000
0000
0001
0000
0100
0000
0001
0100
0000
0000
,  // measure 34
0010
0000
0000
0100
0000
0000
0001
0000
1000
0000
0010
0000
0100
0010
0000
0000
,  // measure 35
1000
0000
0000
0001
0000
0000
1000
0000
0100
0000
1000
0000
0001
0100
0000
0000
,  // measure 36
0101
0000
0000
0001
0000
0000
1000
0000
0100
0000
0010
0000
0001
0010
0000
0000
,  // measure 37
0001
0000
0000
0100
0000
0000
0001
0000
1000
0000
0100
0000
0010
0100
0000
0000
,  // measure 38
1000
0000
0000
0001
0000
0000
0100
0000
0001
0000
1000
0000
0100
0010
0000
0000
,  // measure 39
0010
0001
1000
0020
0000
2030
0000
3000
,  // measure 40
1001
0000
0100
0000
1000
0001
0100
0000
,  // measure 41
0010
0000
0100
0000
0001
0010
0100
0000
,  // measure 42
1000
0000
0010
0000
1000
0001
0100
0000
,  // measure 43
0001
0010
0100
2000
0000
3002
0000
0003
,  // measure 44
1001
0000
0000
1000
0100
0000
1000
0000
0001
0000
0100
0000
0010
0100
0000
0000
,  // measure 45
0001
0000
0000
0010
0100
0000
0010
0000
0001
0000
1000
0000
0010
1000
0000
0000
,  // measure 46
0100
0000
0000
0010
0001
0000
1000
0000
0010
0000
1000
0000
0001
0010
0000
0000
,  // measure 47
0100
1000
0100
1000
0100
1000
0100
1000
0100
0010
0100
0010
0100
0010
0100
0010
,  // measure 48
0200
0000
0001
0001
0000
0010
0000
0000
,  // measure 49
2300
0000
0100
0100
0000
0001
0000
0000
,  // measure 50
3020
0000
1000
1000
0000
0001
0000
0000
,  // measure 51
0230
0000
0000
1000
0000
0000
0001
0000
,  // measure 52
0301
0000
1001
2000
0000
3002
0000
0203
,  // measure 53
0000
0000
0001
0000
0300
0001
1001
1000
,  // measure 54
0100
0000
0110
0020
0000
0032
0000
0003
,  // measure 55
0101
0200
0000
0000
0000
1000
0010
0301
,  // measure 56
0101
0000
0000
0001
0100
0000
0001
0000
0010
0000
1000
0000
0010
0000
0001
0000
,  // measure 57
0100
0000
0000
0010
0100
0000
0001
0000
1000
0000
0100
0000
0001
0000
0100
0000
,  // measure 58
1000
0000
0000
1000
0010
0000
2000
0000
0000
0000
3002
0000
0100
0000
0000
0000
,  // measure 59
1003
0000
0000
1000
0100
0000
0020
0000
0000
0000
0032
0000
0010
0000
0100
0000
,  // measure 60
1003
0000
0000
0001
0100
0000
0001
0000
0010
0000
1000
0000
0010
0000
0001
0000
,  // measure 61
0100
0000
0000
0010
0100
0000
0001
0000
1000
0000
0100
0000
0010
0000
0001
0000
,  // measure 62
1000
0000
0000
1000
0100
0000
2000
0000
0000
0000
3002
0000
0100
0000
0000
0000
,  // measure 63
1003
0001
0100
0020
0000
2030
0000
3200
,  // measure 64
0010
0000
0000
0010
0000
0000
0010
0000
0300
0000
1000
0000
0000
1000
0000
0000
,  // measure 65
1000
0000
0000
0100
0000
0000
0010
0000
0000
0000
0001
0000
0100
0000
0010
0000
,  // measure 66
0100
0000
0000
0001
0000
0000
1000
0000
0000
0000
0100
0000
0000
0010
0000
0000
,  // measure 67
0001
0100
0010
2000
0000
3002
0000
0023
,  // measure 68
0100
0000
0000
0100
0000
0000
0100
0000
0030
0000
0010
0000
0000
0010
0000
0000
,  // measure 69
0010
0000
0000
0001
0000
0000
1000
0000
0000
0000
0010
0000
0000
1000
0000
0000
,  // measure 70
0100
0000
0000
0010
0000
0000
0001
0000
0000
0000
1000
0000
0000
0001
0000
0000
,  // measure 71
0100
0010
0001
0020
0000
2030
0000
3010
,  // measure 72
1010
0000
0000
0000
;

//---------------dance-single - ----------------
#NOTEDATA:;
#CHARTNAME:X-Scale 8;
#STEPSTYPE:dance-single;
#DESCRIPTION:;
#CHARTSTYLE:;
#DIFFICULTY:Medium;
#METER:6;
#RADARVALUES:0.337107,0.341908,0.102280,0.642904,0.010959,323.000000,309.000000,14.000000,88.000000,0.000000,0.000000,0.000000,0.000000,0.000000,0.337107,0.341908,0.102280,0.642904,0.010959,323.000000,309.000000,14.000000,88.000000,0.000000,0.000000,0.000000,0.000000,0.000000;
#CREDIT:iamthek3n;
#NOTES:
0000
0000
0000
0000
,
0000
0000
0000
0000
,
0000
0000
0000
0000
,
0000
0000
0000
0000
,
0001
0000
0010
0001
0000
1000
0000
0000
,
0010
0000
1000
0001
0000
1000
0000
0000
,
0010
0100
0001
1000
,
0100
0010
0000
0100
0000
0010
0000
0100
,
2000
3100
1000
0001
,
0020
0130
0010
0001
,
1000
0000
0010
2000
0000
3200
0000
0302
,
0000
0023
0000
2030
0000
0000
3001
0000
,
1002
0013
0100
1000
,
0020
0001
0130
0010
,
1000
0000
0100
0020
0000
0032
0000
0203
,
0000
2300
0000
3200
0000
0302
0000
0003
,
0101
0000
0100
0000
0001
1000
0001
0000
,
0010
0000
0100
0000
1000
0100
1000
0000
,
0001
0000
0100
0000
0001
1000
0001
0000
,
0010
0000
0100
0000
1000
0100
0010
0001
,
1000
0000
0001
0000
0100
0010
0100
0000
,
0001
0000
0010
0000
0100
1000
0100
0000
,
0010
0000
0001
0000
1000
0010
1000
0000
,
0001
0000
0000
0010
0000
0100
1000
0100
,
1200
0000
0310
0002
0000
2003
0000
3020
,
0001
0000
0100
0000
1030
0010
0100
0010
,
2000
0000
3100
0020
0000
0032
0000
0000
,
2003
0000
3100
0020
0000
0032
0000
0000
,
0203
0000
0301
0020
0000
0230
0000
2300
,
0010
0000
0100
0000
3001
1000
0010
1000
,
0002
0000
0103
0020
0000
2030
0000
3000
,
0001
0010
1000
0200
0000
0302
0000
2003
,
0010
0000
0000
0010
0000
0000
0010
0000
3020
0000
0000
0000
0230
0000
0000
0000
,
0302
0000
0010
0000
2003
0000
3010
0200
,
0000
0302
0100
0000
1000
0000
0013
0000
,
0002
0000
0000
0023
0000
0000
0230
0000
,
2300
0000
0000
0000
3100
2000
3000
0002
,
0000
0000
0103
0002
0000
0000
0013
0200
,
1000
0000
0000
1000
0000
0000
1000
0000
0000
0000
0010
0000
0000
0010
0300
0000
,
0010
0001
1000
0002
0000
0203
0000
0300
,
0101
0000
0001
1000
0000
0010
1000
0000
,
0100
0000
0010
0100
0000
1000
0100
0000
,
0010
0000
0001
0100
0000
0010
1000
0000
,
0100
0010
0001
2000
0000
3002
0000
0003
,
1001
0000
1000
0100
0000
0010
0001
0000
,
0100
0000
0010
0100
0000
0001
0010
0000
,
0100
0000
1000
0010
0000
0100
0001
0000
,
0010
0000
0001
0100
0000
0010
1000
0000
,
1010
0000
1000
0001
0000
0010
0000
0000
,
0000
0000
0001
1000
0000
0010
0000
0000
,
0000
0000
0100
0010
0000
1000
0000
0000
,
0001
0000
0000
0010
0000
0000
0001
0000
,
0000
0011
0000
1010
,
0000
1100
0000
0101
,
0000
0110
0000
1001
,
0001
0001
0000
0000
0000
1000
0001
1000
,
1001
0000
1000
0020
0000
2030
0000
3002
,
0100
0000
0010
0000
0103
0001
0010
0100
,
2000
0000
3010
0200
0000
0302
0100
0000
,
2003
0000
3010
0200
0000
0302
0100
0100
,
0103
0000
0001
0020
0000
0032
0000
2003
,
0010
0000
0100
0000
3010
1000
0001
1000
,
0020
0000
1030
0200
0000
0320
0001
0000
,
0130
1000
0001
2000
0000
3200
0000
0320
,
0000
0000
0001
0002
0030
2003
0000
3000
,
0010
0000
0100
0020
0000
2030
0000
3100
,
1000
0000
1000
0200
0000
0320
0000
0030
,
0001
0100
0010
2000
0000
3002
0000
0023
,
0000
0000
0100
0200
0030
2300
0000
3000
,
0001
0000
0100
0002
0000
2003
0000
3100
,
0100
0000
1000
0002
0000
0023
0000
0030
,
0100
0010
0001
2000
0000
3002
0000
0003
,
1001
0000
0000
0000
;

//---------------dance-single - ----------------
#NOTEDATA:;
#CHARTNAME:X-Scale 5;
#STEPSTYPE:dance-single;
#DESCRIPTION:;
#CHARTSTYLE:;
#DIFFICULTY:Easy;
#METER:3;
#RADARVALUES:0.254657,0.289307,0.073057,0.189949,0.000000,244.000000,234.000000,10.000000,26.000000,0.000000,0.000000,0.000000,0.000000,0.000000,0.254657,0.289307,0.073057,0.189949,0.000000,244.000000,234.000000,10.000000,26.000000,0.000000,0.000000,0.000000,0.000000,0.000000;
#CREDIT:iamthek3n;
#NOTES:
0000
0000
0000
0000
,
0000
0000
0000
0000
,
0000
0000
0000
0000
,
0000
0000
0000
0000
,
0000
0001
0000
0010
,
0000
0001
0000
1000
,
0000
0010
0000
1000
,
0000
0001
0000
0010
,
0012
1003
0000
0001
,
0020
0130
0000
0010
,
0000
0000
0001
1000
0000
0100
0000
0001
,
0000
0010
0000
2000
0000
0000
3001
0000
,
0200
0301
0000
1000
,
0200
0010
0300
1000
,
0000
0000
0001
0100
0000
0001
0000
0010
,
0000
1000
0000
0100
0000
0002
0000
0003
,
1001
0000
1000
0010
0000
2000
0000
0000
,
3001
0000
0010
0100
0000
2000
0000
0000
,
3001
0000
1000
0000
0010
1000
0000
0100
,
0000
0001
0000
0100
0000
2000
0000
0000
,
3001
0000
0100
0001
0000
0020
0000
0000
,
0130
0000
1000
0001
0000
0020
0000
0000
,
0130
0000
0010
0001
0000
0010
0000
1000
,
0000
0100
0000
0001
0000
2000
0000
3000
,
1001
0010
1000
0001
,
1000
0010
0100
0010
,
1000
0000
0001
0100
0000
0002
0000
0000
,
1003
0000
0001
0100
0000
0002
0000
0000
,
0013
0001
1000
0010
,
1000
0001
0100
0010
,
1000
0000
0001
0100
0000
0020
0000
0000
,
1030
0000
0010
0000
1000
0000
0001
1000
,
1001
1000
0100
0010
,
0001
1000
0010
1000
,
0001
0010
0100
0000
,
0001
0000
0000
1000
0000
0000
0100
0000
,
0010
0100
1000
0001
,
1000
0010
0100
0010
,
1000
0001
0010
0100
,
1000
0100
0000
0100
,
0210
0010
0000
1000
,
0000
0010
0000
1000
,
0000
0010
0300
0100
,
1000
0001
1000
0100
,
1200
0010
0000
1000
,
0000
0010
0000
1300
,
0100
0010
0001
0100
,
0010
1000
0000
0001
,
1001
0000
0000
0000
,
0100
0000
0000
0000
,
0010
0000
0000
0000
,
0001
0000
0000
0000
,
1000
0000
0000
0010
0000
1000
0000
0020
,
0000
0000
0000
0030
0000
0000
0100
0000
,
0001
0000
0000
2000
0000
0002
0000
3003
,
1001
0000
0000
0000
,
0110
0000
0100
0010
0000
0100
0000
0002
,
0000
0000
1000
0000
0003
0001
0100
0010
,
1000
0000
0100
1000
0000
0002
0000
0000
,
1003
0000
0100
1000
0000
0002
0000
0000
,
0103
0000
0001
1000
0000
0100
0000
0020
,
0000
0000
0001
0000
0030
0010
0001
1000
,
0010
0000
0100
0002
0000
2003
0000
3000
,
0010
1000
0001
0100
,
0101
0001
1000
0100
,
1000
0000
0010
0000
0100
0000
0001
0100
,
0001
0010
0100
1000
,
0010
0000
1000
0000
0001
0000
1000
0010
,
1000
0100
0010
0100
,
1000
0000
0001
0000
0100
0000
0010
0100
,
0010
1000
0100
0010
,
0001
1000
0010
1000
,
0001
0000
0000
0000
;

//---------------dance-single - ----------------
#NOTEDATA:;
#CHARTNAME:X-Scale 2;
#STEPSTYPE:dance-single;
#DESCRIPTION:;
#CHARTSTYLE:;
#DIFFICULTY:Beginner;
#METER:1;
#RADARVALUES:0.117935,0.157804,0.014611,0.000000,0.000000,113.000000,111.000000,2.000000,0.000000,0.000000,0.000000,0.000000,0.000000,0.000000,0.117935,0.157804,0.014611,0.000000,0.000000,113.000000,111.000000,2.000000,0.000000,0.000000,0.000000,0.000000,0.000000,0.000000;
#CREDIT:iamthek3n;
#NOTES:
0000
0000
0000
0000
,
0000
0000
0000
0000
,
0000
0000
0000
0000
,
0000
0000
0000
0000
,
1000
0000
0000
0000
,
0100
0000
0000
0000
,
0010
0000
0000
0000
,
0001
0000
0000
0000
,
1000
0000
0000
0000
,
0001
0000
0000
0000
,
0100
0000
0000
0000
,
0010
0000
0000
0000
,
1000
0000
0000
0000
,
0001
0000
0000
0000
,
0010
0000
0000
0000
,
0100
0000
0000
0000
,
1000
0000
0010
0000
,
1000
0000
0001
0000
,
0100
0000
0001
0000
,
0010
0000
0100
0000
,
1000
0000
0100
0000
,
0010
0000
0001
0000
,
1000
0000
0010
0000
,
1000
0000
0000
0000
,
1001
0000
0001
0000
,
0010
0000
0001
0000
,
0100
0000
0010
0000
,
0100
0000
0001
0000
,
0010
0000
0100
0000
,
1000
0000
0001
0000
,
1000
0000
0010
0000
,
1000
0000
0001
0000
,
0010
0000
0001
0000
,
1000
0000
0100
0000
,
0010
0000
0100
0000
,
1000
0000
0001
0000
,
1000
0000
0010
0000
,
0100
0000
0001
0000
,
0010
0000
0100
0000
,
1000
0000
0000
0000
,
1000
0000
0001
0000
,
0100
0000
0001
0000
,
1000
0000
0010
0000
,
0100
0000
0010
0000
,
1000
0000
0001
0000
,
0010
0000
0100
0000
,
1000
0000
0010
0000
,
0100
0000
0001
0000
,
0010
0000
0000
0000
,
0001
0000
0000
0000
,
1000
0000
0000
0000
,
0010
0000
0000
0000
,
1000
0000
0000
0000
,
0100
0000
0000
0000
,
0010
0000
0000
0000
,
0001
0000
0000
0000
,
1001
0000
1000
0000
,
0010
0000
1000
0000
,
0001
0000
0100
0000
,
0001
0000
0010
0000
,
0100
0000
0010
0000
,
0001
0000
1000
0000
,
0100
0000
1000
0000
,
0001
0000
0010
0000
,
0100
0000
0000
0000
,
1000
0000
0001
0000
,
1000
0000
0000
0000
,
0100
0000
0010
0000
,
0100
0000
0000
0000
,
1000
0000
0001
0000
,
1000
0000
0000
0000
,
0010
0000
0100
0000
,
0010
0000
0000
0000
;
