#TITLE:Nothing to Do;
#SUBTITLE:;
#ARTIST:Bancali;
#TITLETRANSLIT:;
#SUBTITLETRANSLIT:;
#ARTISTTRANSLIT:;
#GENRE:Future House;
#CREDIT:;
#BANNER:Nothing to Do-bn.png;
#BACKGROUND:Nothing to Do-bg.png;
#LYRICSPATH:;
#CDTITLE:cdtitle.png;
#MUSIC:Nothing to Do.ogg;
#OFFSET:-0.001000;
#SAMPLESTART:45.000999;
#SAMPLELENGTH:15.000000;
#SELECTABLE:YES;
#DISPLAYBPM:64.000000:128.000000;
#BPMS:0.000000=64.000000
,16.000000=128.000000
,76.000000=64.000000
,78.000000=256.000000
,78.500000=128.000000
,78.750000=64.000000
,79.000000=256.000000
,79.500000=128.000000
,79.750000=64.000000
,80.000000=256.000000
,80.500000=128.000000
,80.750000=64.000000
,81.000000=256.000000
,82.500000=128.000000
,82.750000=64.000000
,83.000000=256.000000
,83.500000=128.000000
,83.750000=64.000000
,84.000000=256.000000
,84.500000=128.000000
,84.750000=64.000000
,85.000000=256.000000
,86.000000=128.000000
,106.000000=64.000000
,108.000000=128.000000
,168.000000=64.000000
,170.000000=256.000000
,170.500000=128.000000
,170.750000=64.000000
,171.000000=256.000000
,171.500000=128.000000
,171.750000=64.000000
,172.000000=256.000000
,172.500000=128.000000
,172.750000=64.000000
,173.000000=256.000000
,174.500000=128.000000
,174.750000=64.000000
,175.000000=256.000000
,175.500000=128.000000
,175.750000=64.000000
,176.000000=256.000000
,176.500000=128.000000
,176.750000=64.000000
,177.000000=256.000000
,178.000000=128.000000
,198.000000=64.000000
,200.000000=256.000000
,201.000000=128.000000
,228.000000=64.000000
;
#STOPS:81.000000=0.117000,
81.500000=0.117000,
85.000000=0.117000,
85.500000=0.117000,
173.000000=0.117000,
173.500000=0.117000,
177.000000=0.117000,
177.500000=0.117000,
200.000000=0.234000
;
#BGCHANGES:;
#KEYSOUNDS:;
#ATTACKS:;

//---------------dance-single - ----------------
#NOTES:
     dance-single:
     X-Scale 12:
     Hard:
     8:
     0.480592,0.511495,0.396257,0.145564,0.274954,416.000000,367.000000,49.000000,18.000000,0.000000,0.000000,0.480592,0.511495,0.396257,0.145564,0.274954,416.000000,367.000000,49.000000,18.000000,0.000000,0.000000:
// measure 0
0000
0000
0000
0000
,  // measure 1
0000
0000
0000
0000
,  // measure 2
0000
0000
0000
0000
,  // measure 3
0000
0000
0000
0000
,  // measure 4
1000
0000
0000
0100
0000
0000
0010
0000
0000
0100
0000
0000
1000
0000
0000
0000
,  // measure 5
0001
0000
0000
0100
0000
0000
0010
0000
0000
0100
0000
0000
0001
0000
0000
0000
,  // measure 6
0010
0000
0000
0100
0000
0000
1000
0000
0000
0001
0000
0000
1000
0000
0000
0000
,  // measure 7
0010
0000
0000
1000
0000
0000
0001
0000
0000
1000
0000
0000
0100
0000
0000
0000
,  // measure 8
0010
0000
0000
0100
0000
0000
1000
0000
0000
0001
0000
0000
0100
0000
0000
0000
,  // measure 9
0010
0000
0000
0100
0000
0000
0001
0000
0020
0000
0000
0000
1000
0000
0000
0000
,  // measure 10
0032
0010
2003
3200
,  // measure 11
0320
1000
0230
0010
,  // measure 12
1300
0000
0100
0000
1000
0000
0010
0100
,  // measure 13
0010
0000
1000
0000
0100
0010
0100
1000
,  // measure 14
0100
0000
0010
0000
0001
0000
1000
0001
,  // measure 15
1000
0000
0000
0000
0000
0000
0010
0000
0000
0000
0000
0000
0100
0000
0010
0100
0000
0000
0001
0000
0000
0001
0000
0000
,  // measure 16
1001
0000
0000
1100
0000
0000
1001
0000
0000
0101
0000
0000
0110
0000
0000
0010
,  // measure 17
0100
0000
0000
0110
0000
0000
1001
0000
0000
1100
0000
0000
1010
0000
0000
1000
,  // measure 18
0001
0010
1000
0010
0001
0010
0100
0010
,  // measure 19
0001
0000
1000
0000
1000
0000
1100
0001
1001
0000
0000
0000
0110
0000
0000
0000
,  // measure 20
1001
0000
1100
1000
1001
0000
0011
0000
,  // measure 21
0110
0000
0000
0000
1001
0000
0001
0000
0101
0000
0000
0100
0010
0000
0100
0000
,  // measure 22
0001
0000
0010
0000
0001
0000
1000
0000
0100
0000
0000
0010
0100
0000
1000
0000
,  // measure 23
0001
0000
0100
0010
0100
0000
0001
0000
1000
0001
1000
0000
0100
0000
0001
0000
,  // measure 24
0100
0000
0010
0000
0001
0000
1000
0000
0010
0100
0010
0000
1000
0000
0001
0000
,  // measure 25
0010
0000
0001
0000
1000
0000
0010
0000
1010
0000
0000
1000
0001
0000
0010
0000
,  // measure 26
1000
0000
0000
0000
0010
0000
0000
0000
0100
0000
0000
0000
1000
0000
0000
0000
1100
0000
0000
0100
0000
0000
1000
0000
0001
0000
1000
0000
0002
0000
0000
0003
,  // measure 27
1001
0000
0000
1000
0000
0000
0010
0000
0000
0100
0000
0000
0001
0000
0000
0000
,  // measure 28
0010
0000
0000
0100
0000
0000
1000
0000
0010
0000
2000
0000
0001
0000
0000
0000
,  // measure 29
3100
0000
0000
0010
0000
0000
0001
0000
0000
1000
0000
0000
0001
0000
0000
0000
,  // measure 30
0010
0000
0000
0000
0000
0000
0000
0000
0000
0100
0000
0000
0000
0000
0000
0000
0000
0000
1000
0000
0000
0000
0100
0000
0000
0000
1000
0000
0000
0000
0000
0000
0001
0000
0000
0000
0100
0000
0000
0000
0000
0000
0001
0000
0000
0000
0000
0000
,  // measure 31
0020
1000
0100
0001
,  // measure 32
0130
0000
1000
0001
0200
0000
1000
0000
,  // measure 33
0302
0010
2003
3020
,  // measure 34
0230
0000
0000
0000
0000
0000
0301
0000
0000
0100
0000
0001
0000
0010
0000
0000
0100
0000
1000
0000
0000
0001
0000
0000
,  // measure 35
0011
0000
1001
1000
0200
0000
0010
0310
,  // measure 36
0110
0000
0000
0000
0000
0000
0100
0000
0000
1000
0000
0001
0000
0100
0000
0000
0010
0000
0100
0000
0000
0001
0000
0000
,  // measure 37
0011
0000
1001
1000
0020
0000
0100
0130
,  // measure 38
0110
0000
0000
0000
0000
0000
0010
0000
0000
1000
0000
0000
0001
0000
1000
0100
0000
0000
0010
0000
0000
0001
0000
0000
,  // measure 39
0011
0000
0000
1001
0000
0000
1010
0000
0000
1100
0000
0000
1001
0000
0000
0001
,  // measure 40
0100
0000
0000
0101
0000
0000
0110
0000
0000
1001
0000
0000
1010
0000
0000
0010
,  // measure 41
1000
0010
0001
0010
1000
0100
0010
0001
,  // measure 42
1000
0000
0100
0000
0100
0000
0110
0010
0101
0000
0000
0000
1001
0000
0000
0000
,  // measure 43
0110
0000
0010
1000
1001
0000
1100
0000
,  // measure 44
1010
0000
0000
0000
0011
0000
0001
0000
1001
0000
0000
1000
0010
0000
1000
0000
,  // measure 45
0001
0000
0010
0000
1000
0000
0010
0000
0001
0000
0000
0100
0010
0000
0100
0000
,  // measure 46
0001
0000
0010
0100
1000
0000
0001
0000
1001
0000
1000
0000
0010
0000
1000
0000
,  // measure 47
0001
0000
0010
0100
1000
0100
0001
0100
,  // measure 48
1000
0000
0000
0000
0010
0000
0100
0000
0001
0000
0000
0010
0001
0000
1000
0000
,  // measure 49
0010
0000
0000
0000
0001
0000
0000
0000
0010
0000
0000
0000
1000
0000
0000
0000
1010
0000
0000
1000
0000
0000
0001
0000
0010
0000
0001
0000
0020
0000
0030
0000
,  // measure 50
0200
0000
1300
0100
0001
0100
1000
0010
,  // measure 51
0100
0010
0100
0000
0001
0000
0010
0000
1000
0000
0010
0000
0100
0000
1000
0000
,  // measure 52
0100
0010
0100
0000
1000
0000
0001
0000
0100
0000
0001
0000
1000
0000
0100
0000
,  // measure 53
0010
0001
0010
0000
0001
0000
0100
0000
0010
0000
0100
0010
0100
0000
0001
0000
,  // measure 54
1000
0010
0001
0010
0100
0010
1000
0100
,  // measure 55
0010
0100
0010
0000
0001
0000
1000
0000
0010
0000
1000
0000
0001
0000
0010
0000
,  // measure 56
0100
0010
0100
0000
1000
0000
0001
0000
0100
0000
0001
0000
1000
0000
0010
0000
,  // measure 57
1010
0000
0000
1000
0000
0000
0001
0000
0100
0000
0001
0000
0100
0000
0010
0000
1000
0000
0000
0000
0000
0000
0000
0000
0000
0000
0000
0000
0000
0000
0000
0000
;

//---------------dance-single - ----------------
#NOTES:
     dance-single:
     X-Scale 10:
     Medium:
     7:
     0.411276,0.463985,0.363910,0.145564,0.141521,356.000000,311.000000,45.000000,18.000000,0.000000,0.000000,0.411276,0.463985,0.363910,0.145564,0.141521,356.000000,311.000000,45.000000,18.000000,0.000000,0.000000:
// measure 0
0000
0000
0000
0000
,  // measure 1
0000
0000
0000
0000
,  // measure 2
0000
0000
0000
0000
,  // measure 3
0000
0000
0000
0000
,  // measure 4
0001
0000
1000
0010
1000
0000
0100
0000
,  // measure 5
0010
0000
0001
1000
0010
0200
1000
0000
,  // measure 6
0302
0003
1000
0010
1000
0000
0100
0000
,  // measure 7
0010
0000
0001
0100
0001
0000
0010
0100
,  // measure 8
1000
0010
0001
0100
,  // measure 9
1000
0000
0001
0010
0200
0000
0001
0000
,  // measure 10
2300
0100
3002
0023
,  // measure 11
0230
0001
2300
0010
,  // measure 12
3001
0000
1000
0001
0020
0000
0100
0001
,  // measure 13
0130
0000
0010
0000
0001
1000
0001
1000
,  // measure 14
0001
0000
0010
0100
2000
0000
0001
0010
,  // measure 15
3001
0000
0000
0000
0000
0000
1000
0000
0000
0000
0000
0000
0100
0000
1000
0100
0000
0000
0010
0000
0000
0010
0000
0000
,  // measure 16
0010
0000
0000
0001
0000
0000
1000
0000
0000
0001
0000
0000
0010
0000
0000
0100
,  // measure 17
1000
0000
0000
0001
0000
0000
0100
0000
0000
0010
0000
0000
0100
0000
0000
0001
,  // measure 18
1000
0100
0001
0100
0010
0001
1000
0001
,  // measure 19
0100
0000
0000
0110
1001
0000
0110
0000
,  // measure 20
1001
0110
1010
1010
,  // measure 21
0011
0000
0000
0000
0001
0000
1000
0000
1001
0000
0000
1000
0000
0000
0100
0000
,  // measure 22
1000
0000
0001
0000
1000
0000
0010
0000
1000
0000
0000
0100
0000
0000
0010
0000
,  // measure 23
0001
1000
0001
0100
0101
0000
0110
0000
,  // measure 24
1001
0000
1000
0100
1100
0000
1100
0000
,  // measure 25
1001
0000
0000
0000
0100
0000
0001
0000
0101
0000
0000
0001
0000
0000
0010
0000
,  // measure 26
0100
0000
1000
0000
0001
0000
1000
0000
1001
0000
0000
1000
0100
1000
0100
0000
,  // measure 27
1100
0000
0000
0100
0000
0000
1000
0000
0000
0001
0000
0000
0100
0000
0000
0000
,  // measure 28
0001
0000
0000
0010
0000
0000
1000
0000
0000
0100
0000
0000
0001
0000
0000
0000
,  // measure 29
1000
0000
0000
0010
0000
0000
0100
0000
0000
0001
0000
0000
1000
0000
0000
0000
,  // measure 30
0001
0000
0000
0100
0000
0000
0010
0000
0000
0100
0000
0000
0001
0000
0000
0000
,  // measure 31
0010
0100
0010
0001
,  // measure 32
1000
0000
0010
1000
0200
0000
0001
0000
,  // measure 33
2300
0010
3002
0023
,  // measure 34
0230
0001
2300
0010
,  // measure 35
3001
0000
1000
0100
0020
0000
0100
0001
,  // measure 36
0130
0000
0010
0000
0001
1000
0001
1000
,  // measure 37
0001
0000
0100
0010
2000
0000
0010
0100
,  // measure 38
3010
0000
0000
0000
0000
0000
1000
0000
0000
0000
0000
0000
0001
0000
0100
0001
0000
0000
0010
0000
0000
0100
0000
0000
,  // measure 39
1000
0000
0000
0010
0000
0000
0001
0000
0000
0100
0000
0000
1000
0000
0000
0010
,  // measure 40
1000
0000
0000
0100
0000
0000
0001
0000
0000
0010
0000
0000
1000
0000
0000
0001
,  // measure 41
0100
0010
0100
0010
1000
0001
1000
0001
,  // measure 42
0010
0000
0000
0011
1001
0000
0110
0000
,  // measure 43
1001
0110
0011
0011
,  // measure 44
1001
0000
0000
0000
1010
0000
1000
0000
1001
0000
0000
0001
0100
0000
0010
0000
,  // measure 45
1000
0000
0001
0000
0010
0000
0100
0000
1000
0000
0000
0100
0010
0000
0100
0000
,  // measure 46
1000
0001
0100
0001
1000
0000
0100
0010
,  // measure 47
0001
0000
1000
0001
0101
0000
0101
0000
,  // measure 48
1010
0000
0000
0000
1000
0000
0100
0000
0010
0000
0000
0100
1000
0000
0001
0000
,  // measure 49
0010
1000
0010
0100
1000
0001
0000
0001
,  // measure 50
0010
0000
0011
0000
0011
0000
0001
1000
,  // measure 51
1001
0000
1001
0000
0110
0000
0010
1000
,  // measure 52
1010
0000
0000
1000
0001
0000
0010
0000
1000
0000
0010
0000
0001
0000
0010
0000
,  // measure 53
0100
0000
0000
1000
0010
0000
1000
0000
0001
0000
0100
0000
0010
0000
0100
0000
,  // measure 54
0110
0000
0110
0000
0110
0000
0010
1000
,  // measure 55
1010
0000
1010
0000
1100
0000
1000
0001
,  // measure 56
1001
0000
0000
1000
0010
0000
1000
0000
0100
0000
0001
0000
0100
0000
1000
0000
,  // measure 57
1100
0000
0000
0100
0010
0100
0010
0000
0000
0000
0000
0000
0000
0000
0000
0000
;

//---------------dance-single - ----------------
#NOTES:
     dance-single:
     X-Scale 5:
     Easy:
     3:
     0.281886,0.278391,0.056608,0.202172,0.000000,244.000000,237.000000,7.000000,25.000000,0.000000,0.000000,0.281886,0.278391,0.056608,0.202172,0.000000,244.000000,237.000000,7.000000,25.000000,0.000000,0.000000:
// measure 0
0000
0000
0000
0000
,  // measure 1
0000
0000
0000
0000
,  // measure 2
0000
0000
0000
0000
,  // measure 3
0000
0000
0000
0000
,  // measure 4
1000
0100
0010
0001
,  // measure 5
0100
0000
0010
0000
1000
0020
0001
0000
,  // measure 6
2030
3000
0010
0000
1000
0000
0001
0000
,  // measure 7
0010
0001
1000
0100
,  // measure 8
1000
0001
0100
0010
,  // measure 9
1000
0000
0100
0010
0002
0000
0010
0000
,  // measure 10
1003
0010
1000
0001
,  // measure 11
0100
0010
0100
0001
,  // measure 12
1001
0000
1000
0001
0200
0000
0000
0320
,  // measure 13
0030
1000
0001
0010
,  // measure 14
0100
0000
0010
0001
2000
0000
0000
0000
,  // measure 15
3200
0300
1000
0000
0001
0000
0100
0000
,  // measure 16
0001
0000
0010
0100
2000
0000
0000
3002
,  // measure 17
0013
0000
0000
0100
0000
0000
1000
0000
,  // measure 18
0001
0000
1000
0001
0200
0000
0000
0000
,  // measure 19
0301
0000
1002
1000
,  // measure 20
1000
0013
0210
0010
,  // measure 21
1000
0310
0101
0001
,  // measure 22
0001
0010
0100
0000
1000
0000
0010
0000
,  // measure 23
1000
0001
0100
0000
0010
0000
0100
0000
,  // measure 24
0001
0000
1000
0100
0010
0000
0010
0000
,  // measure 25
0001
0000
0010
0100
1000
0000
0001
0000
,  // measure 26
1000
0000
0010
1000
0002
0000
0000
0003
,  // measure 27
0011
0010
0100
1000
,  // measure 28
0010
0000
0100
0000
0001
0020
0100
0000
,  // measure 29
0032
0003
1000
0000
0001
0000
1000
0000
,  // measure 30
0100
0000
0010
0000
0100
0000
1000
0001
,  // measure 31
0100
0010
0100
0001
,  // measure 32
0010
0000
0100
1000
0002
0000
0010
0000
,  // measure 33
1003
0001
0100
0010
,  // measure 34
0100
0001
0010
0100
,  // measure 35
1100
0000
1000
0001
0020
0000
0000
0230
,  // measure 36
0310
0000
0001
0000
1000
0000
0010
1000
,  // measure 37
0001
0000
0010
0100
2000
0000
0010
0000
,  // measure 38
3002
0003
0100
0000
0001
0000
0010
0001
,  // measure 39
1000
0000
0100
0010
0002
0000
0000
2003
,  // measure 40
3001
0000
0000
0010
0000
0000
0100
0010
,  // measure 41
0001
0000
1000
0100
0020
0000
1000
0000
,  // measure 42
0031
0000
1010
1000
,  // measure 43
1000
0001
0100
0100
,  // measure 44
0010
0000
0100
0010
1000
0000
0100
0000
,  // measure 45
1000
0000
0001
0010
0001
0000
1000
0000
,  // measure 46
0010
0000
1000
0001
0100
0000
0100
0000
,  // measure 47
0100
0000
0001
0010
0100
0000
0100
0000
,  // measure 48
1000
0000
0100
0010
0001
0000
1000
0000
,  // measure 49
0010
0000
1000
0001
2000
0000
0000
0000
,  // measure 50
0000
0000
3001
0000
0001
0000
1000
0001
,  // measure 51
1000
0000
0010
0000
1000
0000
0001
0010
,  // measure 52
0100
0000
0010
0000
0001
0000
1000
0010
,  // measure 53
1000
0000
0001
0000
0010
0000
0100
0010
,  // measure 54
0001
0000
0001
0000
0001
0000
1000
0010
,  // measure 55
0100
0000
0100
0000
0001
0000
1000
0001
,  // measure 56
0010
0000
0001
0000
1000
0000
0010
1000
,  // measure 57
0002
0000
0000
0003
0000
0000
0000
0000
;

//---------------dance-single - ----------------
#NOTES:
     dance-single:
     X-Scale 2:
     Beginner:
     2:
     0.122459,0.161333,0.032348,0.000000,0.000000,106.000000,102.000000,4.000000,0.000000,0.000000,0.000000,0.122459,0.161333,0.032348,0.000000,0.000000,106.000000,102.000000,4.000000,0.000000,0.000000,0.000000:
// measure 0
0000
0000
0000
0000
,  // measure 1
0000
0000
0000
0000
,  // measure 2
0000
0000
0000
0000
,  // measure 3
0000
0000
0000
0000
,  // measure 4
1000
0000
0000
0000
,  // measure 5
0100
0000
0000
0000
,  // measure 6
0010
0000
0100
0000
,  // measure 7
1000
0000
0001
0000
,  // measure 8
0100
0000
0000
0000
,  // measure 9
0010
0000
0000
0000
,  // measure 10
1000
0000
0001
0000
,  // measure 11
0100
0000
0001
0000
,  // measure 12
1000
0000
0100
0000
,  // measure 13
0010
0000
0001
0000
,  // measure 14
1000
0000
0010
0000
,  // measure 15
0100
0000
0001
0000
,  // measure 16
1000
0000
0000
0000
,  // measure 17
0001
0000
0000
0000
,  // measure 18
0010
0000
0100
0000
,  // measure 19
1000
0000
1001
0000
,  // measure 20
0001
0000
1000
0000
,  // measure 21
0100
0000
0010
0000
,  // measure 22
0001
0000
1000
0000
,  // measure 23
0001
0000
0010
0010
,  // measure 24
0010
0000
0100
0100
,  // measure 25
0100
0000
1000
0000
,  // measure 26
0001
0000
1001
0000
,  // measure 27
1000
0000
0000
0000
,  // measure 28
0010
0000
0000
0000
,  // measure 29
0100
0000
0001
0000
,  // measure 30
0010
0000
0100
0000
,  // measure 31
1000
0000
0000
0000
,  // measure 32
0010
0000
0000
0000
,  // measure 33
1000
0000
0001
0000
,  // measure 34
0100
0000
0001
0000
,  // measure 35
1000
0000
0010
0000
,  // measure 36
1000
0000
0001
0000
,  // measure 37
0010
0000
0100
0000
,  // measure 38
0010
0000
0001
0000
,  // measure 39
1000
0000
0000
0000
,  // measure 40
0100
0000
0000
0000
,  // measure 41
0010
0000
0001
0000
,  // measure 42
1000
0000
1001
0000
,  // measure 43
0010
0000
1000
0000
,  // measure 44
0001
0000
0010
0000
,  // measure 45
0001
0000
1000
0000
,  // measure 46
0100
0000
1000
1000
,  // measure 47
1000
0000
0001
0001
,  // measure 48
0001
0000
0100
0000
,  // measure 49
0001
0000
1000
0000
,  // measure 50
0000
1001
0001
0000
,  // measure 51
0010
0010
0010
0000
,  // measure 52
0001
0000
1000
0000
,  // measure 53
0010
0000
1000
0000
,  // measure 54
0100
0100
0100
0000
,  // measure 55
0010
0010
0010
0000
,  // measure 56
0001
0000
1000
0000
,  // measure 57
0001
0000
0000
0000
;
