#VERSION:0.83;
#TITLE:Người Lạ Ơi;
#SUBTITLE:(Solo Version);
#ARTIST:Superbrothers x Orange;
#TITLETRANSLIT:Nguoi La Oi;
#SUBTITLETRANSLIT:;
#ARTISTTRANSLIT:;
#GENRE:V-Pop;
#ORIGIN:;
#CREDIT:;
#BANNER:Nguoi La Oi (Solo Version)-bn.png;
#BACKGROUND:Nguoi La Oi (Solo Version)-bg.png;
#PREVIEWVID:;
#JACKET:Nguoi La Oi (Solo Version)-jacket.png;
#CDIMAGE:;
#DISCIMAGE:;
#LYRICSPATH:;
#CDTITLE:cdtitle.png;
#MUSIC:Nguoi La Oi (Solo Version).ogg;
#OFFSET:-0.009000;
#SAMPLESTART:36.192001;
#SAMPLELENGTH:29.313000;
#SELECTABLE:YES;
#BPMS:0.000=131.000;
#STOPS:;
#DELAYS:;
#WARPS:;
#TIMESIGNATURES:0.000=4=4;
#TICKCOUNTS:0.000=4;
#COMBOS:0.000=1;
#SPEEDS:0.000=1.000=0.000=0;
#SCROLLS:0.000=1.000;
#FAKES:;
#LABELS:0.000=Song Start;
#BGCHANGES:-0.209=Nguoi La Oi (Solo Version).avi=1.000=1=0=0=StretchNoLoop==CrossFade==,
99999=-nosongbg-=1.000=0=0=0 // don't automatically add -songbackground-
;
#KEYSOUNDS:;
#ATTACKS:
;

//---------------dance-single - ----------------
#NOTEDATA:;
#CHARTNAME:X-Scale 12;
#STEPSTYPE:dance-single;
#DESCRIPTION:;
#CHARTSTYLE:;
#DIFFICULTY:Hard;
#METER:8;
#RADARVALUES:0.491201,0.609713,0.093562,0.210515,0.214413,441.000000,429.000000,12.000000,27.000000,0.000000,0.000000,0.000000,0.000000,0.000000,0.491201,0.609713,0.093562,0.210515,0.214413,441.000000,429.000000,12.000000,27.000000,0.000000,0.000000,0.000000,0.000000,0.000000;
#CREDIT:iamthek3n;
#NOTES:
// measure 0
0000
0000
0000
0000
,  // measure 1
0000
0000
0000
0000
,  // measure 2
0000
0000
0000
0000
,  // measure 3
0000
0000
0000
0000
,  // measure 4
1000
0010
0100
0010
0001
0010
0100
0010
,  // measure 5
2000
0000
3200
0000
0320
0000
0030
0001
,  // measure 6
0100
0000
0001
0000
1000
0010
0100
0002
,  // measure 7
1000
0000
0000
0013
0000
0000
0001
0000
,  // measure 8
0010
0100
1000
0001
0100
0010
0100
0001
,  // measure 9
0020
0000
0230
0000
2300
0000
3000
0100
,  // measure 10
0010
0000
0100
0000
1000
0001
0100
0020
,  // measure 11
0001
0000
0000
1030
0000
0000
0010
1000
,  // measure 12
0001
0000
0100
0001
0101
0000
0001
0000
,  // measure 13
1000
0000
0010
1000
1010
0000
1000
0001
,  // measure 14
0010
0000
0001
0000
1000
0010
0100
0002
,  // measure 15
0010
0000
1000
0003
1001
0000
1000
0100
,  // measure 16
1000
0000
0001
0100
0101
0000
0001
0010
,  // measure 17
0100
0000
1000
0100
1100
0000
0000
1000
,  // measure 18
0001
0000
0100
0000
0001
0010
0100
2000
,  // measure 19
0010
0000
0001
0020
3000
0000
0031
0010
,  // measure 20
1010
0000
0000
0000
0000
0000
1000
0010
1000
0000
0001
0000
0100
0000
0001
0000
,  // measure 21
2000
0010
0000
0010
3010
0000
1000
1000
,  // measure 22
0100
0000
0000
0010
0000
0000
0001
0000
0000
0000
0100
0000
0010
0000
0100
0000
,  // measure 23
0001
0000
0000
0010
0000
0000
0100
0000
0000
0000
0000
0000
1000
0000
0010
0000
,  // measure 24
1000
0000
0000
0000
0000
0000
0001
0100
0001
0000
1000
0000
0010
0000
0100
0000
,  // measure 25
0002
1000
0000
1000
1003
0000
0100
0010
,  // measure 26
0001
0000
0000
1000
0000
0000
0010
0000
0000
0000
0100
0000
0010
0000
0100
0000
,  // measure 27
0001
0000
0000
0010
0000
0000
0100
0000
0000
0000
0000
0000
1000
0000
0001
0000
,  // measure 28
1001
0000
1000
0010
1000
0001
0010
0100
,  // measure 29
1000
0000
0100
0010
0100
0000
1000
0000
0001
0000
0000
0100
0001
0000
1000
0000
,  // measure 30
0001
0000
0000
0010
0100
0000
0010
0000
0001
0000
1000
0000
0010
0000
1000
0000
,  // measure 31
0001
0000
0000
0100
0010
0000
0100
0000
0001
0000
0000
1000
0010
0000
1000
0000
,  // measure 32
0001
0000
0010
0001
0010
0000
0100
0000
1000
0000
0010
0000
0001
0000
0010
0000
,  // measure 33
1000
0000
0100
0010
0100
0000
0000
1000
0100
0000
1000
0000
0001
0000
0000
0100
,  // measure 34
0001
0100
0010
1000
0100
0010
0100
1000
,  // measure 35
0001
0000
0000
0010
0000
0000
0200
0000
0000
0000
0000
0000
2300
0000
0000
0000
,  // measure 36
3001
1000
0010
1000
0000
0100
0000
0000
,  // measure 37
0010
0001
1000
0010
0000
1000
0000
0000
,  // measure 38
0001
0010
0100
1000
0000
0000
0000
0000
,  // measure 39
0001
1000
0100
0010
0000
0000
0001
0000
,  // measure 40
0001
0000
0000
0010
0000
0000
1000
0000
0000
0100
0000
0000
0001
0000
0000
0000
,  // measure 41
1000
0000
0000
0010
0000
0000
0001
0000
0000
0100
0000
0100
1000
0000
0000
0000
,  // measure 42
0002
0023
2030
3200
,  // measure 43
0302
0000
2000
0000
0000
3000
1003
0001
,  // measure 44
1001
0000
0000
0000
0000
0000
1000
0100
1000
0000
0010
0000
0100
0000
0010
0000
,  // measure 45
2000
0100
0000
0100
3001
0000
1000
0010
,  // measure 46
1000
0000
0000
0100
0000
0000
1000
0000
0001
0000
0010
0000
1000
0000
0010
0000
,  // measure 47
0001
0000
0000
0100
0000
0000
0001
0000
1000
0000
0000
0000
0010
0000
1000
0000
,  // measure 48
1001
0000
0000
0000
0001
0000
0100
0001
1000
0000
0010
0000
0100
0000
0001
0000
,  // measure 49
0020
0100
0000
0100
0031
0000
0010
0001
,  // measure 50
1000
0000
0000
0010
0000
0000
1000
0000
0001
0000
0100
0000
0001
0000
1000
0000
,  // measure 51
0100
0000
0000
0010
0000
0000
0001
0000
1000
0000
0000
0000
0100
0000
0010
0000
,  // measure 52
0011
0000
0000
0000
1000
0000
0001
1000
0001
0000
1000
0000
0010
0000
0100
0000
,  // measure 53
0010
0000
0001
0010
0100
0000
0001
0000
1000
0000
0000
0010
0100
0000
0001
0000
,  // measure 54
1000
0000
0000
0010
0100
0000
0010
0000
1000
0000
0001
0000
0001
0000
1000
0000
,  // measure 55
1000
0000
0000
0100
0010
0000
0100
0000
1000
0000
0000
0001
0100
0000
0010
0100
,  // measure 56
0010
0000
0000
1000
0100
0000
1000
0001
1000
0000
0100
0000
0010
0000
0001
0000
,  // measure 57
1000
0000
0010
1000
0001
0000
0010
0100
0010
0000
0001
0010
0001
0000
1000
0001
,  // measure 58
1000
0001
1000
0001
0010
0100
0010
0100
,  // measure 59
2000
0000
3000
0200
0000
0300
0020
0000
0000
0000
0000
0000
0001
0000
0030
0000
,  // measure 60
0011
0000
0001
0000
0010
0000
0001
0000
1000
0000
1000
0000
0000
0000
0010
1000
,  // measure 61
0010
0000
0100
0000
0010
0000
0100
0000
0001
0000
0001
0000
0000
0000
0010
0100
,  // measure 62
1000
0000
0001
1000
0010
0000
0100
0010
1000
0000
1000
0000
0001
0000
0100
0001
,  // measure 63
1000
0000
0100
0010
0001
0000
0100
0001
1000
0000
1000
0000
0010
0000
0100
0000
,  // measure 64
0110
0000
0010
0000
0100
0000
0001
0000
0010
0000
0010
0000
0000
0000
0001
0010
,  // measure 65
0001
0000
1000
0000
0010
0000
1000
0000
0100
0000
0100
0000
0000
0000
0010
0100
,  // measure 66
1000
0000
0001
1000
0010
0000
0100
0010
1000
0000
1000
0000
0100
0000
0010
0001
,  // measure 67
1000
0000
0100
0001
1000
0000
0010
0100
0001
0000
0001
0000
0020
0000
0100
0000
,  // measure 68
0030
0000
0000
0000
;

//---------------dance-single - ----------------
#NOTEDATA:;
#CHARTNAME:X-Scale 10;
#STEPSTYPE:dance-single;
#DESCRIPTION:;
#CHARTSTYLE:;
#DIFFICULTY:Medium;
#METER:7;
#RADARVALUES:0.407664,0.477167,0.085765,0.187124,0.109156,366.000000,355.000000,11.000000,24.000000,0.000000,0.000000,0.000000,0.000000,0.000000,0.407664,0.477167,0.085765,0.187124,0.109156,366.000000,355.000000,11.000000,24.000000,0.000000,0.000000,0.000000,0.000000,0.000000;
#CREDIT:iamthek3n;
#NOTES:
// measure 0
0000
0000
0000
0000
,  // measure 1
0000
0000
0000
0000
,  // measure 2
0000
0000
0000
0000
,  // measure 3
0000
0000
0000
0000
,  // measure 4
1000
0100
1000
0010
0000
1000
0000
0000
,  // measure 5
0001
0100
0001
1000
0000
0100
0000
0000
,  // measure 6
0010
0100
1000
0002
0000
0000
0000
0003
,  // measure 7
0100
0001
1000
0020
0000
0000
2000
0030
,  // measure 8
3010
1000
0001
0010
0000
0100
0000
0000
,  // measure 9
1000
0100
0010
0001
0000
1000
0000
0000
,  // measure 10
0001
0100
0010
0200
0000
0000
0000
0300
,  // measure 11
0001
0010
0100
2000
0000
0000
0002
3000
,  // measure 12
0013
0100
1100
1000
,  // measure 13
0001
0100
0101
0001
,  // measure 14
0010
0000
0001
0000
1001
1000
0001
2000
,  // measure 15
0100
0000
0001
3000
1010
0000
1000
0001
,  // measure 16
0100
0010
0110
0100
,  // measure 17
0001
1000
1100
0100
,  // measure 18
0010
0000
0001
0000
0011
0010
0100
2000
,  // measure 19
0001
0000
0010
3000
1001
0000
1000
0010
,  // measure 20
1010
0000
0000
1000
0001
1000
0000
0100
,  // measure 21
0010
0001
0000
0001
0100
0000
0001
1000
,  // measure 22
0001
0000
0000
0010
0000
0000
0100
0000
1000
0000
0000
0000
0001
0000
0000
0000
,  // measure 23
1000
0000
0000
0100
0000
0000
0010
0000
0001
0000
0000
0000
0100
0000
0001
0000
,  // measure 24
1000
0000
0000
0010
1000
0001
0000
0001
,  // measure 25
0010
0100
0000
0100
1000
0000
0001
1000
,  // measure 26
0001
0000
0000
1000
0000
0000
0100
0000
1000
0000
0000
0000
0010
0000
0000
0000
,  // measure 27
0001
0000
0000
0100
0000
0000
1000
0000
0100
0000
0000
0000
0010
0000
0100
0000
,  // measure 28
1000
0000
0000
0001
0100
0001
1000
0100
,  // measure 29
0010
0000
0001
0100
0001
0000
0010
0100
,  // measure 30
1000
0000
0000
0010
1000
0000
0001
0000
0100
0000
0010
0000
0001
0000
0010
0000
,  // measure 31
1000
0000
0000
0100
1000
0000
0001
0000
0100
0000
0000
0000
0001
0000
0010
0000
,  // measure 32
0100
0000
0000
1000
0010
0100
0001
1000
,  // measure 33
0001
0100
0000
0100
1000
0000
0010
0000
,  // measure 34
1000
0000
0000
0100
0000
0000
0010
0000
0001
0000
1000
0000
0001
0000
0010
0000
,  // measure 35
0001
0000
0000
0100
0000
0000
0020
0000
0000
0000
0000
0000
0230
0000
0000
0000
,  // measure 36
0302
0000
0000
2003
3000
2000
0000
0000
,  // measure 37
0000
0000
0000
3000
0000
0000
0000
0100
,  // measure 38
0020
0000
0000
0000
,  // measure 39
0032
0000
0000
0003
,  // measure 40
1000
0000
0000
0010
0000
0000
1000
0000
0000
0010
0000
0000
1000
0000
0000
0000
,  // measure 41
0001
0000
0000
0010
0000
0000
0001
0000
0000
0010
0000
0000
0001
0000
0000
0000
,  // measure 42
2000
3200
0302
0023
,  // measure 43
2030
0000
0000
0000
0000
0000
3001
1000
,  // measure 44
1001
0000
0000
0001
0100
0010
0100
0001
,  // measure 45
1000
0100
0000
0100
0001
0000
1000
0010
,  // measure 46
1000
0000
0000
0001
0000
0000
0100
0000
0010
0000
1000
0000
0001
0000
0010
0000
,  // measure 47
0100
0000
0000
0010
0000
0000
0001
0000
1000
0000
0000
0000
0010
0000
1000
0000
,  // measure 48
0001
0000
0000
0010
0100
1000
0001
0010
,  // measure 49
0001
0100
0000
0100
1000
0000
0010
1000
,  // measure 50
0001
0000
0000
0100
0000
0000
0001
0000
1000
0000
0010
0000
1000
0000
0100
0000
,  // measure 51
0010
0000
0000
0001
0000
0000
0100
0000
0001
0000
0000
0000
0010
0000
0100
0000
,  // measure 52
1000
0000
0000
0010
1000
0100
0001
0100
,  // measure 53
1000
0001
0000
0001
1000
0000
0010
1000
,  // measure 54
0001
0000
0000
0010
0000
0000
0001
0000
0100
0000
1000
0000
0100
0000
0001
0000
,  // measure 55
1000
0000
0000
0100
0000
0000
1000
0000
0001
0000
0000
0000
0100
0000
0001
0000
,  // measure 56
0010
0000
0100
1000
0010
0100
0001
1000
,  // measure 57
0100
0000
2000
0000
0000
3002
0000
0000
0203
0000
0000
0000
1000
0000
0000
0000
,  // measure 58
0301
0100
0010
1000
0100
0001
0100
1000
,  // measure 59
0001
0000
0000
0010
0000
0000
0200
0000
0000
0000
0000
0000
0000
0000
0300
0000
,  // measure 60
1100
0000
0100
0000
1000
0000
0001
0000
0010
0000
0001
0000
0000
0000
1000
0001
,  // measure 61
1000
0000
0100
0000
0001
0000
0100
0000
1000
0000
0001
0000
0000
0000
0100
0010
,  // measure 62
0100
0000
0001
0000
1000
0000
0100
0000
1000
0000
0001
0000
0000
0000
0010
0001
,  // measure 63
0010
0000
0100
0000
1000
0000
0001
0000
0100
0000
0010
0000
0000
0000
1000
0010
,  // measure 64
1000
0000
0001
0000
0010
0000
1000
0000
0010
0000
0001
0000
0000
0000
0100
0001
,  // measure 65
0100
0000
0010
0000
1000
0000
0001
0000
0010
0000
0100
0000
0000
0000
1000
0100
,  // measure 66
1000
0000
0001
0000
0100
0000
0001
0000
1000
0000
0001
0000
0000
0000
0010
0100
,  // measure 67
0010
0000
0001
0000
1000
0000
0100
0000
1000
0000
0010
0000
0000
0000
1000
0010
,  // measure 68
1000
0000
0000
0000
;

//---------------dance-single - ----------------
#NOTEDATA:;
#CHARTNAME:X-Scale 6;
#STEPSTYPE:dance-single;
#DESCRIPTION:;
#CHARTSTYLE:;
#DIFFICULTY:Easy;
#METER:4;
#RADARVALUES:0.265093,0.317527,0.031187,0.046781,0.000000,238.000000,234.000000,4.000000,6.000000,0.000000,0.000000,0.000000,0.000000,0.000000,0.265093,0.317527,0.031187,0.046781,0.000000,238.000000,234.000000,4.000000,6.000000,0.000000,0.000000,0.000000,0.000000,0.000000;
#CREDIT:iamthek3n;
#NOTES:
// measure 0
0000
0000
0000
0000
,  // measure 1
0000
0000
0000
0000
,  // measure 2
0000
0000
0000
0000
,  // measure 3
0000
0000
0000
0000
,  // measure 4
0001
0000
1000
0000
,  // measure 5
0100
0010
0100
0000
,  // measure 6
1000
0000
0001
0000
,  // measure 7
0100
0000
0000
0001
0000
0000
0000
0000
,  // measure 8
1000
0000
0010
0000
,  // measure 9
1000
0100
1000
0000
,  // measure 10
0001
0000
0010
0000
,  // measure 11
0100
0000
0000
1000
0000
0000
0000
0000
,  // measure 12
0001
0100
0010
0100
,  // measure 13
0001
0100
0010
0100
,  // measure 14
0001
1000
0100
1000
,  // measure 15
0001
1000
0100
1000
,  // measure 16
0001
0010
0100
0010
,  // measure 17
0001
0010
0100
0010
,  // measure 18
0001
1000
0010
1000
,  // measure 19
0001
1000
0010
0000
,  // measure 20
1001
0000
0000
1000
0100
1000
0000
0000
,  // measure 21
0000
0001
0000
0001
0100
0000
0010
0000
,  // measure 22
1000
0000
0000
0100
0000
0000
1000
0000
,  // measure 23
0001
0000
0000
0100
0000
0000
0001
0000
,  // measure 24
0010
0000
0000
0100
1000
0100
0000
0000
,  // measure 25
0000
0010
0000
0010
0001
0000
1000
0000
,  // measure 26
0100
0000
0000
1000
0000
0000
0001
0000
,  // measure 27
0100
0000
0000
0001
0000
0000
1000
0000
,  // measure 28
1001
0000
0000
1000
0010
1000
0000
0000
,  // measure 29
0000
0001
0000
0001
0100
0000
0010
0000
,  // measure 30
1000
0000
0000
0100
0000
0000
0010
0000
,  // measure 31
0001
0000
0000
1000
0000
0000
0010
0000
,  // measure 32
0100
0000
0000
0001
1000
0001
0000
0000
,  // measure 33
0000
0010
0000
0010
0100
0000
1000
0000
,  // measure 34
0001
0000
0000
0100
0000
0000
0001
0000
,  // measure 35
1000
0000
0000
0100
0000
0000
1000
0000
,  // measure 36
0010
0000
0000
1000
0000
0001
0000
0000
,  // measure 37
0100
0000
0000
0001
0000
0010
0000
0000
,  // measure 38
0100
0000
0000
1000
0000
0000
0000
0000
,  // measure 39
0010
0000
0000
0100
0000
0000
0001
0000
,  // measure 40
0010
0000
0000
0001
0000
0000
1000
0000
,  // measure 41
0010
0000
0000
1000
0000
0000
0001
0000
,  // measure 42
2000
3002
0203
0302
,  // measure 43
2003
0000
0000
0000
0000
0000
3001
1000
,  // measure 44
1001
0000
0000
1000
0010
1000
0000
0001
,  // measure 45
0000
0010
0000
0010
0100
0000
1000
0100
,  // measure 46
1000
0000
0000
0010
1000
0000
0001
0000
,  // measure 47
0100
0000
0000
0001
0010
0000
0001
0000
,  // measure 48
1000
0000
0000
0100
0010
0100
0000
1000
,  // measure 49
0000
0001
0000
0001
0100
0000
0010
0000
,  // measure 50
1000
0000
0000
0100
0010
0000
0001
0000
,  // measure 51
1000
0000
0000
0010
1000
0000
0001
0000
,  // measure 52
1000
0000
0000
0100
0010
0100
0000
1000
,  // measure 53
0000
0001
0100
0001
1000
0000
0100
0000
,  // measure 54
0010
0000
0000
0100
1000
0000
0001
0000
,  // measure 55
1000
0000
0000
0001
0010
0000
0001
0000
,  // measure 56
0100
0000
0000
0010
0100
0010
0000
1000
,  // measure 57
0000
0001
0000
0001
1000
0000
0100
0010
,  // measure 58
0100
0000
0000
1000
0010
0000
1000
0000
,  // measure 59
0001
0000
0000
0020
0000
0000
0000
0030
,  // measure 60
0011
0000
0001
0000
0010
0001
0000
0000
,  // measure 61
1000
0000
0010
0000
1000
0010
0000
0000
,  // measure 62
0100
0000
0001
0000
0010
0001
0000
1000
,  // measure 63
0010
0000
1000
0000
0001
0100
0000
0001
,  // measure 64
1000
0000
0010
0000
0100
0010
0000
0000
,  // measure 65
1000
0000
0001
0000
0010
0001
0000
0000
,  // measure 66
1000
0000
0010
0000
0100
0010
0000
1000
,  // measure 67
0100
0000
1000
0000
0001
0010
0000
0001
;

//---------------dance-single - ----------------
#NOTEDATA:;
#CHARTNAME:X-Scale 2;
#STEPSTYPE:dance-single;
#DESCRIPTION:;
#CHARTSTYLE:;
#DIFFICULTY:Beginner;
#METER:2;
#RADARVALUES:0.109156,0.159056,0.023391,0.000000,0.000000,98.000000,95.000000,3.000000,0.000000,0.000000,0.000000,0.000000,0.000000,0.000000,0.109156,0.159056,0.023391,0.000000,0.000000,98.000000,95.000000,3.000000,0.000000,0.000000,0.000000,0.000000,0.000000,0.000000;
#CREDIT:iamthek3n;
#NOTES:
// measure 0
0000
0000
0000
0000
,  // measure 1
0000
0000
0000
0000
,  // measure 2
0000
0000
0000
0000
,  // measure 3
0000
0000
0000
0000
,  // measure 4
1000
0000
0000
0000
,  // measure 5
0100
0000
0000
0000
,  // measure 6
0010
0000
0000
0000
,  // measure 7
0001
0000
0000
0000
,  // measure 8
0100
0000
0000
0000
,  // measure 9
0010
0000
0000
0000
,  // measure 10
1000
0000
0000
0000
,  // measure 11
0001
0000
0000
0000
,  // measure 12
0010
0000
0001
0000
,  // measure 13
1000
0000
0001
0000
,  // measure 14
0010
0000
0001
0000
,  // measure 15
1000
0000
0001
0000
,  // measure 16
0100
0000
0001
0000
,  // measure 17
1000
0000
0001
0000
,  // measure 18
0100
0000
0001
0000
,  // measure 19
1000
0000
0010
0000
,  // measure 20
1001
0000
1000
0000
,  // measure 21
0100
0000
1000
0000
,  // measure 22
0001
0000
0010
0000
,  // measure 23
0001
0000
1000
0000
,  // measure 24
0001
0000
0100
0000
,  // measure 25
0010
0000
0100
0000
,  // measure 26
0001
0000
1000
0000
,  // measure 27
0100
0000
0010
0000
,  // measure 28
0001
0000
1000
0000
,  // measure 29
0001
0000
0010
0000
,  // measure 30
0100
0000
1000
0000
,  // measure 31
0010
0000
0100
0000
,  // measure 32
0010
0000
1000
0000
,  // measure 33
0001
0000
0100
0000
,  // measure 34
0010
0000
1000
0000
,  // measure 35
0001
0000
0000
0000
,  // measure 36
1000
0000
0000
0000
,  // measure 37
0100
0000
0000
0000
,  // measure 38
0010
0000
0000
0000
,  // measure 39
0001
0000
0000
0000
,  // measure 40
0100
0000
0000
0000
,  // measure 41
0010
0000
0000
0000
,  // measure 42
1000
0000
0000
0000
,  // measure 43
0001
0000
0000
0000
,  // measure 44
1001
0000
1000
0000
,  // measure 45
0000
0000
0001
0000
,  // measure 46
0100
0000
0001
0000
,  // measure 47
0000
0000
1000
0000
,  // measure 48
0010
0000
1000
0000
,  // measure 49
0000
0000
0100
0000
,  // measure 50
0010
0000
0100
0000
,  // measure 51
0000
0000
1000
0000
,  // measure 52
0001
0000
1000
0000
,  // measure 53
0000
0000
0001
0000
,  // measure 54
0010
0000
0001
0000
,  // measure 55
0000
0000
0100
0000
,  // measure 56
0010
0000
0100
0000
,  // measure 57
0000
0000
0001
0000
,  // measure 58
1000
0000
0001
0000
,  // measure 59
0000
0000
0000
0000
,  // measure 60
1001
0000
0000
0000
,  // measure 61
1000
0000
0000
0000
,  // measure 62
0100
0000
0000
0000
,  // measure 63
1000
0000
0000
0000
,  // measure 64
0001
0000
0000
0000
,  // measure 65
0100
0000
0000
0000
,  // measure 66
0001
0000
0000
0000
,  // measure 67
0010
0000
0000
0000
,  // measure 68
0001
0000
0000
0000
;
