#TITLE:Never Give Up on You (7th Heaven Club Mix);
#SUBTITLE:;
#ARTIST:Lucie Jones;
#TITLETRANSLIT:;
#SUBTITLETRANSLIT:;
#ARTISTTRANSLIT:;
#GENRE:House;
#CREDIT:;
#BANNER:Never Give Up On You (7th Heaven Club Mix)-bn.png;
#BACKGROUND:Never Give Up On You (7th Heaven Club Mix)-bg.png;
#LYRICSPATH:;
#CDTITLE:cdtitle.png;
#MUSIC:Never Give Up on You (7th Heaven Club Mix).ogg;
#OFFSET:-0.021000;
#SAMPLESTART:44.664001;
#SAMPLELENGTH:29.761999;
#SELECTABLE:YES;
#BPMS:0.000000=129.022995
;
#STOPS:
;
#BGCHANGES:;
#KEYSOUNDS:;
#ATTACKS:;

//---------------dance-single - ----------------
#NOTES:
     dance-single:
     X-Scale 11:
     Hard:
     8:
     0.425363,0.632728,0.072371,0.330838,0.232621,288.000000,281.000000,7.000000,32.000000,0.000000,0.000000,0.425363,0.632728,0.072371,0.330838,0.232621,288.000000,281.000000,7.000000,32.000000,0.000000,0.000000:
0000
0000
0000
0000
,
0000
0000
0000
0000
,
0000
0000
0000
0000
,
0000
0000
0000
0000
,
1000
0100
1000
0001
0200
0000
0320
0000
,
0000
0031
0010
1000
0002
0000
0003
0000
,
1001
1000
0100
0001
0020
0000
2030
0000
,
3010
1000
0001
1000
0200
0000
0300
0000
,
0210
0000
0000
0320
0000
0000
0032
0000
,
0000
0003
0000
2000
,
3020
0000
0000
0230
0000
0000
0302
0000
,
0000
0000
1000
0000
1000
0000
0010
0000
0013
0000
0001
0000
0001
0000
1000
0001
,
1000
0100
0001
0100
0020
0000
0230
0000
,
0000
1300
0100
0010
0002
0000
0003
0000
,
1001
1000
0001
0100
0020
0000
0230
0000
,
0301
0100
1000
0100
0002
0000
1003
0000
,
1001
0000
1000
0001
0010
0000
0200
0000
,
0001
0010
1300
0100
,
1100
0000
1000
0001
0100
0000
0020
0000
,
0000
0000
0100
0000
0100
0000
1000
0000
1030
0000
0010
0000
0010
0000
1000
0001
,
2000
0000
0000
3100
0020
0000
0000
0031
,
0020
0000
0000
0130
2000
0000
0000
3000
,
2001
0000
0000
3001
0200
0000
0000
0310
,
1000
0000
0001
0000
1000
0000
0001
0000
0010
0000
0100
0000
0010
0000
0100
0010
,
0100
0000
0000
0000
0000
0000
2000
0000
0000
0000
0000
0000
3000
0001
0000
0000
,
0100
0000
0000
0001
0000
0000
1000
0000
0100
0000
0000
0000
0010
0000
0000
0000
,
0001
0000
1000
0000
0010
0000
0000
0000
1000
0000
0001
0000
0000
0010
0000
0000
,
0001
0000
1000
0010
1000
0000
0100
0000
,
0010
0001
0010
0001
1000
0010
1000
0010
,
0100
0001
0100
0001
0010
0100
0010
0100
,
2000
0000
0010
0000
0100
0000
3001
0001
,
1000
0000
0000
0010
0000
0000
1000
0000
0100
0000
0000
0000
0010
0000
0001
0000
,
1001
0000
0000
1000
0100
0000
1000
0000
0001
0000
1000
0000
0010
1000
0000
0000
,
0001
0000
0000
0010
0100
0000
0010
0000
0100
0000
1000
0000
0001
0100
0000
0000
,
0001
0000
0000
1000
0010
0000
1000
0000
0001
0000
0100
0000
0001
0100
0000
0000
,
0010
0000
0000
1000
0100
0000
1000
0000
0001
0000
0100
0000
0010
0100
0000
0000
,
0001
0000
0000
0010
0001
0000
1000
0000
0100
0000
0010
0000
0001
0010
0000
0000
,
0001
0000
0000
0100
0000
0000
0010
0000
0100
0000
0000
0001
0000
0000
1000
0000
,
0200
0000
0000
0010
0000
0000
0310
0000
0000
0000
0100
0000
1000
0000
0001
0000
,
0100
0000
0000
0001
0000
0000
1000
0000
0100
1000
0001
1000
0010
1000
0001
0010
,
0001
0000
0000
0100
0010
0000
1000
0000
0001
0000
0100
0000
0010
0100
0000
0000
,
0001
0000
0000
0010
0001
0000
1000
0000
0010
0000
1000
0000
0001
0010
0000
0000
,
0001
0000
0000
0100
0010
0000
0100
0000
0001
0000
0010
0000
0001
1000
0000
0000
,
0100
0000
0000
1000
0000
0000
0001
0000
0100
0000
0000
0010
0100
0000
0010
0000
,
1000
0000
0001
0000
0010
0000
0001
0000
1000
0000
0010
0000
0100
0010
0000
0000
,
1000
0000
0000
0001
0010
0000
0001
0000
1000
0000
0001
0000
0010
0100
0000
0000
,
1000
0000
0000
0100
1000
0000
0001
0000
0010
0000
0001
0000
1000
0100
0000
0000
,
1000
0000
0001
0010
0001
0010
0001
0010
0001
0010
0100
0010
0100
0010
0100
0010
,
0200
2000
0000
0000
,
0000
0000
3000
0000
,
0000
0000
0000
0000
,
0300
0000
0000
0000
;

//---------------dance-single - ----------------
#NOTES:
     dance-single:
     X-Scale 9:
     Medium:
     6:
     0.311638,0.358236,0.062032,0.361854,0.108556,211.000000,205.000000,6.000000,35.000000,0.000000,0.000000,0.311638,0.358236,0.062032,0.361854,0.108556,211.000000,205.000000,6.000000,35.000000,0.000000,0.000000:
0000
0000
0000
0000
,
0000
0000
0000
0000
,
0000
0000
0000
0000
,
0000
0000
0000
0000
,
1001
0000
2000
3020
,
0000
0031
0010
1000
0002
0000
0003
0000
,
0010
0000
0002
2003
,
3100
1000
0001
0100
0020
0000
0030
0000
,
2000
0000
0000
3200
0000
0000
0320
0000
,
0000
0000
0030
0002
,
0203
0000
0000
0320
0000
0000
2030
0000
,
0000
0000
3001
0000
,
1001
0000
0100
1000
0002
0000
0023
0000
,
0000
1030
0010
0001
2000
0000
3000
0000
,
0010
1000
0001
0010
0002
0000
0203
0000
,
1300
0100
0010
0100
0002
0000
0023
0000
,
0230
0000
0000
2300
0000
0000
3002
0000
,
0100
1000
0203
0320
,
2030
0000
0000
3200
0000
0000
0320
0000
,
0100
0000
0001
0000
0130
0010
0001
1000
,
0001
0000
0000
0010
0100
0000
0000
1000
,
0010
0000
0000
0100
0001
0000
1000
0000
,
0001
0000
0000
0010
0100
0000
0000
1000
,
0010
0100
0001
0010
0100
0010
0001
1000
,
1001
0000
0000
0000
0000
0000
2000
0000
0000
0000
0000
0000
3100
0000
0000
1000
,
0000
0001
0000
0100
0010
0000
1000
0000
,
0001
0010
0100
0010
,
0001
0000
1000
0010
1000
0000
0001
0000
,
0010
0002
1000
0000
0013
0000
0100
1000
,
0001
0000
0000
0010
0000
0000
0001
0000
1000
0000
0000
0100
0000
0000
2000
0000
,
0000
3020
0000
0000
0030
0000
0000
0100
,
0001
0000
0000
0010
0000
0000
0001
0000
1000
0000
0000
0000
0100
0000
1000
0000
,
1100
0000
0200
0000
0310
0100
1000
0000
,
0001
0000
0100
0001
1000
0000
0010
0000
,
0100
0000
0001
0010
0001
0000
0010
0000
,
0100
0000
1000
0100
1000
0000
0010
0000
,
0100
0000
0001
0010
0100
0000
0010
0001
,
1000
0000
0000
0100
0000
0000
1000
0000
0001
0000
0000
0100
0000
0000
0001
0000
,
0020
0000
0130
0010
0001
0000
1000
0001
,
0100
0000
0000
0001
0000
0000
0010
0000
0100
0000
0000
0000
1000
0000
0010
0000
,
1001
0000
0000
0001
0000
0000
0001
0000
0000
0000
0010
0000
0000
0100
0000
0000
,
1000
0000
0000
1000
0000
0000
1000
0000
0000
0000
0010
0000
0000
1000
0000
0000
,
0100
0000
0000
0100
0000
0000
0100
0000
0000
0000
0010
0000
0000
0001
0000
0000
,
1000
0000
0000
0001
0000
0000
0010
0000
0100
0000
0000
0000
1000
0000
0010
0000
,
1000
0000
0000
1000
0000
0000
1000
0000
0000
0000
0100
0000
0000
0010
0000
0000
,
0001
0000
0000
0001
0000
0000
0001
0000
0000
0000
0100
0000
0000
0001
0000
0000
,
0010
0000
0000
0010
0000
0000
0010
0000
0000
0000
0100
0000
0000
1000
0000
0000
,
0001
0000
0000
0100
0000
0000
0001
0000
1000
0000
0000
0000
0100
0000
0010
0000
,
0101
0002
0000
0000
,
0000
0000
0003
0000
;

//---------------dance-single - ----------------
#NOTES:
     dance-single:
     X-Scale 5:
     Easy:
     3:
     0.205297,0.297754,0.041355,0.134403,0.000000,139.000000,135.000000,4.000000,13.000000,0.000000,0.000000,0.205297,0.297754,0.041355,0.134403,0.000000,139.000000,135.000000,4.000000,13.000000,0.000000,0.000000:
// measure 0
0000
0000
0000
0000
,  // measure 1
0000
0000
0000
0000
,  // measure 2
0000
0000
0000
0000
,  // measure 3
0000
0000
0000
0000
,  // measure 4
0001
0000
0000
0000
,  // measure 5
0000
0000
0000
0000
,  // measure 6
1000
0000
0000
0000
,  // measure 7
0000
0000
0000
0000
,  // measure 8
0100
0000
0000
0000
,  // measure 9
0000
0000
0000
0000
,  // measure 10
1000
0000
0000
0000
,  // measure 11
0001
0000
0100
0000
,  // measure 12
0001
0000
0000
0010
0000
0000
0002
0000
,  // measure 13
0000
0000
1003
0000
,  // measure 14
1000
0000
0000
0010
0000
0000
2000
0000
,  // measure 15
0000
0000
3010
1000
,  // measure 16
0001
0000
0000
0100
0000
0000
0002
0000
,  // measure 17
0000
0000
0013
0100
,  // measure 18
1000
0000
0000
0001
0000
0000
2000
0000
,  // measure 19
0000
0000
0000
0000
3000
0000
0000
0001
,  // measure 20
0020
0000
0000
0130
2000
0000
0000
3010
,  // measure 21
0200
0000
0000
0301
0020
0000
0000
0030
,  // measure 22
0012
0000
0000
1003
0200
0000
0000
0310
,  // measure 23
0002
2003
3002
0000
,  // measure 24
0100
0003
0000
0000
,  // measure 25
1000
0000
0001
1000
,  // measure 26
0001
0100
0001
1000
,  // measure 27
0100
0010
0001
0100
,  // measure 28
0010
0100
0001
0010
,  // measure 29
0100
1000
0001
1000
,  // measure 30
0010
0000
1000
0000
,  // measure 31
0100
0000
0010
0000
,  // measure 32
0101
0001
1000
0001
,  // measure 33
0100
0010
1000
0100
,  // measure 34
1000
0001
0010
0100
,  // measure 35
1000
0010
1000
0100
,  // measure 36
0010
0001
1000
0001
,  // measure 37
0100
0001
1000
0001
,  // measure 38
0010
0100
0010
0001
,  // measure 39
1000
0001
0010
0100
,  // measure 40
1100
0000
1000
0000
0010
0100
0010
0000
,  // measure 41
1000
0000
0001
0000
0100
0001
0100
0000
,  // measure 42
0010
0000
1000
0000
0100
0010
0100
0000
,  // measure 43
1000
0000
0001
0000
0010
0001
0010
0000
,  // measure 44
0100
0000
1000
0000
0001
0100
0001
0000
,  // measure 45
1000
0000
0100
0000
0010
0001
0010
0000
,  // measure 46
0100
0000
1000
0000
0010
0100
0010
0000
,  // measure 47
1000
0000
0001
0000
0100
0001
0100
0000
,  // measure 48
0101
0000
0000
0000
;

//---------------dance-single - ----------------
#NOTES:
     dance-single:
     X-Scale 1:
     Beginner:
     1:
     0.082710,0.148877,0.010339,0.000000,0.000000,56.000000,55.000000,1.000000,0.000000,0.000000,0.000000,0.082710,0.148877,0.010339,0.000000,0.000000,56.000000,55.000000,1.000000,0.000000,0.000000,0.000000:
// measure 0
0000
0000
0000
0000
,  // measure 1
0000
0000
0000
0000
,  // measure 2
0000
0000
0000
0000
,  // measure 3
0000
0000
0000
0000
,  // measure 4
1000
0000
0000
0000
,  // measure 5
0000
0000
0000
0000
,  // measure 6
0001
0000
0000
0000
,  // measure 7
0000
0000
0000
0000
,  // measure 8
1000
0000
0000
0000
,  // measure 9
0000
0000
0000
0000
,  // measure 10
0001
0000
0000
0000
,  // measure 11
0000
0000
0000
0000
,  // measure 12
0100
0000
0000
0000
,  // measure 13
0000
0000
0000
0000
,  // measure 14
0010
0000
0000
0000
,  // measure 15
0000
0000
0000
0000
,  // measure 16
0100
0000
0000
0000
,  // measure 17
0000
0000
0000
0000
,  // measure 18
0010
0000
0000
0000
,  // measure 19
0000
0000
0000
0000
,  // measure 20
0001
0000
0000
0000
,  // measure 21
1000
0000
0000
0000
,  // measure 22
0010
0000
0000
0000
,  // measure 23
0100
0000
0000
0000
,  // measure 24
0001
0000
0000
0000
,  // measure 25
1000
0000
0000
0000
,  // measure 26
0100
0000
0000
0000
,  // measure 27
1000
0000
0000
0000
,  // measure 28
0001
0000
0010
0000
,  // measure 29
0100
0000
0010
0000
,  // measure 30
0001
0000
0000
0000
,  // measure 31
1000
0000
0000
0000
,  // measure 32
1001
0000
1000
0000
,  // measure 33
0001
0000
0100
0000
,  // measure 34
0001
0000
1000
0000
,  // measure 35
0100
0000
0010
0000
,  // measure 36
0100
0000
1000
0000
,  // measure 37
0001
0000
0100
0000
,  // measure 38
0001
0000
1000
0000
,  // measure 39
0010
0000
0100
0000
,  // measure 40
0001
0000
1000
0000
,  // measure 41
0100
0000
1000
0000
,  // measure 42
0001
0000
0010
0000
,  // measure 43
0001
0000
1000
0000
,  // measure 44
0010
0000
1000
0000
,  // measure 45
0100
0000
0010
0000
,  // measure 46
0001
0000
0100
0000
,  // measure 47
0010
0000
1000
0000
,  // measure 48
0001
0000
0000
0000
;
