#VERSION:0.83;
#TITLE:My Love;
#SUBTITLE:;
#ARTIST:Kuba Oms;
#TITLETRANSLIT:;
#SUBTITLETRANSLIT:;
#ARTISTTRANSLIT:;
#GENRE:Pop;
#ORIGIN:;
#CREDIT:;
#BANNER:My Love-bn.png;
#BACKGROUND:My Love-bg.png;
#PREVIEWVID:;
#JACKET:My Love-jacket.png;
#CDIMAGE:;
#DISCIMAGE:;
#LYRICSPATH:;
#CDTITLE:cdtitle.png;
#MUSIC:My Love.ogg;
#OFFSET:-0.345000;
#SAMPLESTART:38.040001;
#SAMPLELENGTH:14.492000;
#SELECTABLE:YES;
#BPMS:0.000=128.000;
#STOPS:77.500=0.937;
#DELAYS:;
#WARPS:;
#TIMESIGNATURES:0.000=4=4;
#TICKCOUNTS:0.000=4;
#COMBOS:0.000=1;
#SPEEDS:0.000=1.000=0.000=0;
#SCROLLS:0.000=1.000;
#FAKES:;
#LABELS:0.000=Song Start;
#BGCHANGES:;
#KEYSOUNDS:;
#ATTACKS:
;

//---------------dance-single - ----------------
#NOTEDATA:;
#CHARTNAME:X-Scale 12;
#STEPSTYPE:dance-single;
#DESCRIPTION:;
#CHARTSTYLE:;
#DIFFICULTY:Hard;
#METER:8;
#RADARVALUES:0.457217,0.579242,0.104935,0.314805,0.188883,305.000000,295.000000,10.000000,30.000000,0.000000,0.000000,0.000000,0.000000,0.000000,0.457217,0.579242,0.104935,0.314805,0.188883,305.000000,295.000000,10.000000,30.000000,0.000000,0.000000,0.000000,0.000000,0.000000;
#CREDIT:iamthek3n;
#NOTES:
// measure 0
0000
0000
0000
0000
,  // measure 1
0000
0000
0000
0000
,  // measure 2
0000
0000
0000
0000
,  // measure 3
0000
0000
0000
0000
,  // measure 4
0000
0000
0000
0000
0000
0000
0000
0000
1001
0000
1000
0000
0100
0000
1000
0100
,  // measure 5
0000
0000
0000
0010
0100
0000
1000
0010
0000
0000
0100
0001
0100
0000
0001
0010
,  // measure 6
0000
0100
0010
0001
1000
0010
1000
0001
,  // measure 7
1000
0100
0010
0001
0020
0000
2030
0000
,  // measure 8
3200
0000
0000
0000
0301
0000
1000
0000
1010
0000
0010
0000
1000
0000
0001
0010
,  // measure 9
0000
0000
0100
0000
1000
0000
0001
0100
0000
0000
0010
0100
0001
0000
1000
0010
,  // measure 10
0000
0100
0001
1000
0010
0001
0010
0100
,  // measure 11
0010
1000
0001
0010
0011
0000
0001
0000
,  // measure 12
1000
0000
0000
0000
1000
0000
0001
1000
0001
0000
0000
0010
0100
0000
0010
0000
,  // measure 13
0001
0010
0001
0000
2000
0000
0000
0000
3100
0000
0000
0010
0001
0000
1000
0000
,  // measure 14
0010
1000
0010
0000
0200
0000
0000
0000
0301
0000
0000
0100
0001
0000
1000
0000
,  // measure 15
0010
0100
0010
0000
1000
0000
0100
0000
0002
0000
0000
0000
0023
0000
0000
0000
,  // measure 16
2030
0000
0000
0000
3001
0000
1000
0000
1001
0000
0000
1000
0100
0000
1000
0000
,  // measure 17
0001
0000
0100
0001
0200
0000
0000
0000
0310
0000
0000
0100
0001
0000
0010
0000
,  // measure 18
0100
0000
1000
0100
2000
0000
0000
0000
3001
0000
0000
0100
0001
0000
0010
0000
,  // measure 19
0001
0100
0001
0000
0100
0010
0100
0000
0000
0000
1000
0000
0010
0000
0000
0000
,  // measure 20
1001
0000
0001
0100
0001
0000
0010
0100
,  // measure 21
0000
0100
1000
0000
0001
0100
0010
0100
,  // measure 22
0001
0000
1000
0100
0000
0100
0001
1000
,  // measure 23
0001
0100
0100
0000
0001
1000
0001
0010
,  // measure 24
0100
0000
1000
0010
0000
0010
0001
0100
,  // measure 25
0001
1000
2000
0000
3002
0000
2003
0000
,  // measure 26
3002
0000
0013
0100
2000
0000
0000
3002
,  // measure 27
0000
0100
0103
0200
0300
0000
0010
0000
,  // measure 28
1001
0000
1000
0010
0100
0001
0010
0100
,  // measure 29
1000
0000
0010
0100
0001
0010
0100
0010
,  // measure 30
0001
0000
1000
0010
0001
0010
0100
0010
,  // measure 31
1000
0000
0100
0020
0000
0032
0000
0023
,  // measure 32
0100
0000
0031
0010
1000
0010
0100
1000
,  // measure 33
0001
0000
0100
0010
0001
0010
1000
0001
,  // measure 34
1000
0000
0010
1000
0100
0000
0010
0001
,  // measure 35
1000
0000
0010
1000
0010
1000
0010
1000
0010
1000
0001
1000
0001
1000
0001
1000
,  // measure 36
0001
0010
0100
1000
0000
1000
0010
0100
,  // measure 37
0001
0010
1000
0010
0001
0000
1000
0100
,  // measure 38
0002
0000
0000
0023
0000
0000
2030
0000
,  // measure 39
0100
0000
3002
0000
0010
0000
1003
0001
,  // measure 40
1000
0000
0010
0100
0001
0000
0101
0000
,  // measure 41
0100
0001
0001
0000
1000
0000
0010
1000
,  // measure 42
0002
0000
0000
0023
0000
0000
0230
0000
,  // measure 43
0001
0000
0000
0000
1300
0000
0000
0000
1000
0001
1000
0001
1000
0001
1000
0001
,  // measure 44
1000
0001
0100
0000
0010
0100
0001
0010
,  // measure 45
0000
0010
0100
1000
1100
0000
1001
0000
,  // measure 46
0201
0000
0000
0320
0000
0000
2030
0000
,  // measure 47
0100
0000
0000
0000
3001
0000
1000
0000
0001
0000
0000
0010
0100
0000
0010
0100
,  // measure 48
0010
0000
0000
0000
;

//---------------dance-single - ----------------
#NOTEDATA:;
#CHARTNAME:X-Scale 8;
#STEPSTYPE:dance-single;
#DESCRIPTION:;
#CHARTSTYLE:;
#DIFFICULTY:Medium;
#METER:6;
#RADARVALUES:0.347785,0.428135,0.062961,0.409247,0.036727,232.000000,226.000000,6.000000,39.000000,0.000000,0.000000,0.000000,0.000000,0.000000,0.347785,0.428135,0.062961,0.409247,0.036727,232.000000,226.000000,6.000000,39.000000,0.000000,0.000000,0.000000,0.000000,0.000000;
#CREDIT:iamthek3n;
#NOTES:
// measure 0
0000
0000
0000
0000
,  // measure 1
0000
0000
0000
0000
,  // measure 2
0000
0000
0000
0000
,  // measure 3
0000
0000
0000
0000
,  // measure 4
0000
0000
0000
0000
0110
0000
0100
0001
,  // measure 5
0100
0000
0010
0000
1000
0100
1000
0000
,  // measure 6
0001
0100
1000
0100
0010
0100
0000
0001
,  // measure 7
0010
0100
0000
2000
0200
3000
0320
0000
,  // measure 8
0032
0000
1003
0001
1001
0000
1000
0010
,  // measure 9
1000
0000
0001
0000
0010
0100
0010
0000
,  // measure 10
0001
0010
1000
0010
0001
0000
0100
0000
,  // measure 11
0001
0010
0100
2000
0010
0000
3001
0000
,  // measure 12
1000
0000
0000
0000
0010
0000
1000
0010
1000
0000
0001
0000
0100
0000
0001
0000
,  // measure 13
0010
0000
0100
0000
2000
0000
0000
0000
3010
0000
1000
0000
0001
0000
1000
0100
,  // measure 14
0000
0000
0010
0000
0002
0000
0000
0000
0103
0000
0001
0100
0001
0000
1000
0000
,  // measure 15
0020
0000
0130
0002
0020
0003
0230
0000
,  // measure 16
2300
0000
0000
0000
3001
0000
1000
0000
0001
0000
0100
0000
0010
0100
0020
0000
,  // measure 17
0000
0000
1030
0000
0200
0000
0000
0000
0310
0000
0001
0010
0001
0000
1000
0000
,  // measure 18
0010
0100
0002
0000
1003
0001
0200
0000
,  // measure 19
0301
0020
0100
0030
0000
0000
0000
0000
,  // measure 20
1001
0000
1000
0000
0010
0000
1000
0100
,  // measure 21
0000
0100
0001
0000
0010
0000
0100
0010
,  // measure 22
0001
0000
1000
0000
0010
1000
0001
0000
,  // measure 23
0010
0100
0100
0000
1000
0100
0010
0000
,  // measure 24
0001
0000
1000
0000
0001
0000
0100
0010
,  // measure 25
0000
0010
0001
0000
1000
0000
0001
0000
,  // measure 26
1000
0000
0010
1000
0001
0000
0010
0100
,  // measure 27
1000
0001
0001
0002
0003
0000
1000
0000
,  // measure 28
1010
0000
1000
0000
0001
0000
0100
0001
,  // measure 29
1000
0000
0010
0000
0100
0000
0001
0100
,  // measure 30
0010
0000
1000
0000
0100
0000
0010
0100
,  // measure 31
1000
0000
0001
0200
0000
0302
0000
2003
,  // measure 32
0000
0000
3100
0000
1000
0000
0001
0010
,  // measure 33
0001
0000
1000
0000
0010
0000
1000
0001
,  // measure 34
0010
0000
0001
1000
0200
0000
0000
0320
,  // measure 35
0000
0000
0031
0010
0100
1000
0010
0100
,  // measure 36
0001
0000
0000
1000
0020
0000
0000
0000
0001
0000
0000
0000
2030
0000
0000
0000
,  // measure 37
0000
0001
0001
0000
3010
0000
1000
0000
,  // measure 38
0002
0000
0000
0023
0000
0000
0230
0000
,  // measure 39
0000
0000
2300
0000
0001
0000
3010
0010
,  // measure 40
0010
0000
0000
1000
0200
0000
0000
0000
0001
0000
0000
0000
2300
0000
0000
0000
,  // measure 41
0000
0001
0001
0000
3010
0000
1000
0000
,  // measure 42
0200
0000
0000
2300
0000
0000
3002
0000
,  // measure 43
1000
0203
0010
0301
,  // measure 44
0101
0000
0100
0001
1000
0000
0010
0000
,  // measure 45
1000
0100
1000
0000
0001
0000
0010
0000
,  // measure 46
0200
0000
0000
2300
0000
0000
3020
0000
,  // measure 47
0001
0230
1000
0301
,  // measure 48
1001
0000
0000
0000
;

//---------------dance-single - ----------------
#NOTEDATA:;
#CHARTNAME:X-Scale 5;
#STEPSTYPE:dance-single;
#DESCRIPTION:;
#CHARTSTYLE:;
#DIFFICULTY:Easy;
#METER:3;
#RADARVALUES:0.257841,0.327397,0.041974,0.283325,0.000000,172.000000,168.000000,4.000000,27.000000,0.000000,0.000000,0.000000,0.000000,0.000000,0.257841,0.327397,0.041974,0.283325,0.000000,172.000000,168.000000,4.000000,27.000000,0.000000,0.000000,0.000000,0.000000,0.000000;
#CREDIT:iamthek3n;
#NOTES:
// measure 0
0000
0000
0000
0000
,  // measure 1
0000
0000
0000
0000
,  // measure 2
0000
0000
0000
0000
,  // measure 3
0000
0000
0000
0000
,  // measure 4
0000
0000
1000
0010
,  // measure 5
0100
0001
0010
0100
,  // measure 6
1000
0001
0100
0010
,  // measure 7
0100
0001
0020
0230
,  // measure 8
2300
0000
3001
2000
0010
0000
3001
0000
,  // measure 9
1000
0100
0010
0001
,  // measure 10
1000
0010
0100
0001
,  // measure 11
1000
0010
1000
0001
,  // measure 12
0010
0000
0100
0000
1100
1000
0001
0000
,  // measure 13
0100
0001
2000
0000
3100
0000
0010
0000
,  // measure 14
0001
0010
0200
0000
1300
0000
0001
0000
,  // measure 15
0100
0000
0010
2000
0002
3000
2003
0000
,  // measure 16
3200
0000
0310
0002
0100
0000
1003
0000
,  // measure 17
0001
1000
0020
0000
0130
0000
0010
0000
,  // measure 18
1000
0100
0020
0000
0031
0000
1000
0000
,  // measure 19
0010
2000
0000
3000
0000
0000
0000
0000
,  // measure 20
0011
0000
0001
2000
0000
3000
2000
0000
,  // measure 21
3000
0100
0010
0000
0001
0000
0100
0000
,  // measure 22
0001
0000
0010
0200
0000
0300
0200
0000
,  // measure 23
1300
0100
1000
0000
0001
0000
0100
0000
,  // measure 24
0001
0000
0010
0002
0000
0003
0002
0000
,  // measure 25
1003
0010
1000
0000
0100
0000
1000
0000
,  // measure 26
0100
0000
0010
0100
2000
0000
0000
3002
,  // measure 27
0000
0013
0000
0000
,  // measure 28
1001
1000
0010
1000
,  // measure 29
0001
0010
0100
0010
,  // measure 30
0001
1000
0010
1000
,  // measure 31
0100
0000
0010
0002
0000
2003
0000
3002
,  // measure 32
0000
0103
0001
1000
,  // measure 33
0010
0100
0001
0010
,  // measure 34
0100
0000
1000
0000
0002
0000
0000
2003
,  // measure 35
0000
3100
0010
0001
,  // measure 36
1001
0000
0000
1000
0000
0000
0001
0000
,  // measure 37
0000
0100
0001
0100
,  // measure 38
0001
0000
0000
0010
0000
0000
0100
0000
,  // measure 39
0000
1000
0100
1000
,  // measure 40
0001
0000
0000
0100
0000
0000
0001
0000
,  // measure 41
0000
1000
0010
1000
,  // measure 42
0010
0000
0000
0100
0000
0000
0001
0000
,  // measure 43
0000
0010
0001
1000
,  // measure 44
0001
0000
0000
0010
0000
0000
0100
0000
,  // measure 45
0000
1000
0001
1000
,  // measure 46
0100
0000
0000
1000
0000
0000
0001
0000
,  // measure 47
0000
0010
0001
0010
,  // measure 48
0001
0000
0000
0000
;

//---------------dance-single - ----------------
#NOTEDATA:;
#CHARTNAME:X-Scale 1;
#STEPSTYPE:dance-single;
#DESCRIPTION:;
#CHARTSTYLE:;
#DIFFICULTY:Beginner;
#METER:1;
#RADARVALUES:0.107933,0.151107,0.010494,0.000000,0.000000,72.000000,71.000000,1.000000,0.000000,0.000000,0.000000,0.000000,0.000000,0.000000,0.107933,0.151107,0.010494,0.000000,0.000000,72.000000,71.000000,1.000000,0.000000,0.000000,0.000000,0.000000,0.000000,0.000000;
#CREDIT:iamthek3n;
#NOTES:
// measure 0
0000
0000
0000
0000
,  // measure 1
0000
0000
0000
0000
,  // measure 2
0000
0000
0000
0000
,  // measure 3
0000
0000
0000
0000
,  // measure 4
0000
0000
1000
0000
,  // measure 5
0000
0000
0001
0000
,  // measure 6
0000
0000
1000
0000
,  // measure 7
0000
0000
0001
0000
,  // measure 8
0000
0000
0010
0000
,  // measure 9
0000
0000
0100
0000
,  // measure 10
0000
0000
0010
0000
,  // measure 11
0000
0000
0100
0000
,  // measure 12
0000
0000
1000
0000
,  // measure 13
0000
0000
0010
0000
,  // measure 14
0000
0000
0100
0000
,  // measure 15
0000
0000
0001
0000
,  // measure 16
0000
0000
0010
0000
,  // measure 17
0000
0000
0100
0000
,  // measure 18
0000
0000
1000
0000
,  // measure 19
0000
0000
0000
0000
,  // measure 20
0000
1000
0000
0001
,  // measure 21
0000
1000
0000
0010
,  // measure 22
0000
1000
0000
0001
,  // measure 23
0000
0010
0000
0100
,  // measure 24
0000
0010
0000
0001
,  // measure 25
0000
0100
0000
0010
,  // measure 26
0000
1000
0000
0001
,  // measure 27
0000
1000
0000
0000
,  // measure 28
1001
0000
1000
0000
,  // measure 29
0100
0000
0010
0000
,  // measure 30
0001
0000
0010
0000
,  // measure 31
0100
0000
1000
0000
,  // measure 32
0001
0000
0100
0000
,  // measure 33
0001
0000
1000
0000
,  // measure 34
0010
0000
1000
0000
,  // measure 35
0001
0000
0010
0000
,  // measure 36
0100
0000
1000
0000
,  // measure 37
0001
0000
1000
0000
,  // measure 38
0010
0000
1000
0000
,  // measure 39
0001
0000
0100
0000
,  // measure 40
0001
0000
1000
0000
,  // measure 41
0100
0000
0010
0000
,  // measure 42
0001
0000
0010
0000
,  // measure 43
0100
0000
1000
0000
,  // measure 44
0001
0000
1000
0000
,  // measure 45
0001
0000
0100
0000
,  // measure 46
0001
0000
1000
0000
,  // measure 47
0010
0000
1000
0000
,  // measure 48
0001
0000
0000
0000
;
