#VERSION:0.83;
#TITLE:Me4U;
#SUBTITLE:feat. 모리;
#ARTIST:Danny L Harle;
#TITLETRANSLIT:;
#SUBTITLETRANSLIT:feat. Morrie;
#ARTISTTRANSLIT:;
#GENRE:Dance Pop;
#ORIGIN:;
#CREDIT:;
#BANNER:Me4U-bn.png;
#BACKGROUND:Me4U-bg.png;
#PREVIEWVID:;
#JACKET:Me4U-jacket.png;
#CDIMAGE:;
#DISCIMAGE:;
#LYRICSPATH:;
#CDTITLE:cdtitle.png;
#MUSIC:Me4U.ogg;
#OFFSET:-0.363000;
#SAMPLESTART:31.315001;
#SAMPLELENGTH:15.238000;
#SELECTABLE:YES;
#BPMS:0.000=126.000;
#STOPS:;
#DELAYS:;
#WARPS:;
#TIMESIGNATURES:0.000=4=4;
#TICKCOUNTS:0.000=4;
#COMBOS:0.000=1;
#SPEEDS:0.000=1.000=0.000=0;
#SCROLLS:0.000=1.000;
#FAKES:;
#LABELS:0.000=Song Start;
#BGCHANGES:;
#KEYSOUNDS:;
#ATTACKS:
;

//---------------dance-single - ----------------
#NOTEDATA:;
#CHARTNAME:X-Scale 12;
#STEPSTYPE:dance-single;
#DESCRIPTION:;
#CHARTSTYLE:;
#DIFFICULTY:Hard;
#METER:8;
#RADARVALUES:0.438676,0.550729,0.124609,0.364928,0.293722,345.000000,331.000000,14.000000,41.000000,0.000000,0.000000,0.000000,0.000000,0.000000,0.438676,0.550729,0.124609,0.364928,0.293722,345.000000,331.000000,14.000000,41.000000,0.000000,0.000000,0.000000,0.000000,0.000000;
#CREDIT:iamthek3n;
#NOTES:
// measure 0
0000
0000
0000
0000
,  // measure 1
0000
0000
0000
0000
,  // measure 2
2000
0000
0000
0000
3100
0000
0000
0100
0000
0000
0100
0000
0200
0000
0000
0300
,  // measure 3
0200
0000
0000
0300
0200
0000
0000
0300
0000
0000
0000
0000
0000
0000
0000
0000
,  // measure 4
2000
0000
0000
0000
3100
0000
0000
0100
0000
0000
0100
0000
0200
0000
0000
0300
,  // measure 5
0200
0000
0000
0300
0200
0000
0000
0300
0000
0000
0000
0000
0000
0000
0000
0000
,  // measure 6
2000
0000
3001
0000
1001
1000
0100
0000
,  // measure 7
0110
0010
0002
0203
,  // measure 8
0302
0000
0000
0000
1003
0000
0000
0010
1000
0000
0000
0000
0001
0000
1000
0000
,  // measure 9
1001
0000
0000
0001
0100
0000
0001
0000
0101
0000
0000
1000
0000
0000
1000
0000
,  // measure 10
1100
0000
0000
0000
0110
0000
0000
0010
0100
0000
0000
0000
0010
0000
0001
0000
,  // measure 11
2000
0000
0000
0000
3010
0000
1000
0000
0001
0010
0000
0001
1000
0000
0100
0010
,  // measure 12
0001
0000
0010
0100
1000
0000
0000
0100
0010
0000
0000
0000
0100
0000
1000
0000
,  // measure 13
1100
0000
0000
1000
0001
0000
0100
0000
0001
0000
0000
0010
0000
0000
0010
0000
,  // measure 14
0110
0000
0000
0000
1010
0000
0000
1000
0001
0000
0000
0000
0010
0000
0100
0000
,  // measure 15
2000
3000
0020
2030
,  // measure 16
3020
0000
0000
0000
0130
0000
0000
0100
0001
0000
0100
0000
0010
0000
0100
0000
,  // measure 17
0001
0000
0000
0000
1000
0000
0000
0100
0010
0000
0010
0000
0000
0000
0001
0000
,  // measure 18
1000
0000
0001
0000
0100
0000
0000
0010
0100
0000
0001
0000
0010
0000
0001
0000
,  // measure 19
1000
0000
0000
0000
0100
0000
0000
0010
0001
0000
1000
0000
0010
0000
0001
0000
,  // measure 20
0010
0000
1000
0000
1100
0000
0000
0100
0010
0000
0100
0000
1000
0000
0001
0000
,  // measure 21
0100
0000
0000
0000
0001
0000
0000
0010
0001
0000
1000
0000
0010
0000
0100
0000
,  // measure 22
0001
0000
0010
0000
0100
0000
0000
0100
0000
0000
0100
0000
0200
0000
0000
0300
,  // measure 23
0200
0000
0000
0300
0200
0000
0000
0300
2000
0000
0000
0000
3002
0000
0000
0000
,  // measure 24
2003
0000
0000
0000
3010
0000
0000
0010
0000
0000
1000
0000
0001
0000
0100
0000
,  // measure 25
0001
0000
0000
0000
0010
0000
0000
0000
0100
0000
0000
1000
0000
0000
1000
0000
,  // measure 26
0010
0000
1000
0000
0100
0000
0000
0010
0000
0000
0001
0000
1000
0000
0010
0000
,  // measure 27
1000
0000
0000
0000
0100
0000
0000
0000
0010
0000
0000
0001
0000
0000
0001
0000
,  // measure 28
1001
0000
0000
0000
1000
0000
0000
0010
0000
0000
1000
0000
0100
0000
1000
0000
,  // measure 29
0001
0000
0000
0000
0100
0000
0000
0000
0010
0000
0000
0100
0000
0000
0100
0000
,  // measure 30
0001
0000
0010
0000
0100
0000
0000
0100
0000
0000
0100
0000
1000
0000
0100
0000
,  // measure 31
0001
0100
0010
0001
1000
0001
1001
0000
,  // measure 32
0110
0000
0000
0000
1001
0000
1000
0000
0010
0000
1000
0000
0001
0000
0000
0010
,  // measure 33
0100
0000
0000
0000
0000
0000
1000
0000
0010
0000
0100
0000
0010
0000
0000
1000
,  // measure 34
0001
0000
0000
0000
0010
0000
0001
0000
1000
0000
0010
0000
1000
0000
0000
0001
,  // measure 35
0010
0000
0000
0010
0000
0000
0100
0000
1000
0000
0001
0000
0100
0000
0010
0000
,  // measure 36
1000
0000
0000
0100
0010
0000
0100
0000
1000
0000
0001
0000
0100
0000
0000
0010
,  // measure 37
0100
0000
0000
0100
0000
0000
0001
0000
0010
0000
1000
0000
0010
0000
0100
0000
,  // measure 38
1000
0000
0000
1000
0000
0000
0001
0000
1000
0000
0010
0000
0100
0000
0000
0001
,  // measure 39
0010
0000
0000
0010
0000
0000
0000
0000
0200
0000
0000
0000
2300
0000
0000
0000
,  // measure 40
3200
0000
0000
0000
0310
0000
0001
0000
1000
0000
0010
1000
0001
0000
0010
0100
,  // measure 41
1000
0000
0100
0010
0000
0000
0001
0000
0100
0000
0001
0010
0100
0000
0010
0100
,  // measure 42
1000
0000
0100
0010
0000
0000
0001
0000
1000
0000
0010
1000
0001
0000
0100
0010
,  // measure 43
1000
0000
0001
1000
0000
0000
0010
0000
1000
0000
0001
0100
0010
0000
0100
0001
,  // measure 44
1000
0000
0100
0010
0100
0000
1000
0000
0001
0000
0100
0001
1000
0000
0010
0100
,  // measure 45
0001
0000
1000
0001
0000
0000
0100
0000
0010
0000
1000
0100
0010
0000
0100
0010
,  // measure 46
0001
0000
0100
0001
0000
0000
0010
0000
0100
0000
1000
0001
0010
0000
0100
0010
,  // measure 47
0001
0000
0100
0001
0000
0000
1000
0000
0010
0000
1000
0001
0010
0000
0100
1000
,  // measure 48
0001
0000
0100
0001
2000
0000
0000
0000
0100
0000
0000
0020
0000
0030
0020
0000
,  // measure 49
0030
0000
0000
0000
,  // measure 50
3002
0000
0000
0000
0023
0000
0000
0000
0100
0000
0000
0002
0000
0003
0002
0000
,  // measure 51
0003
0000
0000
0000
,  // measure 52
0032
0000
0000
0000
0203
0000
0000
0000
1000
0000
0000
0020
0000
0030
0020
0000
,  // measure 53
0030
0000
0000
0000
,  // measure 54
0302
0000
0000
0000
0023
0000
0000
0000
1000
0000
0000
0200
0000
0300
0200
0000
,  // measure 55
0300
0000
0000
0000
,  // measure 56
0000
0030
0000
0000
;

//---------------dance-single - ----------------
#NOTEDATA:;
#CHARTNAME:X-Scale 9;
#STEPSTYPE:dance-single;
#DESCRIPTION:;
#CHARTSTYLE:;
#DIFFICULTY:Medium;
#METER:6;
#RADARVALUES:0.340769,0.375497,0.133510,0.062305,0.173563,268.000000,253.000000,15.000000,7.000000,0.000000,0.000000,0.000000,0.000000,0.000000,0.340769,0.375497,0.133510,0.062305,0.173563,268.000000,253.000000,15.000000,7.000000,0.000000,0.000000,0.000000,0.000000,0.000000;
#CREDIT:iamthek3n;
#NOTES:
// measure 0
0000
0000
0000
0000
,  // measure 1
0000
0000
0000
0000
,  // measure 2
0000
0000
0000
0000
0001
0000
0000
0001
0000
0000
0000
0000
0100
0000
0000
0000
,  // measure 3
0100
0100
0000
0000
,  // measure 4
0001
0000
0000
0000
1000
0000
0000
1000
0000
0000
0000
0000
0100
0000
0000
0000
,  // measure 5
0100
0100
0000
0000
,  // measure 6
0010
0001
0011
0000
,  // measure 7
1001
0000
1010
0000
,  // measure 8
1001
0000
0000
0000
0110
0000
0000
0100
0000
0000
0000
0000
0001
0000
0100
0000
,  // measure 9
0001
0000
0000
0000
1000
0000
0000
0000
0100
0000
0000
0010
0000
0000
0010
0000
,  // measure 10
0101
0000
0000
0000
1001
0000
0000
1000
0000
0000
0000
0000
0010
0000
1000
0000
,  // measure 11
0010
0000
0000
0000
0100
0000
0000
0000
0001
0000
0000
1000
0000
0000
1000
0000
,  // measure 12
1100
0000
0000
0000
1010
0000
0000
0001
0000
0000
0000
0000
0010
0000
0100
0000
,  // measure 13
0010
0000
0000
0000
0001
0000
0000
0000
1000
0000
0000
0100
0000
0000
0100
0000
,  // measure 14
0110
0000
0000
0000
0101
0000
0000
0001
0000
0000
0000
0000
1000
0000
0010
0000
,  // measure 15
1000
0000
0100
0010
,  // measure 16
0100
0000
0000
0000
1001
0000
0000
1000
0000
0000
1000
0000
0010
0000
0100
0000
,  // measure 17
0010
0000
0000
0000
0010
0000
0000
1000
0000
0000
1000
0000
0100
0000
0001
0000
,  // measure 18
0100
0000
0010
0000
0001
0000
0000
0100
0000
0000
0010
0000
0100
0000
0001
0000
,  // measure 19
1000
0000
0000
0000
0010
0000
0000
1000
0000
0000
1000
0000
0100
0000
0001
0000
,  // measure 20
1000
0000
0010
0000
0001
0000
0000
0100
0000
0000
0010
0000
0100
0000
0001
0000
,  // measure 21
0010
0000
0000
0000
0100
0000
0000
1000
0000
0000
1000
0000
0001
0000
0100
0000
,  // measure 22
0010
0000
0100
0000
0001
0000
0000
0001
0000
0000
0001
0000
0001
0000
0000
0000
,  // measure 23
0001
0001
0010
0100
,  // measure 24
0010
0000
0000
0000
0001
0000
0000
0000
1000
0000
0000
0100
0000
0100
0000
0000
,  // measure 25
0010
0000
0010
0000
0001
0000
1000
0010
,  // measure 26
1000
0000
0001
0000
0010
0000
0000
0000
0100
0000
0000
1000
0000
1000
0000
0000
,  // measure 27
0001
0000
0100
0000
0001
0000
1000
0100
,  // measure 28
0001
0000
0100
0000
1000
0000
0000
0000
0001
0000
0000
0100
0000
0100
0000
0000
,  // measure 29
0001
0000
0010
0000
0100
0000
1000
0001
,  // measure 30
0010
0000
0001
0000
1000
0000
0000
0000
0100
0000
0000
1000
0000
1000
0000
0000
,  // measure 31
0001
0001
0010
0110
,  // measure 32
1000
0000
1001
0001
0100
0001
1000
0000
,  // measure 33
1000
0000
0000
1000
0000
0000
0001
0000
0010
0000
0001
0000
0100
0000
0000
0000
,  // measure 34
0100
0000
0000
0100
0000
0000
0001
0000
1000
0000
0010
0000
1000
0000
0000
0000
,  // measure 35
0100
0000
0000
0100
0000
0000
0010
0000
0001
0000
1000
0000
0001
0000
0100
0000
,  // measure 36
0001
0000
0000
0010
0000
0000
0100
0000
1000
0000
0100
0000
1000
0000
0000
0000
,  // measure 37
1000
0000
0000
1000
0000
0000
0100
0000
0010
0000
0001
0000
0100
0000
0000
0000
,  // measure 38
0100
0000
0000
0100
0000
0000
0001
0000
0010
0000
0001
0000
1000
0000
0000
0000
,  // measure 39
1000
0000
0000
1000
0000
0000
0000
0000
0100
0000
0000
0000
0010
0000
0000
0000
,  // measure 40
0100
0000
1100
0000
1000
0100
1000
0000
,  // measure 41
1000
1000
0001
0100
,  // measure 42
0001
0010
0100
0000
0010
0001
1000
0000
,  // measure 43
0001
0000
0000
0000
0100
0000
0000
0010
0000
0000
0010
0000
1000
0000
0001
0000
,  // measure 44
0100
0010
1000
0000
0010
1000
0001
0000
,  // measure 45
0100
0000
0000
0000
0010
0000
0000
1000
0000
0000
1000
0000
0001
0000
0010
0000
,  // measure 46
1000
0000
0010
0000
0001
0000
0000
0001
0100
0000
0001
0000
0001
0000
0010
0000
,  // measure 47
0100
0000
0000
0000
0100
0000
0000
1000
0000
0000
1000
0000
0001
0000
0000
0000
,  // measure 48
0100
0000
0000
0000
0002
0000
0000
0000
0000
0000
0000
1000
0000
0000
1000
0000
,  // measure 49
0000
0000
0000
0000
,  // measure 50
0023
0000
0000
0000
0230
0000
0000
0000
0000
0000
0000
0001
0000
0000
0001
0000
,  // measure 51
0000
0000
0000
0000
,  // measure 52
2300
0000
0000
0000
3020
0000
0000
0000
0000
0000
0000
0100
0000
0000
0100
0000
,  // measure 53
0000
0000
0000
0000
,  // measure 54
0230
0000
0000
0000
0302
0000
0000
0000
0000
0000
0000
0010
0000
0000
0010
0000
,  // measure 55
0000
0000
0000
0000
,  // measure 56
0000
0003
0000
0000
;

//---------------dance-single - ----------------
#NOTEDATA:;
#CHARTNAME:X-Scale 6;
#STEPSTYPE:dance-single;
#DESCRIPTION:;
#CHARTSTYLE:;
#DIFFICULTY:Easy;
#METER:4;
#RADARVALUES:0.249219,0.362146,0.035603,0.017801,0.000000,196.000000,192.000000,4.000000,2.000000,0.000000,0.000000,0.000000,0.000000,0.000000,0.249219,0.362146,0.035603,0.017801,0.000000,196.000000,192.000000,4.000000,2.000000,0.000000,0.000000,0.000000,0.000000,0.000000;
#CREDIT:iamthek3n;
#NOTES:
// measure 0
0000
0000
0000
0000
,  // measure 1
0000
0000
0000
0000
,  // measure 2
0000
1000
0000
0000
,  // measure 3
0000
0001
0000
0000
,  // measure 4
0000
0100
0000
0000
,  // measure 5
0000
0010
0000
0000
,  // measure 6
0000
0000
1000
0000
,  // measure 7
0001
0000
1000
0100
,  // measure 8
1000
0000
1100
0000
1000
0000
0001
0100
,  // measure 9
0001
0000
0010
0000
0100
0000
1000
0100
,  // measure 10
1000
0000
0001
0000
0100
0000
0010
0100
,  // measure 11
0010
0000
1000
0000
0001
0000
0010
0100
,  // measure 12
0010
0000
0001
0000
1000
0000
0100
0010
,  // measure 13
0100
0000
1000
0000
0001
0000
0100
0010
,  // measure 14
0100
0000
0001
0000
0010
0000
0100
1000
,  // measure 15
0200
0300
0010
0001
,  // measure 16
0010
0000
0011
0000
0001
0000
1000
0010
,  // measure 17
1000
0000
0001
0000
0010
0100
0000
0100
,  // measure 18
1000
0001
1000
0000
0100
0000
0010
0100
,  // measure 19
0010
0000
0001
0000
1000
0100
0000
0100
,  // measure 20
0010
0001
1000
0000
0010
0000
0100
0010
,  // measure 21
0100
0000
0001
0000
0010
0100
0000
0100
,  // measure 22
1000
0001
0200
0000
0000
0000
0000
0000
,  // measure 23
0000
0000
0010
0001
,  // measure 24
0010
0000
0301
0000
0100
0000
0000
0010
,  // measure 25
0100
0000
0000
0000
0001
0000
0000
0100
,  // measure 26
0001
0000
0000
0000
1000
0000
0000
0010
,  // measure 27
1000
0000
0000
0000
0100
0000
0000
0010
,  // measure 28
0100
0000
0000
0000
1000
0000
0000
0001
,  // measure 29
0100
0000
0000
0000
0001
0000
0000
0010
,  // measure 30
0100
0000
0000
0000
1000
0001
0100
0010
,  // measure 31
1000
0100
0010
0001
1000
0001
0100
0000
,  // measure 32
0010
0110
0100
0001
,  // measure 33
1000
0000
0000
0100
1000
0001
0100
0000
,  // measure 34
0001
1000
0100
1000
,  // measure 35
0001
0000
0000
0010
0001
1000
0010
0000
,  // measure 36
1000
0100
0010
0100
,  // measure 37
1000
0000
0000
0001
0010
0100
1000
0000
,  // measure 38
0010
1000
0001
0100
,  // measure 39
0001
0000
1000
0100
,  // measure 40
1000
0000
1100
0000
0100
0000
0010
0100
,  // measure 41
1000
0000
0001
0000
0100
0000
0010
0100
,  // measure 42
0001
0000
1000
0000
0100
0000
1000
0001
,  // measure 43
0010
0000
0001
0000
0100
0000
0010
0100
,  // measure 44
0001
0000
1000
0000
0100
0000
0010
0100
,  // measure 45
1000
0000
0001
0000
0100
0000
0010
1000
,  // measure 46
0001
0000
0100
0000
0010
0000
1000
0100
,  // measure 47
0010
0100
1000
0001
,  // measure 48
1000
0010
0000
0000
,  // measure 49
0000
0000
0000
0000
,  // measure 50
0000
1000
0000
0000
,  // measure 51
0000
0000
0000
0000
,  // measure 52
0000
0001
0000
0000
,  // measure 53
0000
0000
0000
0000
,  // measure 54
0000
0010
0000
0000
;

//---------------dance-single - ----------------
#NOTEDATA:;
#CHARTNAME:X-Scale 1;
#STEPSTYPE:dance-single;
#DESCRIPTION:;
#CHARTSTYLE:;
#DIFFICULTY:Beginner;
#METER:1;
#RADARVALUES:0.090278,0.120715,0.000000,0.000000,0.000000,71.000000,71.000000,0.000000,0.000000,0.000000,0.000000,0.000000,0.000000,0.000000,0.090278,0.120715,0.000000,0.000000,0.000000,71.000000,71.000000,0.000000,0.000000,0.000000,0.000000,0.000000,0.000000,0.000000;
#CREDIT:iamthek3n;
#NOTES:
// measure 0
0000
0000
0000
0000
,  // measure 1
0000
0000
0000
0000
,  // measure 2
0000
0000
0000
0000
,  // measure 3
0000
0000
0000
0000
,  // measure 4
0000
0000
0000
0000
,  // measure 5
0000
0000
0000
0000
,  // measure 6
0000
0000
1000
0000
,  // measure 7
0001
0000
1000
0000
,  // measure 8
0001
0000
0010
0000
,  // measure 9
0001
0000
1000
0000
,  // measure 10
0001
0000
0010
0000
,  // measure 11
0100
0000
1000
0000
,  // measure 12
0010
0000
1000
0000
,  // measure 13
0100
0000
1000
0000
,  // measure 14
0001
0000
0100
0000
,  // measure 15
0001
0000
0000
0000
,  // measure 16
0000
0000
1000
0000
,  // measure 17
0100
0000
1000
0000
,  // measure 18
0001
0000
0100
0000
,  // measure 19
0001
0000
1000
0000
,  // measure 20
0001
0000
0010
0000
,  // measure 21
0100
0000
0010
0000
,  // measure 22
0001
0000
0000
0000
,  // measure 23
0000
0000
0000
0000
,  // measure 24
0000
1000
0000
0000
,  // measure 25
0000
0100
0000
0000
,  // measure 26
0000
0010
0000
0000
,  // measure 27
0000
0001
0000
0000
,  // measure 28
0000
0100
0000
0000
,  // measure 29
0000
0010
0000
0000
,  // measure 30
0000
1000
0000
0000
,  // measure 31
0000
0001
0000
0000
,  // measure 32
0000
0000
1000
0000
,  // measure 33
0010
0000
0100
0000
,  // measure 34
0010
0000
1000
0000
,  // measure 35
0001
0000
0010
0000
,  // measure 36
0001
0000
1000
0000
,  // measure 37
0100
0000
0010
0000
,  // measure 38
0100
0000
1000
0000
,  // measure 39
0001
0000
0000
0000
,  // measure 40
0000
0000
1000
0000
,  // measure 41
0100
0000
0010
0000
,  // measure 42
0001
0000
0010
0000
,  // measure 43
0100
0000
1000
0000
,  // measure 44
0001
0000
0100
0000
,  // measure 45
0010
0000
1000
0000
,  // measure 46
0001
0000
1000
0000
,  // measure 47
0100
0000
1000
0000
,  // measure 48
0000
0001
0000
0000
,  // measure 49
0000
0000
0000
0000
,  // measure 50
0000
0010
0000
0000
,  // measure 51
0000
0000
0000
0000
,  // measure 52
0000
0100
0000
0000
,  // measure 53
0000
0000
0000
0000
,  // measure 54
0000
1000
0000
0000
;
