#TITLE:Lovesick Girls;
#SUBTITLE:;
#ARTIST:BLACKPINK;
#TITLETRANSLIT:;
#SUBTITLETRANSLIT:;
#ARTISTTRANSLIT:;
#GENRE:K-Pop;
#CREDIT:;
#BANNER:Lovesick Girls-bn.png;
#BACKGROUND:Lovesick Girls-bg.png;
#LYRICSPATH:;
#CDTITLE:cdtitle.png;
#MUSIC:Lovesick Girls.ogg;
#OFFSET:-0.238000;
#SAMPLESTART:52.035000;
#SAMPLELENGTH:15.000000;
#SELECTABLE:YES;
#BPMS:0.000000=64.000000
,8.000000=128.000000
,72.000000=64.000000
,88.000000=128.000000
,152.000000=64.000000
,168.000000=128.000000
,228.000000=64.000000
;
#STOPS:
;
#BGCHANGES:-0.288=Lovesick Girls.avi=1.000=1=0=0=StretchNoLoop==CrossFade==,
99999=-nosongbg-=1.000=0=0=0 // don't automatically add -songbackground-
;
#KEYSOUNDS:;
#ATTACKS:;

//---------------dance-single - ----------------
#NOTES:
     dance-single:
     X-Scale 13:
     Hard:
     9:
     0.543774,0.886896,0.251224,0.258837,0.506254,500.000000,467.000000,33.000000,34.000000,0.000000,0.000000,0.543774,0.886896,0.251224,0.258837,0.506254,500.000000,467.000000,33.000000,34.000000,0.000000,0.000000:
// measure 0
0000
0000
0000
0000
,  // measure 1
0000
0000
0000
0000
,  // measure 2
1001
0000
0000
1000
0100
0000
1000
0000
0001
0000
0000
0010
0100
0000
0010
0000
,  // measure 3
0001
0000
0000
1000
0010
0000
1000
0000
0001
0000
0000
0010
0100
0000
0010
0000
,  // measure 4
0002
0000
0013
0001
0200
0000
1300
0100
,  // measure 5
0002
0000
0013
0100
2000
0000
3010
1000
,  // measure 6
1001
0000
0000
0010
0001
0000
1000
0000
0010
0000
0000
0100
0010
0000
0100
0000
,  // measure 7
0001
0000
0000
0010
0100
0000
0010
0000
0001
0000
0000
1000
0010
0000
1000
0000
,  // measure 8
0200
0000
0301
0100
2000
0000
3001
0000
,  // measure 9
0010
0000
0000
0000
0000
0000
0100
0000
1000
0000
0100
0000
1000
0000
0000
0000
0000
0000
1000
0000
0000
0000
0000
0000
0001
0000
0000
0100
0000
0000
0010
0000
0000
0100
0000
0000
0001
0000
0000
0000
0000
0000
0000
0000
0000
0000
0000
0000
,  // measure 10
1000
0010
0100
0001
0010
0100
2000
0000
0000
3002
0000
0000
,  // measure 11
0103
0001
1000
0010
0100
0010
2000
0000
0000
3200
0000
0000
,  // measure 12
0301
0100
1000
0001
0100
0010
0100
0001
0010
1000
0010
0100
,  // measure 13
1000
0000
0000
0000
0010
0000
0000
0000
0100
0000
0000
0000
0010
0000
0000
0000
1000
0000
0000
0000
0001
0000
0000
0000
0010
0000
0000
0000
0000
0000
0000
0000
0000
0100
0000
0000
0010
0000
0000
0000
0000
0000
0001
0000
0000
0000
0000
0000
,  // measure 14
0011
0000
0000
0001
0000
0000
0010
0000
0100
0000
0000
1000
0000
0000
0001
0000
,  // measure 15
0100
0000
0000
0010
0000
0000
0100
0000
0001
0000
0000
1000
0100
0000
1000
0000
,  // measure 16
0001
0000
0000
0010
0000
0000
0100
0000
1000
0000
0000
0010
1000
0000
0001
0000
,  // measure 17
0100
0000
0000
0000
0000
0000
0001
0000
0100
0000
0001
0000
0100
0000
0000
0000
0000
0000
0100
0000
0000
0000
0000
0000
0001
0000
0000
1000
0000
0000
0100
0000
0000
1000
0000
0000
0001
0000
0000
0000
0000
0000
0000
0000
0000
0000
0000
0000
,  // measure 18
1000
0000
0000
0000
0100
0000
0000
0010
0100
0000
0010
0000
0001
0000
1000
0001
1000
0000
0000
0000
0010
0000
0000
0000
0100
0000
0010
0000
1000
0000
0001
1000
,  // measure 19
0001
0000
0000
0000
0010
0000
0000
0100
1000
0000
0001
0000
0000
0001
0000
0100
0001
0000
0000
0010
0100
0000
1000
0100
1000
0000
0001
0000
1000
0000
0100
0010
,  // measure 20
0100
0000
1000
0000
0001
0000
0100
0000
0001
0000
1000
0000
0100
1000
0000
0100
0010
0000
0001
0000
1000
0000
0010
0000
1000
0000
0001
0000
0100
0010
0000
0000
,  // measure 21
1000
0000
0000
1000
0000
0000
0001
0000
0000
0100
0001
0100
0001
0000
0000
0010
0000
0000
0010
0000
0000
0100
1000
0100
1000
0000
0000
0400
0000
0040
0000
0000
0000
0000
0000
0000
0330
0000
0000
0000
0000
0000
0000
0000
0000
0000
0000
0000
,  // measure 22
1001
0000
1010
0000
0011
0010
0001
0010
,  // measure 23
0001
0000
1000
0000
0010
0000
1000
0010
0000
0000
0100
0000
0001
0000
0010
0000
,  // measure 24
0100
0000
1000
0010
1000
0000
0001
0010
,  // measure 25
0011
0000
0000
0000
0101
0000
0000
0101
0000
0000
1000
0100
1000
0000
0001
0000
,  // measure 26
1001
0000
0011
0000
1010
1000
0010
1000
,  // measure 27
0010
0000
0100
0000
0001
0000
0010
0001
0000
0000
1000
0000
0010
0000
0100
0000
,  // measure 28
0001
0000
0010
0100
1000
0000
0010
1000
,  // measure 29
1010
0000
0000
0000
0101
0000
0000
0101
0000
0000
0001
0000
1000
0000
0100
0000
,  // measure 30
1200
0000
0001
0000
0310
0100
1000
0002
,  // measure 31
0010
0000
0010
0003
0001
0010
1000
0010
,  // measure 32
0001
1000
0020
0000
0130
0010
1000
0200
,  // measure 33
0010
0000
0000
0000
0010
0000
0300
0010
0100
0000
1000
0000
0001
0000
0100
0000
,  // measure 34
0201
0000
1000
0000
0310
0100
0001
0020
,  // measure 35
1030
0020
0130
2000
3001
1000
0010
1000
,  // measure 36
0002
0000
0023
0000
0230
0000
1300
0010
,  // measure 37
1010
0000
0000
0000
0011
0000
0000
0011
0000
0000
0001
0000
1000
0000
0001
0000
,  // measure 38
0010
0000
0000
0000
0100
1000
0100
0000
0010
0001
0010
0000
0100
0000
0010
0000
0001
0000
0000
0000
1000
0010
1000
0000
0001
0100
0001
0000
0010
0000
0100
0000
,  // measure 39
1000
0000
0000
0000
0010
0100
0010
0000
1000
0010
1000
0000
0100
0000
0010
0000
0002
0000
0000
0000
0103
0000
0001
0000
1000
0100
0010
0000
0001
0000
0100
0000
,  // measure 40
0010
0000
0000
0000
1000
0100
1000
0000
0001
0010
0001
0000
0100
0000
0010
0000
1000
0000
0000
0000
0100
1000
0001
0100
0010
0000
0100
0000
0001
0000
0010
0000
,  // measure 41
0100
0000
0000
0000
1000
0100
1000
0000
0001
0000
0010
0000
1000
0000
0010
0000
0001
0000
0100
0000
0010
0100
0010
0000
1000
0000
0100
0000
0010
0000
0001
0000
,  // measure 42
0101
0000
0110
0000
1001
1000
0001
1000
,  // measure 43
0001
0000
0010
0000
0100
0000
1000
0100
0000
0000
0010
0000
0100
0000
1000
0000
,  // measure 44
0001
0000
0100
0001
1000
0000
0100
0010
,  // measure 45
0011
0000
0000
0000
1001
0000
0000
1001
0000
0000
0001
0000
0100
0000
0010
0000
,  // measure 46
1010
0000
0110
0000
0011
0010
0001
0010
,  // measure 47
0001
0000
1000
0000
0010
0000
1000
0001
0000
0000
0010
0000
0100
0000
1000
0000
,  // measure 48
0001
0000
0100
0010
1000
0000
0001
0010
,  // measure 49
0011
0000
0000
0000
1100
0000
0000
1100
0000
0000
1000
0000
1001
0000
0000
0000
,  // measure 50
0001
0000
0100
0000
0002
0000
0000
0000
0010
0000
0000
0000
1003
0000
0001
0010
,  // measure 51
0200
0000
0310
0002
0000
1003
0001
0100
,  // measure 52
0010
0000
1000
0000
0002
0000
0000
0000
0010
0000
0000
0000
1003
0000
0001
0010
,  // measure 53
0200
0000
1300
0020
0000
0130
0100
0001
,  // measure 54
0010
0100
2000
0000
0100
0000
3001
1000
,  // measure 55
0020
0000
0031
0200
0000
1300
0001
1000
,  // measure 56
0100
0010
0002
0000
0010
0000
1003
0001
,  // measure 57
1000
0000
0000
0000
0000
0000
0100
0000
0000
0000
0000
0010
0000
0000
0000
0000
0002
0000
0000
2000
0000
0000
0000
0000
0000
0000
0000
0000
0000
0000
0000
0000
,  // measure 58
0000
3003
0000
0000
;

//---------------dance-single - ----------------
#NOTES:
     dance-single:
     X-Scale 11:
     Medium:
     8:
     0.428494,0.665172,0.274062,0.235998,0.232192,394.000000,358.000000,36.000000,31.000000,0.000000,0.000000,0.428494,0.665172,0.274062,0.235998,0.232192,394.000000,358.000000,36.000000,31.000000,0.000000,0.000000:
// measure 0
0000
0000
0000
0000
,  // measure 1
0000
0000
0000
0000
,  // measure 2
1000
0000
0100
0000
1000
0000
0001
0100
,  // measure 3
0001
0010
0000
0000
0100
1000
0000
0000
0100
0010
0000
0000
0001
0100
0000
0000
,  // measure 4
0201
0000
0000
0301
2000
0000
3100
0000
,  // measure 5
0020
0000
0000
0031
2000
0000
3100
0010
,  // measure 6
0110
0000
0100
0000
1000
0000
0001
0100
,  // measure 7
0001
0000
1000
0100
1000
0000
0100
0010
,  // measure 8
0002
0000
0000
0013
0200
0000
1300
0000
,  // measure 9
0020
0000
0000
0130
0002
0000
0003
0000
,  // measure 10
0001
0000
0000
1000
0010
0000
1000
0000
0200
0000
0000
0000
0320
0000
0000
0000
,  // measure 11
0031
0000
0000
0010
0100
0000
0010
0000
0002
0000
0000
0000
2003
0000
0000
0000
,  // measure 12
3010
0000
0000
1000
0010
0000
1000
0000
0001
0000
0000
0010
0100
0000
0010
0000
,  // measure 13
0001
0000
0000
0100
0010
0000
0100
0000
0002
0000
0000
0000
0013
0000
0100
0000
,  // measure 14
1000
0000
0000
0100
0000
0000
0010
0000
0001
0000
0000
0100
0000
0000
0010
0000
,  // measure 15
0100
0000
0000
0001
0000
0000
0010
0000
0100
0000
0000
1000
0000
0000
0010
0000
,  // measure 16
1000
0000
0000
0001
0000
0000
0100
0000
0010
0000
0000
1000
0000
0000
0100
0000
,  // measure 17
0010
0000
0000
0001
0000
0000
2000
0000
0000
0000
0000
0000
3000
0000
0000
0000
,  // measure 18
0001
0000
0000
0000
1000
0000
0000
0000
0001
0000
0010
0000
0100
0000
1000
0000
0000
0000
0001
0000
0000
0000
0100
0001
0100
0000
0010
0000
0100
0000
0001
0000
,  // measure 19
0010
0000
1000
0000
0010
0100
1000
0002
0010
0000
0000
0003
1000
0001
1000
0010
,  // measure 20
0100
0000
0001
0010
1000
0010
0001
0010
0000
0100
0000
1000
0100
0001
0100
0010
,  // measure 21
0001
0000
0010
0000
1000
0001
0010
0200
0000
0000
0000
0300
0000
0000
0000
0000
,  // measure 22
0110
1001
2010
0001
,  // measure 23
3010
0000
0000
0010
0100
0000
0010
0000
1000
0000
0100
0000
0010
0000
0001
0000
,  // measure 24
0011
0000
0001
1000
1001
0000
0100
0001
,  // measure 25
0101
0000
0000
0000
0110
0000
0000
0110
0000
0000
0010
0000
1000
0000
0001
0000
,  // measure 26
1001
1100
0102
1000
,  // measure 27
0013
0000
0000
0010
0100
0000
0010
0000
0001
0000
1000
0000
0010
0000
1000
0000
,  // measure 28
0001
0000
0010
0100
1100
0000
1000
0001
,  // measure 29
1001
0000
0000
0000
0011
0000
0000
0011
0000
0000
0001
0000
0001
0000
0000
0000
,  // measure 30
2001
0000
0100
0000
0000
3001
1000
0010
,  // measure 31
1000
0000
1000
0000
0001
0010
1000
0010
,  // measure 32
0001
1000
0020
0000
0000
0130
0010
0200
,  // measure 33
0001
0000
0001
0300
0001
1000
0100
1000
,  // measure 34
0020
0000
0001
0000
0000
0130
0010
2000
,  // measure 35
3000
0200
0300
2000
3000
0100
0010
0001
,  // measure 36
0100
0000
0101
0000
0001
0000
1001
1000
,  // measure 37
0100
0000
0000
0000
0110
0000
0000
0010
0000
0000
0010
0000
0001
0000
1000
0000
,  // measure 38
0001
0010
0001
0010
0100
1000
0100
1000
,  // measure 39
0100
0010
0100
0010
0001
0100
0001
0100
,  // measure 40
0010
0100
0001
1000
0010
0100
0001
1000
0100
0010
0001
1000
0100
0010
0001
1000
,  // measure 41
0100
0010
0100
1000
0100
0010
0100
1000
0001
0000
0000
0000
0000
0010
0100
0010
,  // measure 42
0110
0000
1001
0000
1010
1000
0010
1000
,  // measure 43
0001
0000
0010
0000
0001
0000
0100
0010
0000
0000
0100
0000
0001
0000
1000
0000
,  // measure 44
0001
0000
0010
0100
1000
0000
0001
1000
,  // measure 45
1001
0000
0000
0000
0110
0000
0000
0110
0000
0000
0100
0000
0010
0000
1000
0000
,  // measure 46
1010
0000
0011
0000
0101
0100
0001
0100
,  // measure 47
0001
0000
0010
0000
0100
0000
1000
0100
0000
0000
1000
0000
0001
0000
0100
0000
,  // measure 48
0001
0000
1000
0100
0010
0000
0001
0100
,  // measure 49
0101
0110
1000
1001
,  // measure 50
0001
0100
0002
0000
1000
0000
0013
0100
,  // measure 51
1000
0000
0010
1000
0001
0000
1001
0000
,  // measure 52
1000
0100
0020
0000
1000
0000
0031
0000
,  // measure 53
0010
0100
1000
0000
0001
0000
1001
0000
,  // measure 54
1000
0001
0200
0000
1000
0000
0310
0100
,  // measure 55
0001
0000
0010
0100
1000
0000
1100
0000
,  // measure 56
1000
0001
0020
0000
0100
0000
0031
0000
,  // measure 57
0010
0000
0000
0000
0000
0000
0100
0000
0000
0000
0000
1000
0000
0000
0000
0000
0002
0000
0000
2000
0000
0000
0000
0000
0000
0000
0000
0000
0000
0000
0000
0000
,  // measure 58
0000
3003
0000
0000
;

//---------------dance-single - ----------------
#NOTES:
     dance-single:
     X-Scale 6:
     Easy:
     4:
     0.281675,0.354758,0.053290,0.167483,0.003806,259.000000,252.000000,7.000000,22.000000,0.000000,0.000000,0.281675,0.354758,0.053290,0.167483,0.003806,259.000000,252.000000,7.000000,22.000000,0.000000,0.000000:
// measure 0
0000
0000
0000
0000
,  // measure 1
0000
0000
0000
0000
,  // measure 2
1100
1000
0100
0010
,  // measure 3
0001
1000
0001
0100
,  // measure 4
0010
0000
1000
0001
0010
0000
0001
0000
,  // measure 5
1000
0000
0010
1000
0001
0000
0100
0000
,  // measure 6
0101
0000
0001
0000
1000
0000
0010
1000
,  // measure 7
0001
0000
0010
0000
0001
0000
1000
0010
,  // measure 8
1000
0000
0100
0000
1000
0000
0001
0100
,  // measure 9
0002
0000
0000
0013
0200
0000
0300
0000
,  // measure 10
1100
1000
0001
0100
,  // measure 11
0010
0100
0001
0010
,  // measure 12
1000
0010
0100
1000
,  // measure 13
0010
1000
0001
0010
,  // measure 14
0001
1000
0010
1000
,  // measure 15
0001
0010
0100
0010
,  // measure 16
0002
0010
0100
1000
,  // measure 17
0010
0000
0000
2000
0000
0000
0000
3000
,  // measure 18
1003
0100
0010
0001
,  // measure 19
0100
0010
1000
0001
,  // measure 20
0100
0010
1000
0001
0010
0001
1000
0010
,  // measure 21
0100
0010
1000
0100
0010
0001
0000
0000
,  // measure 22
0011
0001
0000
1000
0000
0000
0010
1000
,  // measure 23
0001
0000
0100
0010
1000
0000
0001
0000
,  // measure 24
0010
0100
0010
0100
0000
0000
1000
0001
,  // measure 25
0100
0000
0001
0000
0010
0100
0010
0000
,  // measure 26
0001
1000
0000
0010
0000
0000
1000
0010
,  // measure 27
1000
0000
0100
0010
0001
0000
1000
0000
,  // measure 28
0010
1000
0010
1000
0000
0000
0001
0100
,  // measure 29
0010
0000
1000
0000
0001
0100
0001
0000
,  // measure 30
0201
0000
0010
0000
0000
0310
0100
0002
,  // measure 31
1000
0000
0010
0000
1003
0000
0100
0010
,  // measure 32
0002
0000
1000
0000
0000
0013
0001
2000
,  // measure 33
0010
0100
3010
1000
,  // measure 34
1002
0000
0010
0000
0000
0013
0100
2000
,  // measure 35
3000
2000
3000
2000
3000
0100
0010
0001
,  // measure 36
2000
0000
3200
0000
0302
0000
0103
0010
,  // measure 37
0001
0000
1000
0000
0001
1000
0001
0000
,  // measure 38
1000
0000
0010
0000
,  // measure 39
1000
0000
0001
0000
,  // measure 40
0010
0100
1000
0010
,  // measure 41
1000
0001
0100
0000
,  // measure 42
1001
1000
0000
0001
0000
0000
0001
0010
,  // measure 43
0100
0000
1000
0000
0010
1000
0001
0000
,  // measure 44
0100
0001
0100
0001
0000
0000
1000
0100
,  // measure 45
0010
0000
0001
0000
1000
0010
1000
0000
,  // measure 46
0001
0010
0000
0001
0000
0000
1000
0010
,  // measure 47
0100
0000
0010
0000
1000
0001
0100
0000
,  // measure 48
0010
0100
0010
0100
0000
0000
0001
0010
,  // measure 49
0100
1000
0100
0010
,  // measure 50
0001
0010
0002
0000
0000
0000
1003
0000
,  // measure 51
0010
0100
0001
0010
,  // measure 52
0100
1000
0200
0000
0000
0000
0310
0000
,  // measure 53
0100
1000
0001
0100
,  // measure 54
0010
1000
0020
0000
0000
0000
0130
0000
,  // measure 55
0010
1000
0001
0010
,  // measure 56
0100
0010
0200
0000
0000
0000
1300
0000
,  // measure 57
0200
0000
0000
0000
0000
2300
0000
0000
0000
0000
3002
0000
0000
0000
0000
0000
,  // measure 58
0000
0003
0000
0000
;

//---------------dance-single - ----------------
#NOTES:
     dance-single:
     X-Scale 1:
     Beginner:
     1:
     0.108755,0.130180,0.015226,0.000000,0.000000,100.000000,98.000000,2.000000,0.000000,0.000000,0.000000,0.108755,0.130180,0.015226,0.000000,0.000000,100.000000,98.000000,2.000000,0.000000,0.000000,0.000000:
// measure 0
0000
0000
0000
0000
,  // measure 1
0000
0000
0000
0000
,  // measure 2
0001
0000
0000
0000
,  // measure 3
0010
0000
0000
0000
,  // measure 4
0100
0000
0000
0000
,  // measure 5
1000
0000
0000
0000
,  // measure 6
0010
0000
0000
0000
,  // measure 7
0100
0000
0000
0000
,  // measure 8
0001
0000
0000
0000
,  // measure 9
1000
0000
0000
0000
,  // measure 10
0001
0000
1000
0000
,  // measure 11
0001
0000
0100
0000
,  // measure 12
0001
0000
1000
0000
,  // measure 13
0100
0000
0010
0000
,  // measure 14
0100
0000
1000
0000
,  // measure 15
0100
0000
0010
0000
,  // measure 16
0001
0000
1000
0000
,  // measure 17
0001
0000
0000
0000
,  // measure 18
1000
0000
0000
0000
,  // measure 19
0001
0000
0000
0000
,  // measure 20
0010
0000
0001
0000
,  // measure 21
1000
0000
0010
0000
,  // measure 22
1001
0000
1000
0000
,  // measure 23
0001
0000
0100
0000
,  // measure 24
0001
0000
1000
0000
,  // measure 25
0100
0000
1000
0000
,  // measure 26
0010
0000
0100
0000
,  // measure 27
0010
0000
1000
0000
,  // measure 28
0100
0000
0010
0000
,  // measure 29
0001
0000
0010
0000
,  // measure 30
0100
0000
1000
0000
,  // measure 31
0001
0000
0100
0000
,  // measure 32
0001
0000
1000
0000
,  // measure 33
0100
0000
1000
0000
,  // measure 34
0001
0000
0010
0000
,  // measure 35
0100
0000
0010
0000
,  // measure 36
0001
0000
1000
0000
,  // measure 37
0001
0000
0100
0000
,  // measure 38
0001
0000
0000
0000
,  // measure 39
1000
0000
0000
0000
,  // measure 40
0001
0000
0010
0000
,  // measure 41
0100
0000
1000
0000
,  // measure 42
1001
0000
1000
0000
,  // measure 43
0001
0000
0100
0000
,  // measure 44
0001
0000
1000
0000
,  // measure 45
0100
0000
1000
0000
,  // measure 46
0010
0000
1000
0000
,  // measure 47
0100
0000
0010
0000
,  // measure 48
0001
0000
1000
0000
,  // measure 49
0001
0000
0010
0000
,  // measure 50
0001
0000
1000
0000
,  // measure 51
0010
0000
1000
0000
,  // measure 52
0001
0000
0100
0000
,  // measure 53
0010
0000
1000
0000
,  // measure 54
0100
0000
1000
0000
,  // measure 55
0001
0000
0010
0000
,  // measure 56
0100
0000
0010
0000
,  // measure 57
0001
0000
0000
0000
;
