#TITLE:Красная Луна;
#SUBTITLE:;
#ARTIST:Мари Краймбрери;
#TITLETRANSLIT:Krasnaya Luna;
#SUBTITLETRANSLIT:;
#ARTISTTRANSLIT:Mari Kraymbreri;
#GENRE:Electro-Ballad;
#CREDIT:;
#BANNER:Krasnaya Luna-bn.png;
#BACKGROUND:Krasnaya Luna-bg.png;
#LYRICSPATH:;
#CDTITLE:cdtitle.png;
#MUSIC:Krasnaya Luna.ogg;
#OFFSET:-0.003000;
#SAMPLESTART:50.090000;
#SAMPLELENGTH:16.695999;
#SELECTABLE:YES;
#BPMS:0.000000=115.000000
;
#STOPS:
;
#BGCHANGES:0.000=Krasnaya Luna.avi=1.000=1=0=0=StretchNoLoop==CrossFade==,
99999=-nosongbg-=1.000=0=0=0 // don't automatically add -songbackground-
;
#KEYSOUNDS:;
#ATTACKS:;

//---------------dance-single - ----------------
#NOTES:
     dance-single:
     X-Scale 12:
     Hard:
     8:
     0.413656,0.468508,0.049317,0.204312,0.225447,411.000000,404.000000,7.000000,29.000000,0.000000,0.000000,0.413656,0.468508,0.049317,0.204312,0.225447,411.000000,404.000000,7.000000,29.000000,0.000000,0.000000:
// measure 0
0000
0000
0000
0000
,  // measure 1
0000
0000
0000
0000
,  // measure 2
0000
0000
0000
0000
,  // measure 3
0000
0000
0000
0000
,  // measure 4
0002
0000
0000
0000
,  // measure 5
0203
0000
1000
0010
,  // measure 6
0302
0000
0000
0000
,  // measure 7
2003
0000
0000
0000
0200
0000
0000
3300
,  // measure 8
1100
0000
0100
0010
0001
0000
1000
0001
,  // measure 9
0100
0000
0000
0000
0001
0000
0000
0000
0010
0000
0000
0100
0000
0000
2000
0000
,  // measure 10
0100
3000
0001
0000
0100
0000
1000
0000
,  // measure 11
1001
0000
0100
0000
0001
1000
0020
0000
,  // measure 12
1030
0000
0001
0100
0001
0000
0010
0000
,  // measure 13
0100
0000
0000
1000
0000
0000
0001
0000
0100
0000
0000
0001
0000
0000
2000
0000
,  // measure 14
0100
3000
0010
1000
0001
0000
0010
0100
,  // measure 15
1000
0000
0001
0010
1000
0010
0200
0000
,  // measure 16
1300
0000
0001
0010
0001
1000
0010
1000
,  // measure 17
0001
0000
0000
0000
0010
0000
0100
0000
1000
0000
0000
0001
0000
0000
0100
0000
,  // measure 18
0001
0000
1000
0010
0100
0000
0001
0010
,  // measure 19
0100
0000
1000
0100
0001
0100
1000
0000
,  // measure 20
0001
0000
0100
0001
0010
0000
0100
1000
,  // measure 21
0001
0000
0000
0000
0100
0000
0001
0000
0010
0000
0000
0100
0000
0000
1000
0000
,  // measure 22
0001
0000
0100
0001
1000
0000
0010
0100
,  // measure 23
0001
0000
0010
0100
1000
0001
1000
0000
,  // measure 24
1001
0000
0000
0000
1000
0000
1000
0000
0001
1000
0000
0000
0001
0000
0010
0000
,  // measure 25
0100
0000
0000
0000
0000
0000
0000
0000
0000
0000
0000
0000
1000
0000
0000
0000
0000
0000
0001
0000
0000
0000
0000
0000
1000
0000
0000
0010
0000
0000
0000
0000
0000
0000
0000
0000
0100
0000
0000
0000
0000
0000
0010
0000
1000
0000
0010
0000
,  // measure 26
1000
0000
0000
0000
0001
0000
0010
0000
0001
1000
0000
0000
1000
0000
0100
0000
,  // measure 27
1000
0000
0000
0000
0000
0000
0000
0000
0000
0000
0000
0000
0001
0000
0000
0000
0000
0000
0010
0000
0000
0000
0000
0000
0100
0000
0000
1000
0000
0000
0000
0000
0000
0000
0000
0000
0010
0000
0000
0000
0000
0000
1000
0000
0010
0000
1000
0000
,  // measure 28
0001
0000
0000
0000
0001
0000
0100
0000
0010
0100
0000
0000
0001
0000
1000
0000
,  // measure 29
0001
0000
0000
0000
0000
0000
0000
0000
0000
0000
0000
0000
0010
0000
0000
0000
0000
0000
0100
0000
0000
0000
0000
0000
1000
0000
0000
0100
0000
0000
0000
0000
0000
0000
0000
0000
1000
0000
0000
0000
0000
0000
0001
0000
0100
0000
0001
0000
,  // measure 30
1000
0000
0000
0000
0000
0000
0000
0000
0000
0000
0000
0000
0100
0000
0000
0000
0000
0000
0010
0000
0000
0000
0000
0000
0001
0000
0000
1000
0000
0000
0000
0000
0000
0000
0000
0000
0100
0000
0000
0000
0000
0000
1000
0000
0100
0000
1000
0000
,  // measure 31
0001
0000
0000
0000
1000
0000
0001
0000
0100
0000
0001
0000
1000
0100
1000
0100
,  // measure 32
1000
0000
0000
0000
0000
0000
0000
0000
0000
0000
0000
0000
0100
0000
0000
0000
0000
0000
0010
0000
0000
0000
0000
0000
0001
0000
0000
0010
0000
0000
0000
0000
0000
0000
0000
0000
0100
0000
0000
0000
0000
0000
0010
0000
0100
0000
0010
0000
,  // measure 33
0001
0000
0000
0000
0000
0000
0000
0000
0000
0000
0000
0000
0001
0000
0000
0000
0000
0000
0100
0000
0000
0000
0000
0000
0001
0000
0000
1000
0000
0000
0000
0000
0000
0000
0000
0000
0100
0000
0000
0000
0000
0000
1000
0000
0001
0000
0100
0000
,  // measure 34
0001
0000
0000
0000
0000
0000
0000
0000
0000
0000
0000
0000
1000
0000
0000
0000
0000
0000
0001
0000
0000
0000
0000
0000
0100
0000
0000
0001
0000
0000
0000
0000
0000
0000
0000
0000
0010
0000
0000
0000
0000
0000
0001
0000
0010
0000
0001
0000
,  // measure 35
1000
0000
0000
0000
1000
0000
0001
0000
0200
0000
0000
0302
0000
0000
2003
0000
,  // measure 36
0100
0000
3001
1000
1001
0001
0010
0100
,  // measure 37
1100
0000
0000
0000
0000
0000
0000
0000
0000
0000
0000
0000
1000
0000
0000
0000
0000
0000
0100
0000
0000
0000
0000
0000
1000
0000
0000
0001
0000
0000
0000
0000
0000
0000
0000
0000
0010
0000
0000
0000
0000
0000
0001
0000
0100
0000
0001
0000
,  // measure 38
1000
0000
0000
0000
0001
0000
1000
0000
0100
1000
0000
0000
0100
0010
0100
0010
,  // measure 39
0100
0000
2000
0000
3100
0010
0002
0000
,  // measure 40
0103
0000
0000
0100
0000
0000
0100
0000
0000
0100
0000
0000
0100
0000
0000
0000
,  // measure 41
1001
0000
0000
0000
0010
0000
1000
0000
0001
0000
0000
0010
0000
0010
0000
0000
,  // measure 42
0002
0000
2003
3200
,  // measure 43
0320
0000
0000
0000
0031
0000
1000
0000
0001
0000
0000
0100
0000
0100
0000
0000
,  // measure 44
0020
0000
2030
0000
,  // measure 45
3001
0000
0000
0000
1000
0000
0010
0000
1000
0000
0000
0100
0000
0100
0000
0000
,  // measure 46
0020
0000
0032
0023
,  // measure 47
0230
0000
0000
0000
1300
0000
0001
0000
1000
0000
0000
0010
0000
0010
0000
0000
,  // measure 48
0110
0000
0100
0001
0000
0010
0100
0010
,  // measure 49
0100
0000
1000
0010
1000
0001
0100
0100
,  // measure 50
0001
0000
0000
0010
0000
0000
1000
0000
0000
0010
0000
0000
0100
0000
0000
1000
0000
0000
0001
0000
0000
0100
0001
1000
,  // measure 51
0001
0000
0010
0100
1000
0001
0100
0010
,  // measure 52
1000
0000
0000
0100
0000
0000
0001
0000
0000
0100
0000
0000
0010
0000
0000
0001
0000
0000
1000
0000
0000
0100
0010
0100
,  // measure 53
0010
0000
0001
0010
1000
0001
0010
0100
,  // measure 54
0001
0000
0000
1000
0000
0000
0100
0000
0000
1000
0000
0000
0001
0000
0000
0100
0000
0000
0001
0000
0000
1000
0001
0010
,  // measure 55
0001
0000
0100
0010
1000
0001
0010
1000
,  // measure 56
0100
0000
0000
1000
0000
0000
0010
0000
0000
0001
0000
0000
1000
0000
0000
0100
0000
0000
0010
0000
0000
0001
0010
0001
,  // measure 57
0010
0000
0100
1000
0001
0100
0010
2000
,  // measure 58
0000
3002
0000
0003
0010
0001
0100
0010
,  // measure 59
0100
0000
0001
0010
1000
0010
0100
1000
,  // measure 60
0000
0000
0000
0010
0000
0000
1000
0000
0000
0001
0000
0000
0100
0000
0000
0010
0000
0000
1000
0000
0000
0100
1000
0100
,  // measure 61
1000
0000
0001
0100
1000
0100
0010
0100
,  // measure 62
0001
0000
0000
0000
0000
0000
1000
0000
0000
0001
0000
0000
0010
0000
0000
1000
0000
0000
0010
0000
0000
0001
0010
0001
,  // measure 63
0010
0000
0001
0100
1000
0100
0010
0100
,  // measure 64
0002
0000
0203
0000
1300
0100
0002
0000
,  // measure 65
1003
0000
0000
0010
0000
0000
0001
0000
0000
1000
0000
0000
0001
0000
0000
0010
,  // measure 66
0000
0000
1000
0000
0000
0100
0000
0000
1000
0000
0000
0000
0000
0000
0000
0000
;

//---------------dance-single - ----------------
#NOTES:
     dance-single:
     X-Scale 8:
     Medium:
     6:
     0.328106,0.351381,0.098633,0.176131,0.035226,326.000000,312.000000,14.000000,25.000000,0.000000,0.000000,0.328106,0.351381,0.098633,0.176131,0.035226,326.000000,312.000000,14.000000,25.000000,0.000000,0.000000:
0000
0000
0000
0000
,
0000
0000
0000
0000
,
0000
0000
0000
0000
,
0000
0000
0000
0000
,
1000
0000
0000
0000
,
0100
0000
0010
0100
,
1000
0000
0000
0000
,
0001
0000
0000
0000
,
1001
0000
0000
0000
1000
0001
0100
0001
,
1000
0000
0010
0000
,
1000
0000
0100
0000
,
0110
0000
0010
0000
0100
1000
0001
0000
,
1001
0000
0000
0000
1000
0010
0001
0010
,
1000
0000
0001
0000
,
0011
0000
0001
1000
0100
0000
0010
0000
,
0001
0000
1000
0001
0100
0001
1000
0000
,
1100
0000
0100
0010
0000
0010
0001
0000
,
1000
0000
0001
0100
0000
0000
0001
0000
,
0101
0000
0001
0010
0100
0000
1000
0000
,
0010
0000
1000
0001
0100
0010
1000
0000
,
1010
0000
0010
0100
0000
0100
0001
0000
,
0101
0000
1000
0001
0010
0000
0100
0000
,
1100
0000
1000
0100
0010
0000
0001
0000
,
1000
0000
0010
1000
0001
0010
0100
0000
,
1100
0000
1000
0100
1000
0000
0001
0100
,
0001
0000
0100
0010
0100
0000
0001
0010
,
0001
0000
1000
0010
1000
0000
0100
0010
,
0002
0000
0000
0000
0013
0000
0100
0000
1000
0000
0000
0001
0000
0000
2000
0000
,
0100
0000
3010
1000
0010
0000
0100
0001
,
0100
0000
0001
1000
0001
0000
0100
0010
,
0100
0000
0001
0010
0001
0000
1000
0010
,
1000
0000
0001
0010
1000
0010
0001
0000
,
1000
0000
0010
1000
0001
0000
0100
0010
,
1000
0000
0100
0010
0001
0000
1000
0001
,
0100
0000
0010
0100
0001
0000
0010
0100
,
2000
0000
0000
0000
3010
0000
1000
0000
0001
0000
0000
0100
0000
0000
0020
0000
,
0000
0000
0031
0010
1000
0000
0001
1000
,
0100
0000
0010
0100
1000
0000
0001
1000
,
0001
0000
0100
0010
0100
0000
0001
1000
,
0010
0000
2000
0000
3100
1000
0002
0000
,
0023
0032
0023
0030
,
1001
0000
0000
0000
1000
0000
0010
0000
1000
0000
0000
0100
0000
0100
0000
0000
,
0020
0000
0031
0010
,
0100
0000
0000
0000
1000
0000
0001
0000
1000
0000
0000
0010
0000
0010
0000
0000
,
0200
0000
0302
0000
,
0013
0000
0000
0000
0100
0000
0010
0000
0001
0000
0000
1000
0000
1000
0000
0000
,
0020
0000
0130
0001
,
0010
0100
1000
0001
,
2001
0000
0000
0000
0000
0000
0000
3000
,
1010
0000
0010
0100
0000
0001
0010
0001
,
1000
0000
0100
0010
0000
0001
0010
0100
,
1000
0000
0001
0100
0000
0010
0100
0001
,
0010
0000
0100
0010
0001
0000
1000
0001
,
0100
0000
0010
0100
0000
0001
0010
0001
,
1000
0000
0100
0010
0000
0001
1000
0010
,
0100
0000
0010
1000
0000
0001
0100
0001
,
1000
0000
0100
0010
0001
0000
1000
0001
,
1001
0000
1000
0010
1000
0000
0100
0010
,
0001
0000
1000
0010
0100
0001
0010
0100
,
1000
0002
0000
0100
0100
0003
0001
0010
,
0100
0000
0000
0000
1000
0000
0010
0000
1000
0000
0000
0100
0000
0000
0020
0000
,
0001
0000
0130
0010
0001
1000
0010
0100
,
0001
0000
0000
0000
1000
0000
0001
0000
0100
0000
0000
0010
0000
0000
0200
0000
,
0001
0000
1300
0100
0001
0010
0100
0010
,
0001
0000
2000
0000
3010
1000
0200
0000
,
0320
0032
0023
0230
,
2300
3002
1003
0000
;

//---------------dance-single - ----------------
#NOTES:
     dance-single:
     X-Scale 4:
     Easy:
     2:
     0.163047,0.274764,0.028181,0.077498,0.000000,162.000000,158.000000,4.000000,11.000000,0.000000,0.000000,0.163047,0.274764,0.028181,0.077498,0.000000,162.000000,158.000000,4.000000,11.000000,0.000000,0.000000:
0000
0000
0000
0000
,
0000
0000
0000
0000
,
0000
0000
0000
0000
,
0000
0000
0000
0000
,
0001
0000
0000
0000
,
1000
0000
0000
0000
,
0100
0000
0000
0000
,
1000
0000
0000
0000
,
0001
0000
0000
0001
0000
0000
0000
0000
,
1000
0000
0100
0000
,
1000
0000
0010
0000
,
0100
0000
0001
0000
,
1000
0000
0000
1000
0000
0000
0000
0000
,
0001
0000
0010
0000
,
0100
0000
0000
0100
0000
0000
0000
0000
,
1000
0000
0001
0000
,
1000
0000
0000
0100
0000
0000
1000
0000
,
0001
0000
0000
0100
0000
0000
0001
0000
,
0010
0000
0000
0100
0000
0000
0010
0000
,
0100
0000
0000
1000
0000
0000
0001
0000
,
1000
0000
0000
0100
0000
0000
0010
0000
,
0001
0000
0000
1000
0000
0000
0010
0000
,
1000
0000
0000
0100
0000
0000
0010
0000
,
0001
0000
0000
0000
,
1001
0000
1000
0010
,
1000
0000
0100
0000
,
0010
0000
0001
0010
,
0001
0000
1000
0000
,
0010
0000
1000
0100
,
1000
0000
0001
0000
,
0100
0000
0010
0100
,
0010
0000
1000
0000
,
0001
0000
1000
0010
,
1000
0000
0100
0000
,
0010
0000
0001
0010
,
0001
0000
1000
0000
,
0010
0000
1000
0100
,
0010
0000
0001
0000
,
1000
0000
0010
1000
,
0001
0000
0010
0000
,
0200
0000
0300
0200
0000
0300
0200
0300
,
2100
0000
0001
0000
,
3020
0000
0000
0000
,
0230
0000
0010
0000
,
0302
0000
0010
0000
,
2003
0000
0000
0000
,
3020
0000
0000
0000
,
0230
0000
0001
0000
,
0320
0000
0000
0030
,
1001
0000
1000
0010
1000
0000
0001
0000
,
0010
0000
0100
0010
0100
0000
1000
0000
,
0001
0000
1000
0010
1000
0000
0100
0000
,
0010
0000
0001
0010
0001
0000
1000
0000
,
0010
0000
0100
0010
0100
0000
0001
0000
,
0010
0000
0100
1000
0100
0000
0010
0000
,
0001
0000
1000
0010
1000
0000
0100
0000
,
0010
0000
0001
0010
0001
0000
1000
0000
,
1001
0000
1000
0010
,
1000
0000
0001
0000
,
0010
0000
0100
0010
,
0100
0000
1000
0000
,
0001
0000
0100
0010
,
0100
0000
0001
0000
,
0010
0000
0100
0010
,
0100
0000
1000
0000
,
0001
0000
0000
0000
;

//---------------dance-single - ----------------
#NOTES:
     dance-single:
     X-Scale 1:
     Beginner:
     1:
     0.095614,0.137382,0.014090,0.000000,0.000000,95.000000,93.000000,2.000000,0.000000,0.000000,0.000000,0.095614,0.137382,0.014090,0.000000,0.000000,95.000000,93.000000,2.000000,0.000000,0.000000,0.000000:
0000
0000
0000
0000
,
0000
0000
0000
0000
,
0000
0000
0000
0000
,
0000
0000
0000
0000
,
1000
0000
0000
0000
,
0001
0000
0000
0000
,
1000
0000
0000
0000
,
0001
0000
0000
0000
,
0010
0000
0000
0000
,
0100
0000
0000
0000
,
0010
0000
0000
0000
,
0100
0000
0000
0000
,
1000
0000
0000
0000
,
0001
0000
0000
0000
,
0100
0000
0000
0000
,
0001
0000
0000
0000
,
1000
0000
0000
0000
,
0100
0000
0000
0000
,
0010
0000
0000
0000
,
0100
0000
0000
0000
,
1000
0000
0000
0000
,
0001
0000
0000
0000
,
1000
0000
0000
0000
,
0000
0000
0000
0000
,
1001
0000
1000
0000
,
0010
0000
1000
0000
,
0001
0000
0100
0000
,
0001
0000
1000
0000
,
0100
0000
1000
0000
,
0001
0000
0010
0000
,
0100
0000
0010
0000
,
0001
0000
1000
0000
,
0010
0000
1000
0000
,
0001
0000
1000
0000
,
0100
0000
0010
0000
,
0001
0000
0100
0000
,
0001
0000
0010
0000
,
0100
0000
1000
0000
,
0001
0000
0100
0000
,
0001
0000
1000
0000
,
0001
0000
0000
0000
,
0010
0000
0000
0000
,
0100
0000
0000
0000
,
0010
0000
0000
0000
,
0100
0000
0000
0000
,
1000
0000
0000
0000
,
0001
0000
0000
0000
,
1000
0000
0000
0000
,
0001
0000
0000
0000
,
1001
0000
1000
0000
,
0100
0000
1000
0000
,
0001
0000
0100
0000
,
0001
0000
0010
0000
,
0100
0000
0010
0000
,
0001
0000
1000
0000
,
0010
0000
1000
0000
,
0001
0000
1000
0000
,
0100
0000
0010
0000
,
0100
0000
1000
0000
,
0001
0000
0010
0000
,
0001
0000
1000
0000
,
0001
0000
0010
0000
,
0100
0000
1000
0000
,
0100
0000
0010
0000
,
0001
0000
1000
0000
,
0001
0000
0000
0000
;
