#TITLE:Just About Enough;
#SUBTITLE:;
#ARTIST:Sarina Paris;
#TITLETRANSLIT:;
#SUBTITLETRANSLIT:;
#ARTISTTRANSLIT:;
#GENRE:Bubblegum Pop;
#CREDIT:;
#BANNER:Just About Enough-bn.png;
#BACKGROUND:Just About Enough-bg.png;
#LYRICSPATH:;
#CDTITLE:cdtitle.png;
#MUSIC:Just About Enough.ogg;
#OFFSET:0.230000;
#SAMPLESTART:14.641000;
#SAMPLELENGTH:16.052000;
#SELECTABLE:YES;
#BPMS:0.000000=132.925003
;
#STOPS:
;
#BGCHANGES:0.250=Just About Enough.avi=1.000=1=0=0=StretchNoLoop==CrossFade==,
99999=-nosongbg-=1.000=0=0=0 // don't automatically add -songbackground-
;
#KEYSOUNDS:;
#ATTACKS:;

//---------------dance-single - ----------------
#NOTES:
     dance-single:
     X-Scale 11:
     Hard:
     8:
     0.440479,0.458247,0.075665,0.368868,0.028374,326.000000,318.000000,8.000000,39.000000,0.000000,0.000000,0.440479,0.458247,0.075665,0.368868,0.028374,326.000000,318.000000,8.000000,39.000000,0.000000,0.000000:
0000
0000
0000
0000
,
0000
0000
0000
0000
,
0000
0000
0000
0000
,
0000
0000
0000
0000
,
0000
0000
0000
1000
,
0000
0001
0100
0000
0101
0100
0010
0000
,
0000
0100
0000
0001
0000
0100
0001
0000
,
0000
0010
0100
0000
1100
1000
0002
0000
,
0000
0000
0103
0001
1000
0010
1010
0000
,
1000
0000
0010
0100
0001
0020
0000
0031
,
2000
0000
3100
0001
0100
0010
0001
0000
,
0100
0001
1000
0010
0001
0020
0100
0000
,
0001
0000
1030
0010
1000
0100
0010
0000
,
0001
0010
0100
0010
0001
2000
0000
3100
,
0020
0000
0031
2000
0000
3020
1000
0000
,
0001
0000
1030
0000
0010
1000
0001
0200
,
0000
0302
0000
0000
0013
0200
0000
1000
,
0300
1000
0100
0001
0100
0010
0001
0100
,
0010
0100
0001
0100
0010
1000
0000
0001
,
0000
1000
0100
0001
0100
1000
0010
0001
,
0010
0100
0010
1000
0001
0010
0000
0010
,
0000
0010
0100
0010
0001
1000
0010
0100
,
0010
1000
0100
0010
0001
1000
0000
0001
,
0000
1000
0010
0100
1000
0100
0010
1000
,
0001
0100
0010
1000
0001
0100
0000
0100
,
0000
0100
0001
0000
0010
0000
0100
0000
,
0100
0000
0100
1000
0001
2000
0000
3200
,
0000
0000
0300
0010
0001
2000
0000
3010
,
1000
0002
0000
0103
0001
2000
0000
3020
,
0000
0000
0030
0100
0001
2000
0000
3100
,
1000
0002
0000
0013
0001
2000
0000
3002
,
0000
0000
0003
0010
0001
2000
0000
3010
,
1000
0002
0000
0103
0001
0020
0000
1030
,
0010
0001
1000
0020
0000
2030
0000
0001
,
3000
0001
0000
1000
0000
1000
1001
0000
,
0001
0000
0100
0001
1000
0000
0100
0000
,
0010
0000
0100
0010
0001
0000
0100
0000
,
0001
0010
0100
1000
0010
0100
0002
0000
,
0000
0000
1003
0001
0100
0010
0201
0000
,
0301
0000
0000
0010
0001
0000
0010
0000
0100
0000
2000
0000
0000
0000
3001
0000
,
0200
0000
1300
0100
0010
0100
0002
0000
,
0013
0000
0000
0001
0100
0000
0001
0000
1000
0000
0200
0000
0001
0000
0000
0000
,
0010
0000
1300
0100
0001
0100
2000
0000
,
3010
0000
0000
1000
0001
0000
1000
0000
0010
0000
0200
0000
0000
0000
0301
0000
,
0020
0000
0130
0010
0001
1000
0010
0000
,
1010
0000
0000
1000
0010
0000
1000
0000
0001
0000
0010
0000
0010
0000
0000
0000
,
0110
0000
0000
0100
1000
0000
0100
0000
0010
0000
0100
0000
1000
0000
0001
0000
,
0000
0001
0100
0010
0001
0010
1000
0100
,
0001
0100
1000
0010
0100
0001
0000
1000
,
0000
0001
0010
1000
0010
0100
1000
0100
,
0001
0100
1000
0001
0100
0010
0000
0010
,
0000
0010
1000
0001
0010
0100
0010
0001
,
1000
0100
1000
0010
0100
0001
0000
1000
,
0000
0001
0010
1000
0010
0100
0010
0001
,
1000
0100
0010
0001
1000
0100
0000
0100
,
0000
0000
0100
0010
0100
0000
1000
0000
0001
0000
0100
0000
0002
0000
0000
0000
,
0013
0100
2000
0000
3010
1000
2002
0000
,
3003
0000
0000
0000
;

//---------------dance-single - ----------------
#NOTES:
     dance-single:
     X-Scale 8:
     Medium:
     6:
     0.366165,0.402562,0.104040,0.255370,0.018916,271.000000,260.000000,11.000000,27.000000,0.000000,0.000000,0.366165,0.402562,0.104040,0.255370,0.018916,271.000000,260.000000,11.000000,27.000000,0.000000,0.000000:
0000
0000
0000
0000
,
0000
0000
0000
0000
,
0000
0000
0000
0000
,
0000
0000
0000
0000
,
0000
0000
0000
0001
,
0000
1000
1001
0001
,
0000
0010
0110
0100
,
0000
1000
1001
0001
,
0000
0000
0000
0110
,
0100
0000
0010
0100
0001
0000
1000
0000
,
0010
0000
1000
0100
0010
0100
2000
0000
,
0001
0000
3100
1000
0001
0000
0010
0000
,
0001
0000
1000
0010
0001
0010
2000
0000
,
0100
0000
3001
1000
0010
0000
0100
0000
,
0001
0000
0000
0010
0000
0000
0001
0000
0100
0000
0010
0000
0100
0000
0000
0000
,
0001
0000
0000
0010
0000
0000
0001
0000
1000
0000
0010
0000
1000
0000
0000
0000
,
0001
0000
0000
0010
0000
0000
0100
0000
1000
0000
0001
0000
1000
0000
0100
0000
,
0000
0100
0000
0010
0000
0010
0011
0000
,
0001
1000
0010
1000
,
0001
0000
0100
0010
0001
0010
0100
0000
,
0001
1000
0010
1000
,
0001
0000
0010
0100
1000
0100
0010
0000
,
0001
1000
0001
0010
,
0001
0000
0100
0001
0010
0001
0100
0000
,
0001
0000
1000
0000
0100
1000
0000
1000
,
0000
1000
0010
0000
0010
0000
0110
0000
,
0100
0001
1000
0010
,
1000
0000
0001
0100
0001
1000
0000
0010
,
0000
1000
0000
0010
0000
0000
1000
0000
,
0001
0000
1000
0100
0010
0001
0000
0100
,
0000
0001
0000
0100
0000
0000
0001
0000
,
1000
0000
0010
1000
0001
0100
0000
0010
,
0000
0100
0000
0010
0000
0000
1000
0000
,
0100
0000
0001
0000
0100
0000
1000
0001
,
0000
0001
0000
1000
0000
1000
1001
0000
,
0001
0100
0001
0000
1000
0000
0100
0000
,
0010
0100
0010
0000
0001
0000
1000
0000
,
0010
0100
0010
0000
1000
0000
1001
0000
,
0000
0000
0000
0120
,
1000
0000
0130
0010
1000
0002
0000
0013
,
0200
0000
1300
0001
0100
0010
0200
0000
,
1000
0000
0301
0000
0100
0020
0001
0000
,
0100
0000
1030
0010
0100
0001
0020
0000
,
0100
0000
0031
0010
0100
2000
0000
3100
,
0020
0000
0031
0200
0000
0320
0100
0000
,
1030
0000
0000
1000
0000
0000
1000
0000
0100
0000
0001
0000
0100
0000
2000
0000
,
0000
3002
0000
0003
0100
0002
0000
1003
,
0000
1000
0000
0001
0000
0001
1002
0000
,
0103
0010
0200
0000
1300
0100
0002
0100
,
0003
0100
0010
1000
0001
0010
0200
0000
,
0301
0100
2000
0000
3001
0100
0020
0100
,
0030
0100
0001
0010
1000
0010
0002
0000
,
1003
0001
0200
0000
0310
0100
0002
1000
,
0003
1000
0010
0001
1000
0100
0002
0000
,
0013
0100
2000
0000
3010
1000
0200
0010
,
0300
0010
0100
0000
1000
0000
0001
0100
,
0000
0100
0000
0001
0000
0001
1001
0000
;

//---------------dance-single - ----------------
#NOTES:
     dance-single:
     X-Scale 5:
     Easy:
     3:
     0.191865,0.242601,0.037833,0.170247,0.000000,142.000000,138.000000,4.000000,18.000000,0.000000,0.000000,0.191865,0.242601,0.037833,0.170247,0.000000,142.000000,138.000000,4.000000,18.000000,0.000000,0.000000:
// measure 0
0000
0000
0000
0000
,  // measure 1
0000
0000
0000
0000
,  // measure 2
0000
0000
0000
0000
,  // measure 3
0000
0000
0000
0000
,  // measure 4
0000
0000
0000
1000
,  // measure 5
0000
0001
0000
1000
,  // measure 6
0000
0001
0000
1000
,  // measure 7
0000
0001
0000
1001
,  // measure 8
0000
0000
0000
0110
,  // measure 9
0000
0100
0000
0010
,  // measure 10
0000
1000
0000
0001
,  // measure 11
0000
0010
0000
0001
,  // measure 12
0000
1000
0000
0100
,  // measure 13
0000
0010
0000
0100
,  // measure 14
0000
1000
0000
0001
,  // measure 15
0000
0010
0000
0001
,  // measure 16
0000
1000
0000
0200
,  // measure 17
0000
0310
0100
1000
,  // measure 18
0000
0000
0001
0000
0000
1000
0000
1000
,  // measure 19
0000
0001
0100
0001
,  // measure 20
0000
0000
1000
0000
0000
0001
0000
0001
,  // measure 21
0000
0100
0010
0100
,  // measure 22
0000
0000
0001
0000
0000
1000
0000
1000
,  // measure 23
0000
0010
1000
0001
,  // measure 24
0000
0000
0100
0000
0000
0001
0000
0001
,  // measure 25
0000
1000
1000
0002
,  // measure 26
0000
0100
0000
1003
,  // measure 27
0000
0001
0000
0010
,  // measure 28
0000
0001
0000
1000
,  // measure 29
0000
0100
0000
1000
,  // measure 30
0000
0001
0000
0100
,  // measure 31
0000
0001
0000
1000
,  // measure 32
0000
0100
0000
0010
,  // measure 33
0000
0000
0100
0000
0000
0000
0000
1000
,  // measure 34
0000
1000
0000
0001
0000
0001
0000
0100
,  // measure 35
0000
0100
0000
0001
0000
0001
0000
1000
,  // measure 36
0000
1000
0000
0001
0000
0001
0000
0010
,  // measure 37
0000
0010
0000
0100
0000
0100
1000
0000
,  // measure 38
0000
0010
1000
1001
,  // measure 39
0000
0100
0000
0001
,  // measure 40
0000
1000
0010
1000
,  // measure 41
0000
0001
0000
0010
,  // measure 42
0000
0100
1000
0100
,  // measure 43
0000
0010
0000
0001
,  // measure 44
0000
1000
0000
0010
,  // measure 45
0000
1000
0000
0001
,  // measure 46
0000
0100
0000
0002
,  // measure 47
0000
0000
0100
0000
0000
0003
2001
0000
,  // measure 48
3000
0001
0020
0000
0030
0100
2000
0000
,  // measure 49
3000
0010
1000
0002
,  // measure 50
0003
0100
0020
0000
0030
1000
0002
0000
,  // measure 51
0003
0010
0100
2000
,  // measure 52
3000
0100
0020
0000
0030
0001
0200
0000
,  // measure 53
0300
0001
0010
0002
,  // measure 54
0003
1000
0020
0000
0030
0100
0002
0000
,  // measure 55
0003
0010
0010
0200
,  // measure 56
0300
1000
0002
0000
0003
0100
0020
0000
,  // measure 57
0030
0000
0000
0000
;

//---------------dance-single - ----------------
#NOTES:
     dance-single:
     X-Scale 2:
     Beginner:
     1:
     0.102688,0.161025,0.028374,0.000000,0.000000,76.000000,73.000000,3.000000,0.000000,0.000000,0.000000,0.102688,0.161025,0.028374,0.000000,0.000000,76.000000,73.000000,3.000000,0.000000,0.000000,0.000000:
// measure 0
0000
0000
0000
0000
,  // measure 1
0000
0000
0000
0000
,  // measure 2
0000
0000
0000
0000
,  // measure 3
0000
0000
0000
0000
,  // measure 4
0000
0000
0000
0000
,  // measure 5
0001
0000
1000
0000
,  // measure 6
0001
0000
0100
0000
,  // measure 7
0001
0000
1000
0000
,  // measure 8
0000
0000
0000
1001
,  // measure 9
0000
0000
0000
1000
,  // measure 10
0000
0000
0000
0001
,  // measure 11
0000
0000
0000
0100
,  // measure 12
0000
0000
0000
0001
,  // measure 13
0000
0000
0000
1000
,  // measure 14
0000
0000
0000
0100
,  // measure 15
0000
0000
0000
0010
,  // measure 16
0000
0000
0000
0001
,  // measure 17
0000
0000
0000
1000
,  // measure 18
0000
0000
0000
0001
,  // measure 19
0000
0000
0000
0100
,  // measure 20
0000
0000
0000
0001
,  // measure 21
0000
0000
0000
1000
,  // measure 22
0000
0000
0000
0100
,  // measure 23
0000
0000
0000
1000
,  // measure 24
0000
0000
0000
0001
,  // measure 25
0000
0010
0000
0001
,  // measure 26
0000
0000
0000
1000
,  // measure 27
0000
0000
0000
0100
,  // measure 28
0000
0000
0000
0010
,  // measure 29
0000
0000
0000
0001
,  // measure 30
0000
0000
0000
0100
,  // measure 31
0000
0000
0000
0010
,  // measure 32
0000
0000
0000
1000
,  // measure 33
0000
0000
0000
0001
,  // measure 34
0000
0000
0000
0000
,  // measure 35
1000
0000
0100
0000
,  // measure 36
1000
0000
0001
0000
,  // measure 37
1000
0000
0100
0000
,  // measure 38
0000
0000
0000
1001
,  // measure 39
0000
0001
0000
0100
,  // measure 40
0000
0001
0000
1000
,  // measure 41
0000
0001
0000
0010
,  // measure 42
0000
0001
0000
1000
,  // measure 43
0000
0100
0000
0010
,  // measure 44
0000
0100
0000
1000
,  // measure 45
0000
0001
0000
1000
,  // measure 46
0000
0010
0000
1000
,  // measure 47
0000
0000
0000
0000
,  // measure 48
0001
0000
0100
0000
,  // measure 49
0001
0000
0100
0000
,  // measure 50
0010
0000
1000
0000
,  // measure 51
0010
0000
1000
0000
,  // measure 52
0100
0000
0010
0000
,  // measure 53
0100
0000
0010
0000
,  // measure 54
0001
0000
0100
0000
,  // measure 55
0001
0000
0100
0000
,  // measure 56
0000
0000
0000
1001
;
