#TITLE:Juliet feat. Matt Van;
#SUBTITLE:;
#ARTIST:CloudNone;
#TITLETRANSLIT:;
#SUBTITLETRANSLIT:;
#ARTISTTRANSLIT:;
#GENRE:2-Step Garage;
#CREDIT:;
#BANNER:Juliet-bn.png;
#BACKGROUND:Juliet-bg.png;
#LYRICSPATH:;
#CDTITLE:cdtitle.png;
#MUSIC:Juliet.ogg;
#OFFSET:-0.004000;
#SAMPLESTART:46.833000;
#SAMPLELENGTH:15.610000;
#SELECTABLE:YES;
#BPMS:0.000000=123.000000
;
#STOPS:
;
#BGCHANGES:;
#KEYSOUNDS:;
#ATTACKS:;

//---------------dance-single - ----------------
#NOTES:
     dance-single:
     X-Scale 13:
     Hard:
     9:
     0.497837,0.523490,0.016246,0.333052,0.345237,429.000000,427.000000,2.000000,41.000000,0.000000,0.000000,0.497837,0.523490,0.016246,0.333052,0.345237,429.000000,427.000000,2.000000,41.000000,0.000000,0.000000:
0000
0000
0000
0000
,
0000
0000
0000
0000
,
0000
0000
0000
0000
,
0000
0000
0000
0000
,
0002
0000
0000
0023
0000
0000
0000
0000
,
0032
0000
1003
0010
,
2000
0000
0000
3200
0000
0000
0000
0000
,
2300
0000
0000
0000
3001
0000
0100
0001
,
0200
0000
0000
0000
1000
0000
0000
0000
0310
0100
0000
0000
0001
0000
0000
1000
,
0020
1000
0000
0000
0001
0000
0000
0000
0230
0000
0000
0000
0302
0000
0000
0000
,
0013
0000
0000
0001
0000
0000
0000
0000
0000
0000
0000
0000
0010
0000
0000
0100
0000
0000
0000
0000
0000
0000
0000
0000
1000
0000
0000
0000
0100
0000
1000
0000
0000
0000
0000
0000
0001
0000
0000
0100
0000
0000
0000
0000
0000
0000
0000
0000
,
0001
1000
0010
0100
0001
0010
0100
1000
,
0200
0000
0000
0000
0001
0000
0000
0000
1300
0100
0000
0000
1000
0001
0000
0010
,
0200
0010
0000
0000
0000
0000
2300
0000
0000
0000
3001
0000
1000
0000
0000
0000
,
0100
0000
0000
1000
0000
0000
0000
0000
0000
0000
0000
0000
1000
0000
0000
0001
0000
0000
0000
0000
0000
0000
0000
0000
0100
0000
0000
0000
0001
0000
0100
0000
0000
0000
0000
0000
0001
0000
0000
0000
0000
0000
0010
0000
0000
0000
0000
0000
,
1000
0010
0100
1000
0001
0100
0020
1000
,
1000
0000
0000
0000
0000
0000
0000
0000
0000
0000
0000
0000
0130
0000
0000
0010
0000
0000
0000
0000
0000
0000
0000
0000
1000
0000
0000
0000
0001
0000
0010
0000
0000
0000
0000
0000
0100
0000
0000
0000
0000
0000
0010
0000
0000
0000
0000
0000
,
0001
1000
0000
0000
0100
1000
0000
0000
0001
0000
0100
0000
0001
0010
0000
0100
,
0010
0000
0000
0100
0000
0000
0000
0000
0000
0000
0000
0000
0100
0000
0000
1000
0000
0000
0000
0000
0000
0000
0000
0000
0001
0000
0000
0000
0100
0000
0001
0000
0000
0000
0000
0000
0100
0000
0000
0000
0000
0000
0010
0000
0000
0000
0000
0000
,
1000
0001
0010
1000
0010
0100
1000
0002
,
0100
0000
0000
0000
0000
0000
0000
0000
0000
0000
0000
0000
0103
0000
0000
0001
0000
0000
0000
0000
0000
0000
0000
0000
1000
0000
0000
0000
0010
0000
1000
0000
0000
0000
0000
0000
0100
0000
0000
0000
0000
0000
0001
0000
0000
0000
0000
0000
,
0100
0010
0001
1000
0001
0100
0010
1000
,
0100
0000
0000
1000
0000
0000
0000
0000
0000
0000
0000
0000
1000
0000
0000
0001
0000
0000
0000
0000
0000
0000
0000
0000
0100
0000
0000
0000
0001
0000
0010
0000
0000
0000
0000
0000
0100
0000
0000
1000
0000
0000
0000
0000
0000
0000
0000
0000
,
0001
0010
1000
0001
0100
2000
0000
3000
,
1100
0000
0000
0000
0000
0000
0100
0000
0000
0000
0000
0000
1000
0000
0000
0000
0000
0000
0001
0000
0000
0000
0000
0000
0100
0000
0000
0000
0001
0000
0010
0000
0000
0000
0000
0000
0001
0000
0000
0100
0000
0000
0000
0000
0000
0100
0000
0000
,
1000
0000
0000
0100
0000
0000
0010
0000
0000
0100
0000
0000
1000
0000
0000
0001
0000
0100
0001
0000
0000
1000
0000
0000
,
0100
1000
0001
0000
0100
0000
0010
0000
1000
0000
0100
0000
0010
0000
0001
0000
,
1000
0001
0010
0000
0100
0010
0001
0000
1000
0000
0001
0000
0100
0000
1000
0000
,
0100
0010
0100
0001
1000
0001
0100
0002
,
0000
0013
0100
2000
0000
3020
0001
0000
,
1030
0010
0000
0000
0100
0001
0000
0000
0001
0000
1000
0000
0010
0000
2000
0000
,
0000
3010
1000
0100
0010
0001
1000
0001
,
0010
0000
0000
0100
0000
0000
0000
0000
0000
0100
0000
0000
1000
0000
0000
0000
0000
0000
0001
0000
0000
0000
0000
0000
1000
0000
0000
0000
0100
0000
1000
0000
0000
0000
0000
0000
0001
0000
0000
0100
0000
0000
0000
0000
0000
0100
0000
0000
,
1000
0000
0000
0001
0000
0000
0100
0000
0000
0001
0000
0000
1000
0000
0000
0100
0000
0010
0100
0000
0000
1000
0000
0000
,
0100
0010
0001
0000
0100
0000
0010
0000
1000
0000
0001
0000
0100
0000
0001
0000
,
1000
0100
0010
0000
0001
0010
0100
0000
1000
0000
0001
0000
0100
0000
1000
0000
,
0100
0001
1000
0100
0001
0100
0010
0002
,
0000
0013
0100
2000
0000
3002
1000
0000
,
0103
0001
0000
0000
1000
0100
0000
0000
1000
0000
0001
0000
0010
0000
0200
0000
,
0000
1300
0100
0001
0100
0010
0001
1000
,
0001
0000
1000
0000
0001
0100
0010
2000
,
0000
3010
1000
0001
1000
0010
0100
0000
,
1010
0000
0000
0000
1000
0000
0001
0000
0100
0010
0000
0000
0100
0000
0000
0001
,
0010
0001
0000
0000
1000
0000
0010
0000
1000
0000
0001
0000
0100
0000
0001
0000
,
0010
0000
0000
0100
0000
0000
0000
0000
0000
0000
0000
0000
0100
0000
0000
1000
0000
0000
0000
0000
0000
0000
0000
0000
1000
0000
0000
0000
0010
0000
1000
0000
0000
0000
0000
0000
0001
0000
0000
0000
0000
0000
0020
0000
0000
0000
0000
0000
,
0000
0130
0010
0001
1000
0010
0100
0001
,
1000
0010
0000
0000
0010
0000
1000
0000
0001
0100
0000
0001
1000
0000
0000
0010
,
0100
0010
0000
1000
0100
0000
1000
0000
0001
0000
0100
0000
0001
0000
1000
0000
,
0100
0000
0000
0010
0000
0000
0000
0000
0000
0000
0000
0000
0010
0000
0000
0001
0000
0000
0000
0000
0000
0000
0000
0000
1000
0000
0000
0000
0010
0000
1000
0000
0000
0000
0000
0000
0001
0000
0000
0000
0000
0000
0020
0000
0000
0000
0000
0000
,
0000
0130
0010
0001
1000
0010
1000
0001
,
0010
0001
0000
0000
1000
0000
0001
0000
0010
0100
0000
0000
0100
0000
0000
1000
,
0100
1000
0000
0000
0001
0000
0100
0000
1000
0000
0100
0000
0001
0010
0100
0000
,
1000
0000
0000
0100
0000
0000
0000
0000
0000
0000
0000
0000
0100
0000
0000
0010
0000
0000
0000
0000
0000
0000
0000
0000
0001
0000
0000
0000
1000
0000
0001
0000
0000
0000
0000
0000
0100
0000
0000
0000
0000
0000
0001
0000
0000
0000
0000
0000
,
1000
0001
1000
0000
0010
0100
0000
0000
0001
0000
0100
0000
1000
0000
0100
0000
,
0001
1000
0000
0000
0100
0000
0010
0000
0001
1000
0000
0000
0100
1000
0000
0001
,
1000
0001
0000
0000
0010
0001
0000
0000
1000
0000
0001
0000
0100
0000
0001
0000
,
1000
0000
0000
0100
0000
0000
0000
0000
0000
0000
0000
0000
1000
0000
0000
0001
0000
0000
0000
0000
0000
0000
0000
0000
0010
0000
0000
0000
0100
0000
0010
0000
0000
0000
0000
0000
0001
0000
0000
0000
0000
0000
1000
0000
0000
0000
0000
0000
,
0010
1000
0001
0000
0100
0001
0000
0000
0010
0000
0100
0000
1000
0000
0002
0000
,
1000
2003
0000
3200
0000
2300
0000
3002
,
0000
0023
0000
0230
0000
0320
0000
0032
,
0000
2003
0000
3002
0000
0023
0000
0230
,
0000
2300
0000
3000
0000
0000
0000
0000
;

//---------------dance-single - ----------------
#NOTES:
     dance-single:
     X-Scale 8:
     Medium:
     6:
     0.362063,0.398037,0.008123,0.511762,0.105602,312.000000,311.000000,1.000000,63.000000,0.000000,0.000000,0.362063,0.398037,0.008123,0.511762,0.105602,312.000000,311.000000,1.000000,63.000000,0.000000,0.000000:
0000
0000
0000
0000
,
0000
0000
0000
0000
,
0000
0000
0000
0000
,
0000
0000
0000
0000
,
1000
0000
0000
0002
0000
0000
0000
0000
,
0103
0000
0001
0010
,
0100
0000
0000
2000
0000
0000
0000
0000
,
3001
0000
1000
0010
,
2000
0100
3001
0010
,
0200
0001
2300
3002
,
0000
0100
0000
0000
0103
0001
0000
0000
1000
0000
0001
0000
0010
0001
0000
0000
,
1000
0020
0000
0130
0010
2000
0000
3100
,
0020
1000
0031
0010
,
0200
0000
0000
2300
0000
3001
0020
0000
,
0000
0100
0000
0000
0031
0010
0000
0000
0001
0000
1000
0000
0100
0000
1000
0000
,
0001
0010
1000
0010
0100
2000
0000
0000
,
3001
0000
1000
0000
0010
1000
0100
0010
,
0002
0000
0103
0020
0000
2030
0000
3200
,
0010
0000
0310
0100
1000
0000
0001
0100
,
0001
0000
0010
0100
1000
0001
0100
0002
,
1000
0000
1003
0001
0100
0000
0010
0100
,
0002
0000
0013
0200
0000
2300
0000
3020
,
0001
0000
0000
0000
0100
0000
0000
0000
1030
0010
0000
0000
1000
0000
0100
0000
,
0010
0100
1000
0001
0100
0002
0000
0003
,
0201
0000
0000
0320
0000
0000
2030
0000
,
3002
0000
0000
0023
0000
0000
0230
0000
,
1000
1300
0100
0020
0000
0032
0000
0013
,
0100
1000
0001
0100
1000
0100
0002
0000
,
1003
0001
0100
0010
1000
0100
0010
0002
,
0000
0013
0100
2000
0000
3200
0000
0000
,
0310
0100
0000
0000
0100
1000
0000
0000
0001
0000
0100
0000
0001
0000
0020
0000
,
0000
0130
0010
0001
1000
0020
0000
0000
,
2030
0000
0000
3002
0000
0000
0023
0000
,
0032
0000
0000
2003
0000
0000
3200
0000
,
0010
0310
0100
2000
0000
3001
0100
0020
,
0000
1030
0001
0010
0001
1000
0200
0000
,
0310
0100
1000
0001
0100
0010
0100
0002
,
0000
0013
0100
2000
0000
3002
1000
0000
,
0010
0000
0000
0000
0103
0001
0000
0000
0010
0100
0000
0000
1000
0000
0002
0000
,
0000
0013
0001
1000
0001
0010
0200
0000
,
2000
0000
0300
0000
0000
0000
0000
0002
,
3000
1003
0100
0001
0100
0010
0002
0000
,
1003
0000
0001
0100
0001
0000
0010
0100
,
1000
0100
0000
0000
1000
0001
0000
0000
0100
0000
0001
0000
1000
0000
0000
0000
,
0010
0100
0000
0000
0010
1000
0000
0000
1000
0000
0001
0000
0100
0000
0002
0000
,
0000
1003
0001
0100
1000
0100
0002
0000
,
1003
0000
0010
1000
0001
0000
0010
0100
,
1000
0100
0000
0000
1000
0001
0000
0000
0100
0000
0001
0000
1000
0000
0000
0000
,
0001
0010
0000
0000
0100
1000
0000
0000
0001
0000
0100
0000
0010
0000
2000
0000
,
0000
3100
0010
0001
1000
0010
2000
0000
,
3100
0000
0010
0100
1000
0000
0001
0100
,
0001
0100
0000
0000
0001
1000
0000
0000
0100
0000
0010
0000
0001
0000
0000
0000
,
1000
0100
0000
0000
0010
0100
0000
0000
1000
0000
0010
0000
0100
0000
0002
0000
,
0000
0013
1000
0001
0100
1000
0020
0000
,
0130
0000
0001
0010
0100
0000
0010
0001
,
1000
0001
0000
0000
0100
0010
0000
0000
1000
0000
0001
0000
1000
0000
0000
0000
,
0001
0100
0000
0000
0010
0100
0000
0000
0001
0000
1000
0000
0100
0000
0020
0000
,
0000
1030
0010
0001
0100
0001
2000
0000
,
3002
0000
0000
0100
0000
1000
0000
0000
,
0000
0000
0000
0100
0000
1000
0000
0000
,
0000
0000
0000
0100
0000
1000
0000
0000
,
0000
0003
0000
0000
;

//---------------dance-single - ----------------
#NOTES:
     dance-single:
     X-Scale 5:
     Easy:
     3:
     0.266906,0.282688,0.008123,0.406161,0.000000,230.000000,229.000000,1.000000,50.000000,0.000000,0.000000,0.266906,0.282688,0.008123,0.406161,0.000000,230.000000,229.000000,1.000000,50.000000,0.000000,0.000000:
// measure 0
0000
0000
0000
0000
,  // measure 1
0000
0000
0000
0000
,  // measure 2
0000
0000
0000
0000
,  // measure 3
0000
0000
0000
0000
,  // measure 4
1000
0000
0000
0000
,  // measure 5
0100
0000
0010
0100
,  // measure 6
1000
0000
0000
0000
,  // measure 7
0001
0000
0100
0001
,  // measure 8
2000
0000
3100
1000
,  // measure 9
0002
0000
0013
0200
,  // measure 10
1000
0310
0100
1000
,  // measure 11
0001
0100
0000
0001
0010
0100
0000
1000
,  // measure 12
0002
0000
0103
0001
,  // measure 13
2000
0000
3010
1000
,  // measure 14
0001
0100
0001
1000
,  // measure 15
0010
1000
0001
0000
0100
0010
1000
0000
,  // measure 16
0001
0000
0100
0000
0001
0010
0100
0000
,  // measure 17
0010
0000
0001
2000
0000
3020
0000
2030
,  // measure 18
0000
3001
0010
0001
,  // measure 19
1000
0000
0010
0000
1000
0001
0010
0001
,  // measure 20
1000
0000
0001
0000
0100
0000
0001
0010
,  // measure 21
0100
0000
1000
0002
0000
0203
0000
0302
,  // measure 22
0000
0013
0001
1000
,  // measure 23
0010
1000
0000
0001
0010
0100
0000
0000
,  // measure 24
2100
0000
0000
3002
0000
0000
0023
0000
,  // measure 25
0230
0000
0000
0320
0000
0000
0032
0000
,  // measure 26
0000
0000
0013
0200
0000
0320
0000
0000
,  // measure 27
0031
0000
1000
0000
0100
0010
0002
0000
,  // measure 28
1003
0000
0001
0000
0100
0001
1000
0020
,  // measure 29
0000
1030
0100
2000
0000
3002
0000
0000
,  // measure 30
0013
0000
0001
0000
1000
0010
0100
0020
,  // measure 31
0000
0000
1030
0001
0100
0002
0000
0000
,  // measure 32
2003
0000
0000
3020
0000
0000
2030
0000
,  // measure 33
3200
0000
0000
0320
0000
0000
0032
0000
,  // measure 34
0000
0000
0103
0002
0000
1003
0010
2000
,  // measure 35
0000
3001
0200
0000
0301
0010
0200
0000
,  // measure 36
1300
0000
0001
0000
0100
0001
1000
0200
,  // measure 37
0000
0310
0100
2000
0000
3002
0000
0000
,  // measure 38
0103
0000
0001
0000
1000
0000
0001
0020
,  // measure 39
0000
0130
0010
0000
0001
1000
0002
0000
,  // measure 40
0010
0000
0003
0000
0000
1000
0100
0020
,  // measure 41
0000
0031
0100
0000
0001
0010
0200
0000
,  // measure 42
1000
0310
0100
1000
,  // measure 43
0001
0100
0001
1000
,  // measure 44
0100
0000
1000
0000
0001
0000
0100
0002
,  // measure 45
0000
1003
0001
0000
0010
0100
2000
0000
,  // measure 46
0100
3001
1000
0010
,  // measure 47
1000
0001
0100
0001
,  // measure 48
1000
0000
0100
0000
0010
0000
0001
2000
,  // measure 49
0000
3100
1000
0000
0010
1000
0002
0000
,  // measure 50
0010
0103
0001
0010
,  // measure 51
0100
1000
0001
1000
,  // measure 52
0100
0000
0010
0000
0001
0000
1000
0020
,  // measure 53
0000
0130
0010
0000
0100
0001
0020
0000
,  // measure 54
0100
0031
0010
0100
,  // measure 55
1000
0001
1000
0010
,  // measure 56
1000
0000
0001
0000
0010
0000
0100
2000
,  // measure 57
0000
3010
1000
0000
0001
1000
0200
0000
,  // measure 58
0310
0000
0000
0000
;

//---------------dance-single - ----------------
#NOTES:
     dance-single:
     X-Scale 2:
     Beginner:
     1:
     0.110244,0.141344,0.008123,0.000000,0.000000,95.000000,94.000000,1.000000,0.000000,0.000000,0.000000,0.110244,0.141344,0.008123,0.000000,0.000000,95.000000,94.000000,1.000000,0.000000,0.000000,0.000000:
// measure 0
0000
0000
0000
0000
,  // measure 1
0000
0000
0000
0000
,  // measure 2
0000
0000
0000
0000
,  // measure 3
0000
0000
0000
0000
,  // measure 4
0001
0000
0000
0000
,  // measure 5
1000
0000
0000
0000
,  // measure 6
0001
0000
0000
0000
,  // measure 7
1000
0000
0000
0000
,  // measure 8
0100
0000
0000
0000
,  // measure 9
1000
0000
0000
0000
,  // measure 10
0001
0000
0000
0000
,  // measure 11
0100
0000
0000
0000
,  // measure 12
0001
0000
0000
0000
,  // measure 13
1000
0000
0000
0000
,  // measure 14
0100
0000
0000
0000
,  // measure 15
0010
0000
0000
0000
,  // measure 16
0001
0000
1000
0000
,  // measure 17
0010
0000
1000
0000
,  // measure 18
0001
0000
0010
0000
,  // measure 19
0100
0000
0010
0000
,  // measure 20
0001
0000
0100
0000
,  // measure 21
0010
0000
1000
0000
,  // measure 22
0100
0000
1000
0000
,  // measure 23
0001
0000
0100
0000
,  // measure 24
0001
0000
0010
0000
,  // measure 25
0100
0000
1000
0000
,  // measure 26
0010
0000
1000
0000
,  // measure 27
0100
0000
0010
0000
,  // measure 28
0001
0000
1000
0000
,  // measure 29
0001
0000
0100
0000
,  // measure 30
0001
0000
1000
0000
,  // measure 31
0001
0000
0010
0000
,  // measure 32
0100
0000
1000
0000
,  // measure 33
0100
0000
0010
0000
,  // measure 34
0001
0000
1000
0000
,  // measure 35
0010
0000
1000
0000
,  // measure 36
0001
0000
1000
0000
,  // measure 37
0100
0000
1000
0000
,  // measure 38
0001
0000
0100
0000
,  // measure 39
0001
0000
1000
0000
,  // measure 40
0001
0000
0000
0000
,  // measure 41
0000
0000
0000
0000
,  // measure 42
1001
0000
1000
0000
,  // measure 43
0010
0000
1000
0000
,  // measure 44
0001
0000
0100
0000
,  // measure 45
0001
0000
0010
0000
,  // measure 46
0100
0000
0010
0000
,  // measure 47
0001
0000
1000
0000
,  // measure 48
0100
0000
1000
0000
,  // measure 49
0001
0000
0100
0000
,  // measure 50
0001
0000
0010
0000
,  // measure 51
0100
0000
0010
0000
,  // measure 52
0001
0000
1000
0000
,  // measure 53
0100
0000
1000
0000
,  // measure 54
0001
0000
0100
0000
,  // measure 55
0001
0000
0010
0000
,  // measure 56
0100
0000
1000
0000
,  // measure 57
0100
0000
0010
0000
,  // measure 58
0001
0000
0000
0000
;
