#VERSION:0.83;
#TITLE:Hologram;
#SUBTITLE:;
#ARTIST:Jedward;
#TITLETRANSLIT:;
#SUBTITLETRANSLIT:;
#ARTISTTRANSLIT:;
#GENRE:Dance;
#ORIGIN:;
#CREDIT:;
#BANNER:Hologram-bn.png;
#BACKGROUND:Hologram-bg.png;
#PREVIEWVID:;
#JACKET:Hologram-jacket.png;
#CDIMAGE:;
#DISCIMAGE:;
#LYRICSPATH:;
#CDTITLE:cdtitle.png;
#MUSIC:Hologram.ogg;
#OFFSET:-0.002000;
#SAMPLESTART:60.001999;
#SAMPLELENGTH:15.000000;
#SELECTABLE:YES;
#BPMS:0.000=64.000,
16.000=128.000,
80.000=64.000,
96.000=128.000,
160.000=64.000;
#STOPS:;
#DELAYS:;
#WARPS:;
#TIMESIGNATURES:0.000=4=4;
#TICKCOUNTS:0.000=4;
#COMBOS:0.000=1;
#SPEEDS:0.000=1.000=0.000=0;
#SCROLLS:0.000=1.000;
#FAKES:;
#LABELS:0.000=Song Start;
#BGCHANGES:0.000=Hologram.avi=1.000=1=0=0=StretchNoLoop==CrossFade==,
99999=-nosongbg-=1.000=0=0=0 // don't automatically add -songbackground-
;
#KEYSOUNDS:;
#ATTACKS:
;

//---------------dance-single - ----------------
#NOTEDATA:;
#CHARTNAME:X-Scale 12;
#STEPSTYPE:dance-single;
#DESCRIPTION:;
#CHARTSTYLE:;
#DIFFICULTY:Hard;
#METER:8;
#RADARVALUES:0.404502,0.532253,0.143368,0.143368,0.389781,316.000000,300.000000,16.000000,16.000000,0.000000,0.000000,0.000000,0.000000,0.000000,0.404502,0.532253,0.143368,0.143368,0.389781,316.000000,300.000000,16.000000,16.000000,0.000000,0.000000,0.000000,0.000000,0.000000;
#CREDIT:;
#NOTES:
// measure 0
0000
0000
0000
0000
,  // measure 1
0000
0000
0000
0000
,  // measure 2
2000
0000
0000
0000
0000
0000
0000
0000
0000
0000
0000
0000
0000
0000
0000
0000
3001
0000
0000
0010
0000
0000
0020
0000
0000
0000
0000
0000
0000
0000
0000
0000
,  // measure 3
0230
0000
0000
0000
0000
0000
0000
0000
2300
0000
0000
3002
0000
0000
0103
0001
,  // measure 4
1000
0000
0000
0100
0000
0000
0010
0000
0000
0000
0001
0000
0000
0000
0100
0000
,  // measure 5
0001
0000
0000
1000
0000
0000
0010
0000
0000
0000
0000
0000
0100
0000
0001
0000
,  // measure 6
1000
0000
0000
0001
0000
0000
0010
0000
0000
0000
0100
0000
0010
0000
0001
0000
,  // measure 7
1000
0000
0000
0010
0000
0000
1000
0000
0000
0000
0000
0000
0100
0000
0010
0000
,  // measure 8
0001
0000
0000
1000
0000
0000
0010
0000
0000
0000
0100
0000
0010
0000
1000
0000
,  // measure 9
0001
0000
0000
0010
0000
0000
0100
0000
0000
0000
0000
0000
0010
0000
0001
0000
,  // measure 10
1000
0000
0000
0100
0000
0000
0010
0000
0000
0000
0001
0000
0100
0000
0001
0000
,  // measure 11
1000
0000
0000
0010
0000
1000
0010
0000
0000
0000
0000
0000
0100
0000
0001
0000
,  // measure 12
1001
0000
0000
1000
0010
0000
1000
0000
0001
0000
0100
0000
0010
0000
0100
0000
,  // measure 13
0001
0000
0000
0010
0100
0000
1000
0000
0010
0000
0001
0000
0010
0000
0100
0000
,  // measure 14
0010
0000
0000
1000
0001
0000
0100
0000
0010
0000
0100
0000
0001
0000
0010
0000
,  // measure 15
0100
0000
0000
1000
0100
0000
1000
0000
0001
0000
0100
0000
0001
0000
1000
0000
,  // measure 16
0010
0000
0000
0100
0010
0000
1000
0000
0001
0000
0010
0000
0100
0000
0010
0000
,  // measure 17
0001
0000
0000
0100
0001
0000
1000
0000
0010
0000
0001
0000
1000
0000
0100
0000
,  // measure 18
0001
0000
0000
0100
0001
0000
1000
0000
0100
0000
0001
0000
0100
0000
0010
0000
,  // measure 19
0001
0000
0000
0100
0001
0000
1000
0000
0001
0000
0000
0010
0100
0000
0000
0000
,  // measure 20
0110
0000
0000
0010
0000
0000
0001
0000
0000
0000
1000
0000
0100
0000
0010
0000
0001
0000
0000
0100
0000
0000
0001
0000
0000
0000
0000
0000
1000
0000
0001
0000
,  // measure 21
0100
0000
0000
0010
0000
0000
0100
0000
0000
0000
0001
0000
0100
0000
0010
0000
0100
0000
0000
0001
0000
0000
1000
0000
0000
0000
0000
0000
0100
0000
0010
0000
,  // measure 22
0001
0000
0000
1000
0000
0000
0001
0000
0000
0000
0100
0000
0001
0000
1000
0000
0100
0000
0000
0010
0000
0000
0001
0000
0000
0000
0100
0000
0001
0000
1000
0000
,  // measure 23
0010
0000
0000
0100
0000
0000
0001
0000
0000
0000
0010
0000
0100
0000
1000
0000
0001
0000
0000
0010
0000
0000
0100
0000
0000
1100
0000
0000
1100
0000
0000
0000
,  // measure 24
1001
0000
0000
0010
0001
0000
1000
0000
0010
1000
0000
0000
0100
0000
0000
0000
,  // measure 25
0010
0000
0000
0001
0010
0000
0001
0000
1000
0010
0000
0000
1000
0000
0000
0000
,  // measure 26
0001
0000
0000
0010
0100
0000
0010
0000
0001
0100
0000
0000
0001
0000
1000
0000
,  // measure 27
0001
0000
0000
0100
0001
0000
1000
0000
0010
1000
0000
0000
0001
0000
0000
0000
,  // measure 28
0100
0000
0000
0000
0101
0000
0001
0000
1000
0100
0000
0000
1001
0000
0000
0000
,  // measure 29
0100
0000
0000
0000
0101
0000
0001
0000
0010
0100
0000
0000
1010
0000
0000
0000
,  // measure 30
0001
0000
0000
0000
0011
0000
0010
0000
0100
1000
0000
0000
1100
0000
0000
0000
,  // measure 31
1001
0000
0000
0001
0000
0000
0100
0000
0000
0010
0000
0000
1010
0000
0000
0000
,  // measure 32
1001
0000
0000
1000
0100
0000
1000
0000
0001
0000
0100
0001
0100
0000
0010
0000
,  // measure 33
0100
0000
0000
0001
0010
0000
0100
0000
1000
0000
0100
0010
0100
0000
1000
0000
,  // measure 34
0001
0000
0000
0100
0001
0000
1000
0000
0010
0000
0100
0010
0100
0000
0001
0000
,  // measure 35
0010
0000
0000
0100
1000
0000
0001
0000
0100
0001
0000
1000
0001
0000
0100
0000
,  // measure 36
0001
0000
0000
0010
0100
0000
1000
0000
0010
0000
0100
0010
0100
0000
0001
0000
,  // measure 37
1000
0000
0000
0100
0010
0000
0100
0000
1000
0000
0001
1000
0001
0000
0010
0000
,  // measure 38
0001
0000
0000
0100
0010
0000
0100
0000
0001
0000
0010
0100
0010
0000
0001
0000
,  // measure 39
1000
0000
0000
0100
0000
0000
1000
0000
0000
0000
1001
0000
0000
1001
0000
0000
,  // measure 40
2000
0000
0000
0000
0000
0000
0000
0000
0100
0000
0000
0000
0000
0000
0000
0000
3001
0000
0000
0010
0000
0000
0020
0000
0100
0000
0000
0000
0000
0000
0000
0000
,  // measure 41
0230
1000
0320
0001
,  // measure 42
0032
0000
0000
0000
0000
0000
0000
0000
0000
0000
0000
0000
0000
0000
0000
0000
1003
0000
0000
0010
0000
0000
0020
0000
0000
0000
0000
0000
0000
0000
0000
0000
,  // measure 43
0230
0000
0000
0000
0000
0000
0000
0000
0302
0000
0000
0023
0000
0000
0230
2000
,  // measure 44
3300
0000
0000
0000
;

//---------------dance-single - ----------------
#NOTEDATA:;
#CHARTNAME:X-Scale 9;
#STEPSTYPE:dance-single;
#DESCRIPTION:;
#CHARTSTYLE:;
#DIFFICULTY:Medium;
#METER:6;
#RADARVALUES:0.313617,0.433072,0.098565,0.000000,0.282256,245.000000,234.000000,11.000000,0.000000,0.000000,0.000000,0.000000,0.000000,0.000000,0.313617,0.433072,0.098565,0.000000,0.282256,245.000000,234.000000,11.000000,0.000000,0.000000,0.000000,0.000000,0.000000,0.000000;
#CREDIT:;
#NOTES:
0000
0000
0000
0000
,
0000
0000
0000
0000
,
0001
0000
0010
0000
,
0100
0000
0000
0000
0000
0000
0000
0000
1000
0000
0000
0001
0000
0000
1000
0001
,
1000
0100
1000
0001
,
0100
0000
0001
0000
0010
0000
0100
0010
,
0001
0000
1000
0000
0010
0000
0100
0010
,
1000
0000
0100
0000
1000
0000
0001
1000
,
0010
0100
0001
0010
,
0100
0000
1000
0000
0100
0000
0010
0100
,
1000
0000
0001
0000
1000
0000
0010
1000
,
0001
0000
1000
0000
0100
0000
0010
0100
,
1000
0001
1000
0001
0000
0100
0010
1000
,
0001
0000
0000
0010
0000
0000
0100
0000
0000
0000
1000
0000
0010
0000
1000
0000
,
0001
0000
0000
0010
0000
0000
0100
0000
0000
0000
1000
0000
0100
0000
1000
0000
,
0001
0000
0000
1000
0000
0000
0100
0000
0000
0000
0000
0000
0010
0000
0100
0000
,
1000
0000
0000
0010
0000
0000
0100
0000
0000
0000
0001
0000
0100
0000
0010
0000
,
0100
0000
0000
0001
0000
0000
0010
0000
0000
0000
0100
0000
0010
0000
0001
0000
,
1000
0000
0000
0010
0000
0000
1000
0000
0000
0000
0001
0000
0100
0000
0010
0000
,
1000
0000
0000
0010
0000
0000
1000
0000
0000
0000
0000
0000
1010
0000
0000
0000
,
1000
0000
0000
0100
0000
0000
0010
0000
0000
0000
0001
0000
0000
0100
0000
0000
0001
0000
0000
0010
0000
0000
0100
0000
0000
0000
1000
0000
0000
0010
0000
0000
,
1000
0000
0000
0001
0000
0000
0100
0000
0000
0000
0010
0000
0000
0100
0000
0000
0001
0000
0000
0010
0000
0000
0100
0000
0000
0100
0000
0000
1000
0000
0000
0000
,
0001
0000
0000
1000
0000
0000
0010
0000
0000
0000
1000
0000
0000
0001
0000
0000
0100
0000
0000
0010
0000
0000
0100
0000
0000
0001
0000
0000
0010
0000
0000
0000
,
0100
0000
0000
1000
0000
0000
0001
0000
0000
1000
0000
0000
0100
0000
0000
0000
0010
0000
0000
0001
0000
0000
1000
0000
0000
0001
0000
0000
0001
0000
0000
0000
,
1001
0000
0000
1000
0000
0000
0010
0000
0000
0010
0000
0000
0001
0000
0000
0000
,
0100
0000
0000
0001
0000
0000
0010
0000
0000
0010
0000
0000
0100
0000
0000
0000
,
1000
0000
0000
0001
0000
0000
0100
0000
0000
0100
0000
0000
1000
0000
0100
0000
,
1000
0000
0000
0001
0000
0000
0100
0000
0000
0100
0000
0000
0010
0000
0000
0000
,
1000
1010
0001
0011
,
0010
0110
0100
1010
,
1000
1001
0001
0101
,
0100
0000
0000
0000
0110
0000
0010
0000
0000
0010
0000
0000
0100
0000
0001
0000
,
1001
0000
0000
0001
0000
0000
0100
0000
0000
0000
0010
0000
0100
0000
0001
0000
,
0010
0000
0000
0100
0000
0000
1000
0000
0001
1000
0000
0000
0010
0000
1000
0000
,
0100
0000
0000
0010
0000
0000
0001
0000
0000
0000
1000
0000
0010
0000
1000
0000
,
0001
0000
0000
0100
0000
0000
0001
0000
0010
0001
0000
0000
0010
0000
0100
0000
,
1000
0000
0000
0001
0000
0000
0100
0000
0000
0000
0010
0000
0100
0000
0001
0000
,
0010
0000
0000
0001
0000
0000
1000
0000
0000
0000
0100
0000
0010
0000
0001
0000
,
1000
0000
0000
0010
0000
0000
1000
0000
0000
0000
0001
0000
0100
0000
0001
0000
,
1000
0000
0000
0010
0000
0000
1000
0000
0000
0001
0000
0000
0001
0000
0000
0000
,
0101
0000
0000
0000
0000
0000
0000
0000
0000
0000
0000
0000
0000
0000
0000
0000
0001
0000
0000
1000
0000
0000
1000
0000
0000
0000
0000
0000
0000
0000
0000
0000
,
0100
0000
0010
0000
,
0001
0000
0000
0000
0000
0000
0000
0000
0000
0000
0000
0000
0000
0000
0000
0000
1000
0000
0000
0100
0000
0000
0100
0000
0000
0000
0000
0000
0000
0000
0000
0000
,
1000
0000
0000
0000
0000
0000
0000
0000
0001
0000
0000
1000
0000
0000
0010
1000
;

//---------------dance-single - ----------------
#NOTEDATA:;
#CHARTNAME:X-Scale 5;
#STEPSTYPE:dance-single;
#DESCRIPTION:;
#CHARTSTYLE:;
#DIFFICULTY:Easy;
#METER:3;
#RADARVALUES:0.188170,0.235885,0.017921,0.008960,0.000000,147.000000,145.000000,2.000000,1.000000,0.000000,0.000000,0.000000,0.000000,0.000000,0.188170,0.235885,0.017921,0.008960,0.000000,147.000000,145.000000,2.000000,1.000000,0.000000,0.000000,0.000000,0.000000,0.000000;
#CREDIT:;
#NOTES:
0000
0000
0000
0000
,
0000
0000
0000
0000
,
1000
0000
0001
0000
,
1000
0000
0001
0000
,
0010
0000
0000
0001
0000
1000
0000
0000
,
0010
0000
0000
1000
0000
0000
0001
0000
,
0100
0000
0000
0001
0000
0000
1000
0000
,
0100
0000
0000
0010
0000
0000
0001
0000
,
1000
0000
0000
0010
0000
0000
1000
0000
,
0001
0000
0000
0010
0000
0000
0001
0000
,
0100
0000
0000
0010
0000
0000
1000
0000
,
0100
0000
0000
0010
0000
0000
0001
0000
,
1000
0010
1000
0001
,
0010
0100
0010
0001
,
1000
0100
1000
0001
,
0010
0100
1000
0010
,
0100
0010
1000
0100
,
0010
0001
1000
0010
,
1000
0001
0010
0100
,
1000
0001
1000
0000
,
0001
0000
1000
0000
,
0100
0000
0010
0000
,
0001
0000
0010
0000
,
0100
0000
1000
0000
,
1100
1000
0001
1000
,
0010
0100
0010
1000
,
0001
0010
0100
0010
,
0001
1000
0010
1000
,
0001
0100
0010
1000
,
0100
0010
0001
1000
,
0001
1000
0100
0010
,
0001
0000
0000
1000
0000
0000
0001
0000
,
1001
0000
1000
0000
0010
0000
1000
0001
,
0100
0000
0010
0000
0100
0000
0001
0010
,
0100
0000
1000
0000
0010
0000
1000
0001
,
0010
0000
0001
0000
1000
0000
0100
0010
,
0001
0000
1000
0000
0010
0000
0100
0001
,
0010
0000
0001
0000
1000
0000
0010
1000
,
0001
0000
0010
0000
0100
0000
1000
0100
,
0020
0100
0000
0001
,
0031
0000
0100
0000
,
0010
0000
1000
0000
,
0100
0000
0010
0000
,
0001
0000
0000
0000
1000
0000
0000
0001
;

//---------------dance-single - ----------------
#NOTEDATA:;
#CHARTNAME:X-Scale 1;
#STEPSTYPE:dance-single;
#DESCRIPTION:;
#CHARTSTYLE:;
#DIFFICULTY:Beginner;
#METER:1;
#RADARVALUES:0.099845,0.115590,0.017921,0.000000,0.000000,78.000000,76.000000,2.000000,0.000000,0.000000,0.000000,0.000000,0.000000,0.000000,0.099845,0.115590,0.017921,0.000000,0.000000,78.000000,76.000000,2.000000,0.000000,0.000000,0.000000,0.000000,0.000000,0.000000;
#CREDIT:iamthek3n;
#NOTES:
0000
0000
0000
0000
,
0000
0000
0000
0000
,
0001
0000
0000
0000
,
1000
0000
0000
0000
,
0001
0000
0100
0000
,
0001
0000
0100
0000
,
0001
0000
1000
0000
,
0001
0000
1000
0000
,
0100
0000
1000
0000
,
0100
0000
0010
0000
,
0100
0000
0010
0000
,
0001
0000
0100
0000
,
0001
0000
0100
0000
,
0010
0000
1000
0000
,
0010
0000
1000
0000
,
0001
0000
0100
0000
,
0001
0000
0100
0000
,
0010
0000
1000
0000
,
0010
0000
1000
0000
,
0100
0000
0010
0000
,
0001
0000
0100
0000
,
0010
0000
1000
0000
,
0100
0000
0010
0000
,
0001
0000
1000
0000
,
1001
0000
1000
0000
,
0001
0000
0100
0000
,
0001
0000
1000
0000
,
0100
0000
1000
0000
,
0001
0000
0100
0000
,
0001
0000
0010
0000
,
0100
0000
1000
0000
,
0001
0000
0000
0000
,
1001
0000
1000
0000
,
0100
0000
1000
0000
,
0001
0000
0100
0000
,
0001
0000
0010
0000
,
0100
0000
0010
0000
,
0001
0000
1000
0000
,
0010
0000
1000
0000
,
0001
0000
0000
0000
,
1000
0000
0000
0000
,
0100
0000
0000
0000
,
0010
0000
0000
0000
,
0001
0000
0000
0000
;
