#TITLE:Heartbreak;
#SUBTITLE:;
#ARTIST:STVW;
#TITLETRANSLIT:;
#SUBTITLETRANSLIT:;
#ARTISTTRANSLIT:;
#GENRE:Commercial House;
#CREDIT:;
#BANNER:Heartbreak-bn.png;
#BACKGROUND:Heartbreak-bg.png;
#LYRICSPATH:;
#CDTITLE:cdtitle.png;
#MUSIC:Heartbreak.ogg;
#OFFSET:-0.004000;
#SAMPLESTART:70.157997;
#SAMPLELENGTH:14.769000;
#SELECTABLE:YES;
#DISPLAYBPM:65.000000:130.000000;
#BPMS:0.000000=65.000000
,24.000000=130.000000
,56.000000=65.000000
,60.000000=130.000000
,92.000000=65.000000
,100.000000=130.000000
,112.000000=65.000000
,114.000000=130.000000
,129.000000=260.000000
,129.500000=130.000000
,129.750000=65.000000
,130.000000=130.000000
,142.000000=65.000000
,144.000000=260.000000
,145.000000=130.000000
,159.000000=260.000000
,159.500000=130.000000
,159.750000=65.000000
,160.000000=130.000000
,172.000000=65.000000
;
#STOPS:144.000000=0.058000,
144.250000=0.058000,
144.500000=0.058000,
144.750000=0.058000
;
#BGCHANGES:;
#KEYSOUNDS:;
#ATTACKS:;

//---------------dance-single - ----------------
#NOTES:
     dance-single:
     X-Scale 14:
     Hard:
     10:
     0.557530,0.568601,0.130713,0.121376,0.588208,418.000000,404.000000,14.000000,13.000000,11.000000,0.000000,0.557530,0.568601,0.130713,0.121376,0.588208,418.000000,404.000000,14.000000,13.000000,11.000000,0.000000:
// measure 0
0000
0000
0000
0000
,  // measure 1
0000
0000
0000
0000
,  // measure 2
1100
0000
0000
0000
0000
0000
0000
0000
0000
0000
0000
0000
0000
0000
0000
0000
0000
0000
0100
0000
0000
0000
0000
0000
0000
0000
0000
0000
0000
0000
0000
0000
1000
0000
0000
0000
0000
0000
0000
0000
0010
0000
0000
0000
0000
0000
0000
0000
1000
0000
0000
0000
0000
0000
0000
0000
0000
0000
0000
0000
0000
0000
0000
0000
0001
0000
0000
0000
0000
0000
0000
0000
0000
0000
0000
0000
0000
0000
0000
0000
0000
0000
0000
0000
0100
0000
0000
0000
0000
0000
0000
0000
0000
0000
0000
0000
0010
0000
0000
0000
0000
0000
0000
0000
0000
0000
0000
0000
0000
0000
0000
0000
0000
0000
1000
0000
0000
0000
0000
0000
0000
0000
0000
0000
0000
0000
0000
0000
0000
0000
0000
0000
0001
0000
0000
0000
0000
0000
0000
0000
0000
0000
0000
0000
0100
0000
0000
0000
0000
0000
0000
0000
0000
0000
0000
0000
0000
0000
0000
0000
0000
0000
0001
0000
0000
0000
0000
0000
0000
0000
0000
0000
0000
0000
0000
0000
0000
0000
0000
0000
0010
0000
0000
0000
0000
0000
0000
0000
0000
0000
0000
0000
,  // measure 3
0100
0000
0000
0000
0000
0000
0000
0000
0000
0000
0000
0000
0000
0000
0000
0000
0000
0000
0010
0000
0000
0000
0000
0000
0000
0000
0000
0000
0000
0000
0000
0000
0001
0000
0000
0000
0000
0000
0000
0000
1000
0000
0000
0000
0000
0000
0000
0000
0001
0000
0000
0000
0000
0000
0000
0000
0000
0000
0000
0000
0000
0000
0000
0000
0100
0000
0000
0000
0000
0000
0000
0000
0000
0000
0000
0000
0000
0000
0000
0000
0000
0000
0000
0000
0010
0000
0000
0000
0000
0000
0000
0000
0000
0000
0000
0000
1000
0000
0000
0000
0000
0000
0000
0000
0000
0000
0000
0000
0000
0000
0000
0000
0000
0000
0100
0000
0000
0000
0000
0000
0000
0000
0000
0000
0000
0000
0000
0000
0000
0000
0000
0000
0001
0000
0000
0000
0000
0000
0000
0000
0000
0000
0000
0000
0100
0000
0000
0000
0000
0000
0000
0000
0000
0000
0000
0000
0000
0000
0000
0000
0000
0000
2000
0000
0000
0000
0000
0000
0000
0000
0000
0000
0000
0000
0000
0000
0000
0000
0000
0000
0000
0000
0000
0000
0000
0000
0000
0000
0000
0000
0000
0000
,  // measure 4
0000
0000
0000
0000
0000
0000
3000
0000
0000
0000
0000
0000
0000
0000
0000
0000
0000
0000
0000
0000
0000
0000
0000
0000
0001
0000
0000
0000
0000
0000
0000
0000
0100
0000
0000
0000
0000
0000
0000
0000
0010
0000
0000
0000
0000
0000
0000
0000
1000
0000
0000
0000
0000
0000
0010
0000
0000
0000
0000
0000
0000
0000
0000
0000
0000
0000
0100
0000
0000
0000
0000
0000
0000
0000
0000
0000
0000
0000
0000
0000
0000
0000
0000
0000
0100
0000
0000
0000
0000
0000
0000
0000
0000
0000
0000
0000
0000
0000
0000
0000
0000
0000
0100
0000
0000
0000
0000
0000
0000
0000
0000
0000
0000
0000
0000
0000
0000
0000
0000
0000
0001
0000
0000
0000
0000
0000
0000
0000
0000
0000
0000
0000
1000
0000
0000
0000
0000
0000
0002
0000
0000
0000
0000
0000
0000
0000
0000
0000
0000
0000
0000
0000
0000
0000
0000
0000
0000
0000
0000
0000
0000
0000
0000
0000
0000
0000
0000
0000
0013
0000
0000
0000
0000
0000
0000
0000
0000
0000
0000
0000
0000
0000
0000
0000
0000
0000
0010
0000
0000
0000
0000
0000
,  // measure 5
0000
0000
0010
0000
0001
1000
0000
0000
0100
0010
0000
0000
0100
0000
1000
0000
0002
0000
0000
0000
00M3
0000
0000
0000
0100
0000
1000
0000
0002
0000
0000
0000
,  // measure 6
0103
0000
0000
0000
0000
0000
0001
0000
0000
0000
0000
0000
1000
0000
0001
0000
1000
0000
0001
0000
0000
0000
0000
0000
0010
0000
0000
0000
0000
0000
0100
0000
0000
0010
0000
0000
0100
0000
0000
0000
0000
0000
1000
0000
0000
0000
0000
0000
,  // measure 7
0001
0000
0100
0000
0001
0000
1000
0000
0100
0010
0001
1000
0001
0100
0010
1000
,  // measure 8
0001
0000
0010
0000
10M0
0000
0000
0000
1010
0000
0010
0100
0010
0000
1000
0000
,  // measure 9
0001
0000
0000
0000
0000
0000
1000
0000
0010
0000
1000
0000
0010
0000
0000
0000
0000
0000
1000
0000
0010
0000
1000
0000
0010
0000
0000
0000
0000
0000
0100
0000
0000
0000
0000
0000
0001
0000
0000
0100
0000
0000
0001
0000
0000
0000
0000
0000
,  // measure 10
0101
0000
0000
0000
0000
0000
0100
0000
0000
0000
0000
0000
0010
0000
0100
0000
0010
0000
0100
0000
0000
0000
0000
0000
0010
0000
0000
0000
0000
0000
1000
0000
0000
0001
0000
0000
0010
0000
0000
0000
0000
0000
0100
0000
0000
0000
0000
0000
,  // measure 11
0001
0000
0100
0000
1000
0000
0001
0000
0100
0001
1000
0010
0100
0001
0010
0100
,  // measure 12
1000
0000
0100
0000
0M01
0000
0000
0000
0101
0000
0100
0010
0100
0000
0001
0000
,  // measure 13
0010
0000
0000
0000
0000
0000
0100
0000
1000
0000
0100
0000
1000
0000
0000
0000
0000
0000
0100
0000
1000
0000
0100
0000
1000
0000
0000
0000
0000
0000
0001
0000
0000
0000
0000
0000
0100
0000
0000
0001
0000
0000
1000
0000
0000
0000
0000
0000
,  // measure 14
1002
0000
0000
0000
0000
0000
0000
0000
0000
0000
0000
0000
0000
0000
0000
0000
0040
0000
0000
0000
0000
0000
0000
0000
0000
0000
0000
0000
0033
0000
0010
0100
,  // measure 15
1000
0000
0001
0000
1000
0000
0010
1000
0000
0000
0001
0000
0100
0000
0010
0100
,  // measure 16
0010
0000
1000
0000
0100
0000
0000
01M0
0002
0000
0000
0000
1003
0100
1000
0000
,  // measure 17
0001
0000
0100
0000
0001
0000
0010
0001
0000
0000
0001
0000
0000
1000
0001
0000
,  // measure 18
0010
0100
0010
0000
0100
0000
0000
1000
0200
0000
0000
0000
1300
0000
0001
0000
,  // measure 19
0100
0000
0001
0000
1000
0000
0100
1000
0000
0000
1000
0000
0010
0000
0100
0010
,  // measure 20
0100
0000
0001
0000
0010
0000
0000
0M10
2000
0000
0000
0000
3001
1000
0001
0000
,  // measure 21
0010
0000
0100
0000
0010
0000
0001
0100
0000
0000
0001
0000
0000
1000
0100
0000
,  // measure 22
1000
0000
0010
0000
0100
0000
0001
0010
0000
0000
0010
0000
0000
0100
0010
0000
,  // measure 23
0110
0000
0100
0000
1000
0000
0001
0000
0100
0010
2000
0000
3200
0000
0310
0100
,  // measure 24
1000
0000
0001
0000
0100
0000
0001
0000
1000
0001
0200
0000
0320
0000
1030
0000
,  // measure 25
0001
0010
1000
0010
0100
1000
0001
1000
,  // measure 26
0100
0001
0100
0010
0001
0010
0100
1000
,  // measure 27
0001
1000
0001
1000
0001
1000
0001
1000
0100
0010
0100
0010
0100
0010
0100
0010
,  // measure 28
0001
0000
0000
0000
0000
0000
1000
0010
0000
1000
0000
0001
0000
0100
0000
0000
0101
0000
0000
0000
0001
0000
0000
0000
1000
0000
0000
0000
0100
0000
0010
0000
,  // measure 29
0000
0000
0100
0000
1000
0000
0001
0100
0001
0000
1000
0000
0010
0000
0100
0010
,  // measure 30
0M00
0000
0010
0000
0001
1000
0001
0000
0100
0000
0001
0000
0010
0000
0100
0010
,  // measure 31
000M
0000
0010
0000
1000
0001
0100
0000
0010
0000
0100
0000
0001
0000
0010
0100
,  // measure 32
0000
0000
0100
0000
1100
0000
0000
0000
1001
0000
1000
0000
0010
0000
0100
0010
,  // measure 33
0M00
0000
0010
0000
0001
0000
1000
0001
0010
0000
0100
0000
1000
0000
0001
0100
,  // measure 34
00M0
0000
0100
0000
1000
0001
1000
0000
0010
0000
0100
0000
0001
0000
1000
0010
,  // measure 35
0000
0000
0010
0000
0100
0010
0100
0000
0110
0000
1000
0100
0001
0010
2000
0000
,  // measure 36
3001
1000
0001
1000
0001
0000
0010
0100
00M0
0000
0100
0000
0001
0000
1000
0001
,  // measure 37
0100
0000
0010
0000
0001
0000
0010
0100
0000
0000
0100
0000
0001
1000
0001
0000
,  // measure 38
0010
0000
0100
0000
1000
0000
0100
0010
0000
0000
0010
0000
0001
0010
0100
0000
,  // measure 39
1000
0100
1000
0000
0001
0000
0100
0010
0000
0000
0010
0000
0011
0000
0000
0000
,  // measure 40
1001
0000
1000
0000
0001
0000
0100
0010
0M00
0000
0010
0000
0001
0000
0001
0100
,  // measure 41
0001
0000
0010
0000
0100
0000
0100
1000
0000
0000
0001
0000
0100
0010
0100
0000
,  // measure 42
0001
0000
1000
0000
0100
0000
0010
0001
0000
0000
0001
0000
1000
0010
1000
0000
,  // measure 43
0001
0100
0001
0000
0010
0000
1000
0000
0010
0000
0001
0000
0011
0000
0000
0000
0101
0000
0000
0000
0000
0000
0000
0000
0000
0000
0000
0000
0000
0000
0000
0000
;

//---------------dance-single - ----------------
#NOTES:
     dance-single:
     X-Scale 11:
     Medium:
     8:
     0.404143,0.426451,0.084030,0.121376,0.261426,303.000000,294.000000,9.000000,13.000000,0.000000,0.000000,0.404143,0.426451,0.084030,0.121376,0.261426,303.000000,294.000000,9.000000,13.000000,0.000000,0.000000:
// measure 0
0000
0000
0000
0000
,  // measure 1
0000
0000
0000
0000
,  // measure 2
0011
0000
0000
0000
0000
0000
0000
0000
0010
0000
0000
0001
0000
0000
0000
0000
1000
0000
0000
0000
0000
0000
0000
0000
0010
0000
0000
1000
0000
0000
0000
0000
,  // measure 3
0001
0000
0000
0000
0000
0000
0000
0000
0010
0000
0000
0100
0000
0000
0000
0000
1000
0000
0000
0010
0000
0000
0001
0000
0010
0000
0000
2000
0000
0000
0000
0000
,  // measure 4
0000
3000
0000
0000
0001
0000
0000
0000
0100
0000
0000
0010
0000
0000
0100
0000
0000
0010
0000
0000
1000
0000
0000
0000
0001
0000
0000
0000
0010
0000
0000
0010
,  // measure 5
0000
0010
0000
0000
0100
0000
1000
0010
1000
0000
0000
0000
1000
0010
1000
0000
,  // measure 6
1010
0000
0000
0000
1000
0000
0001
0000
0100
0000
0000
0010
0000
0000
1000
0000
,  // measure 7
0200
0000
0010
0300
0110
0000
0100
1000
,  // measure 8
0002
0000
0000
0103
0001
2000
0000
0010
,  // measure 9
0000
0000
3010
0000
1000
0000
0000
0000
1001
0000
0000
0000
0001
1000
0001
0000
,  // measure 10
0100
0000
0000
0000
0010
0000
0100
0000
0001
0000
0000
0010
0000
0000
0100
0000
,  // measure 11
2000
0000
0010
3000
1010
0000
1000
0001
,  // measure 12
0020
0000
0000
0130
1000
0020
0000
0100
,  // measure 13
0000
0000
0130
0000
0010
0000
1000
0000
0001
0000
0000
0000
0010
0100
0010
0000
,  // measure 14
0220
0000
0000
0000
0000
0000
0000
0330
,  // measure 15
1001
0000
0000
0000
1000
0000
0000
1000
0000
0000
1000
0000
0000
0000
0001
0000
,  // measure 16
0100
0010
1000
0000
0100
0000
1000
0100
,  // measure 17
0010
0000
0000
0000
0001
0000
0000
0001
0000
0000
0001
0000
0000
0000
1000
0000
,  // measure 18
0010
0100
0010
0000
0100
0000
0000
0000
0001
0000
0000
0000
1000
0000
0001
0000
,  // measure 19
0100
0000
0000
0000
0010
0000
0000
0010
0000
0000
0010
0000
0100
0000
0001
0000
,  // measure 20
1000
0100
0010
0000
0100
0000
1000
0001
,  // measure 21
0100
0000
0001
0000
0010
0000
0000
0001
0000
0000
1000
0000
0000
0010
1000
0000
,  // measure 22
0001
0000
0100
0001
1000
0000
0100
0000
,  // measure 23
1010
0000
1000
0000
0001
0000
0010
0000
0100
0010
0001
0000
1000
0000
0010
1000
,  // measure 24
0001
0000
0100
0000
0010
0000
0100
0000
0001
0010
0100
0000
1000
0000
0001
0000
,  // measure 25
1000
0010
0100
0010
1000
0010
0100
0010
,  // measure 26
1000
0100
0001
0100
1000
0100
0001
0100
,  // measure 27
1000
0000
0001
0000
0100
0000
0001
0010
0000
0010
0100
0000
1000
0000
0000
0000
,  // measure 28
0002
0000
0000
0000
0003
0001
1000
0000
1001
0000
0001
0000
0100
0000
0000
0100
,  // measure 29
0000
0000
0100
0000
0010
0000
1000
0010
1000
0000
0100
0000
0010
0000
0000
0010
,  // measure 30
0000
0000
0010
0000
0001
0010
0001
0000
1000
0000
0010
0000
0100
0000
0000
0100
,  // measure 31
0000
0000
0100
0000
0001
1000
0001
0000
0010
0000
0100
0000
1000
0000
0000
1000
,  // measure 32
0000
0000
1000
0000
0001
0000
0000
0000
0010
0000
0001
0000
1000
0000
0000
1000
,  // measure 33
0000
0000
1000
0000
0100
0000
0010
0001
0010
0000
0100
0000
1000
0000
0000
1000
,  // measure 34
0000
0000
1000
0000
0001
0100
0001
0000
0010
0000
0100
0000
0010
0000
0000
0010
,  // measure 35
0000
0000
0010
0000
0001
0100
0001
0000
1000
0000
0000
0001
0100
0001
0100
0000
,  // measure 36
0002
0000
0000
0000
1003
0000
0000
0100
1000
0000
0001
0000
0100
0000
0001
0000
,  // measure 37
1000
0000
0100
0000
0010
0000
0000
0001
0100
0000
0001
0000
1000
0000
0010
0000
,  // measure 38
0100
0000
0001
0000
0010
0000
0000
0100
0010
0000
0100
0000
1000
0000
0001
0000
,  // measure 39
0010
0001
0010
0001
0010
0000
0100
0000
1000
0000
0001
0000
0200
0000
0000
0000
,  // measure 40
0301
0000
1000
0000
0100
0000
0000
1000
0001
0000
1000
0000
0010
0000
0001
0000
,  // measure 41
0010
0000
1000
0000
0001
0000
0000
0010
0100
0000
0010
0000
0001
0100
0001
0000
,  // measure 42
1000
0000
0100
0000
0010
0000
0000
0001
0100
0000
0001
0000
1000
0000
0010
0000
,  // measure 43
0100
0010
1000
0001
0010
0100
2000
0000
3001
0000
0000
0000
0000
0000
0000
0000
;

//---------------dance-single - ----------------
#NOTES:
     dance-single:
     X-Scale 5:
     Easy:
     3:
     0.229414,0.223379,0.028010,0.186733,0.000000,172.000000,169.000000,3.000000,20.000000,0.000000,0.000000,0.229414,0.223379,0.028010,0.186733,0.000000,172.000000,169.000000,3.000000,20.000000,0.000000,0.000000:
// measure 0
0000
0000
0000
0000
,  // measure 1
0000
0000
0000
0000
,  // measure 2
1000
0000
0000
0000
0001
0000
0000
1000
,  // measure 3
0100
0000
1000
0001
,  // measure 4
0100
0000
0000
0000
0001
0000
0000
0010
,  // measure 5
0100
0000
1000
0010
,  // measure 6
1000
0000
0000
0000
0100
0000
0000
0010
,  // measure 7
0001
0000
1000
0001
1000
0000
0010
0000
,  // measure 8
0200
0000
0000
0000
0301
0002
0000
1000
,  // measure 9
0000
1003
0001
0100
0001
0000
0010
0000
,  // measure 10
0100
0000
0000
0000
1000
0000
0000
0001
,  // measure 11
0000
1000
0010
0100
0001
0000
1000
0000
,  // measure 12
0200
0000
0000
0000
0310
0020
0000
0001
,  // measure 13
0000
0031
0010
0001
1000
0000
0010
0000
,  // measure 14
1010
0000
0000
0000
,  // measure 15
1001
0000
0001
0000
0000
1000
0000
0000
,  // measure 16
0001
0010
0200
0000
0320
0000
0032
0000
,  // measure 17
1003
0000
0010
0000
0000
1000
0000
0000
,  // measure 18
0001
1000
0002
0000
0023
0000
0230
0000
,  // measure 19
1300
0000
0100
0000
0000
1000
0000
0000
,  // measure 20
0001
1000
0200
0000
2300
0000
3020
0000
,  // measure 21
0130
0000
0001
0000
0000
0010
0000
0000
,  // measure 22
0001
0010
0200
0000
0320
0000
0032
0000
,  // measure 23
1003
0000
0001
0000
1000
0010
1000
0000
,  // measure 24
0100
0000
0010
0000
0001
0100
0001
0000
,  // measure 25
0010
0100
1000
0001
,  // measure 26
0100
0001
1000
0100
,  // measure 27
0010
0100
1000
0001
,  // measure 28
1000
0000
1001
1000
,  // measure 29
0010
1000
0001
0100
,  // measure 30
0001
0010
0100
0010
,  // measure 31
0001
1000
0010
1000
,  // measure 32
0001
2000
3100
1000
,  // measure 33
0001
0100
0001
0010
,  // measure 34
0100
0010
0001
1000
,  // measure 35
0010
0000
1000
0000
0001
0000
1000
0200
,  // measure 36
0000
0310
0100
1000
,  // measure 37
0001
0100
0001
0000
0010
0000
0100
0010
,  // measure 38
0001
1000
0001
0010
,  // measure 39
0100
1000
0001
0000
0100
0000
0020
0000
,  // measure 40
1030
0010
1000
0001
,  // measure 41
0100
0001
1000
0000
0100
0000
1000
0000
,  // measure 42
0001
0010
0100
0010
,  // measure 43
0001
1000
0001
0020
0130
0000
0000
0000
;

//---------------dance-single - ----------------
#NOTES:
     dance-single:
     X-Scale 1:
     Beginner:
     1:
     0.104037,0.121843,0.037347,0.000000,0.000000,78.000000,74.000000,4.000000,0.000000,0.000000,0.000000,0.104037,0.121843,0.037347,0.000000,0.000000,78.000000,74.000000,4.000000,0.000000,0.000000,0.000000:
// measure 0
0000
0000
0000
0000
,  // measure 1
0000
0000
0000
0000
,  // measure 2
0001
0000
1000
0000
,  // measure 3
0100
0000
0010
0000
,  // measure 4
0001
0000
0100
0000
,  // measure 5
0010
0000
1000
0000
,  // measure 6
0001
0000
1000
0000
,  // measure 7
0000
0000
0100
0000
,  // measure 8
0010
0000
0001
0000
,  // measure 9
0000
0000
1000
0000
,  // measure 10
0010
0000
1000
0000
,  // measure 11
0000
0000
0001
0000
,  // measure 12
0100
0000
0001
0000
,  // measure 13
0000
0000
0000
0000
,  // measure 14
1001
0000
0000
0000
,  // measure 15
0110
0000
0000
0000
,  // measure 16
0100
0000
1000
0000
,  // measure 17
0001
0000
0000
0000
,  // measure 18
0100
0000
0001
0000
,  // measure 19
1000
0000
0000
0000
,  // measure 20
0100
0000
0010
0000
,  // measure 21
0001
0000
0000
0000
,  // measure 22
0010
0000
0100
0000
,  // measure 23
1000
0000
0001
0000
,  // measure 24
1000
0000
0001
0000
,  // measure 25
0010
0000
0100
0000
,  // measure 26
1000
0000
0001
0000
,  // measure 27
0010
0000
0001
0000
,  // measure 28
1000
0000
1001
0000
,  // measure 29
1000
0000
0100
0000
,  // measure 30
1000
0000
0001
0000
,  // measure 31
0010
0000
0001
0000
,  // measure 32
1000
0000
0010
0000
,  // measure 33
1000
0000
0001
0000
,  // measure 34
0010
0000
0100
0000
,  // measure 35
0010
0000
0001
0000
,  // measure 36
1000
0000
0100
0000
,  // measure 37
1000
0000
0001
0000
,  // measure 38
0100
0000
0001
0000
,  // measure 39
0010
0000
0100
0000
,  // measure 40
1000
0000
0010
0000
,  // measure 41
1000
0000
0001
0000
,  // measure 42
0100
0000
0001
0000
,  // measure 43
1000
0000
1001
0000
;
