#VERSION:0.83;
#TITLE:하루하루;
#SUBTITLE:;
#ARTIST:BIGBANG;
#TITLETRANSLIT:Haru Haru;
#SUBTITLETRANSLIT:;
#ARTISTTRANSLIT:;
#GENRE:K-Hip-Hop;
#ORIGIN:;
#CREDIT:;
#BANNER:Haru Haru-bn.png;
#BACKGROUND:Haru Haru-bg.png;
#PREVIEWVID:;
#JACKET:Haru Haru-jacket.png;
#CDIMAGE:;
#DISCIMAGE:;
#LYRICSPATH:;
#CDTITLE:cdtitle.png;
#MUSIC:Haru Haru.ogg;
#OFFSET:-0.237000;
#SAMPLESTART:76.427002;
#SAMPLELENGTH:15.238000;
#SELECTABLE:YES;
#DISPLAYBPM:63.000000:126.000000;
#BPMS:0.000=63.000,
33.000=126.000,
93.000=63.000,
111.000=126.000,
175.000=63.000;
#STOPS:;
#DELAYS:;
#WARPS:;
#TIMESIGNATURES:0.000=4=4;
#TICKCOUNTS:0.000=4;
#COMBOS:0.000=1;
#SPEEDS:0.000=1.000=0.000=0;
#SCROLLS:0.000=1.000;
#FAKES:;
#LABELS:0.000=Song Start;
#BGCHANGES:-0.437=Haru Haru.avi=1.000=1=0=0=StretchNoLoop==CrossFade==,
99999=-nosongbg-=1.000=0=0=0 // don't automatically add -songbackground-
;
#KEYSOUNDS:;
#ATTACKS:
;

//---------------dance-single - ----------------
#NOTEDATA:;
#CHARTNAME:X-Scale 12;
#STEPSTYPE:dance-single;
#DESCRIPTION:;
#CHARTSTYLE:;
#DIFFICULTY:Hard;
#METER:8;
#RADARVALUES:0.478234,0.616288,0.129066,0.169399,0.447696,415.000000,399.000000,16.000000,21.000000,0.000000,0.000000,0.000000,0.000000,0.000000,0.478234,0.616288,0.129066,0.169399,0.447696,415.000000,399.000000,16.000000,21.000000,0.000000,0.000000,0.000000,0.000000,0.000000;
#CREDIT:iamthek3n;
#DISPLAYBPM:63.000000:126.000000;
#NOTES:
// measure 0
0000
0000
0000
0000
,  // measure 1
0000
0000
0000
0000
,  // measure 2
0000
0000
0000
0000
,  // measure 3
0000
0000
0000
0000
,  // measure 4
0000
0000
0000
0000
1000
0100
0010
0001
1000
0010
0100
0001
0010
0100
1000
0000
,  // measure 5
1000
0001
0100
0001
0000
0010
0001
1000
0000
0010
1000
0001
0000
0010
0001
1000
,  // measure 6
0100
0001
0100
0010
0001
1000
0010
0001
0010
0100
0010
1000
0001
0010
1000
0010
,  // measure 7
0001
0000
1000
0100
0010
0100
1000
0001
0100
0010
1000
0100
1000
0000
1000
0100
,  // measure 8
0001
0100
0010
0001
1001
0000
0000
0000
0010
0000
1000
0000
0001
0000
1000
0000
,  // measure 9
0100
0010
0001
0000
1000
0010
0001
1000
,  // measure 10
0100
0000
0001
0000
1000
0000
0010
1000
0010
1000
0000
0001
0100
0001
1000
0000
,  // measure 11
0100
0000
0010
0000
0001
0000
1000
0100
1000
0001
0000
0010
0100
0010
0100
0000
,  // measure 12
1000
0010
0002
0013
0200
0310
2000
0000
,  // measure 13
3001
0100
0010
1000
0100
0020
0000
0032
,  // measure 14
0000
0000
0013
0000
0001
1000
0000
0100
1000
0010
0100
0000
0001
1000
0000
0100
,  // measure 15
0010
0002
1000
0000
0103
0001
2000
0000
,  // measure 16
3010
0000
0000
0000
1001
0000
0000
0100
1000
0000
0010
0000
1000
0000
0000
0001
,  // measure 17
0100
0001
1000
0010
0100
0010
0002
0000
,  // measure 18
0023
0000
0000
0000
1030
0000
1000
0000
0100
0000
1000
0000
0001
0100
0001
0010
,  // measure 19
0000
0100
1000
0000
0010
1000
0001
0000
0100
0000
0010
0000
0002
0000
0000
0000
,  // measure 20
0023
0000
0000
0000
1030
0000
0000
0001
0100
0000
0010
0000
0100
0000
0001
0000
,  // measure 21
0010
0000
0100
0000
1000
0000
0000
0001
1000
0000
0100
0000
0020
0000
0000
0000
,  // measure 22
0032
0000
0000
0000
0103
0000
0010
0000
0100
0000
0001
0000
1000
0001
0100
0001
,  // measure 23
0000
1000
0010
0000
2010
0000
0000
0000
0000
0000
3000
0000
1100
0000
1000
0100
,  // measure 24
1000
0001
0100
0001
0000
0010
0100
0000
1000
0000
0001
0000
1000
0100
0001
1000
,  // measure 25
0010
0001
0100
0001
0000
0000
1000
0000
0010
0000
0100
0000
0001
0000
0100
0010
,  // measure 26
1000
0001
0010
0100
0000
1000
0100
1000
0001
0000
0010
0100
1100
0000
1000
0001
,  // measure 27
1001
0000
0000
0011
0000
0001
1000
0001
0010
1000
0010
0100
1000
0000
0000
0100
,  // measure 28
1000
0000
0001
0000
0100
0000
1000
0000
0100
0000
0001
0000
1000
0000
0000
0001
,  // measure 29
0010
0001
1000
0000
0100
0000
0010
0000
1000
0000
0010
0000
0001
0000
0000
0100
,  // measure 30
0010
0000
0100
0000
0001
0000
1000
0000
0001
0000
0010
0000
0100
0000
0000
1000
,  // measure 31
0100
1000
0001
0000
0100
0000
0010
0000
1000
0000
0100
0000
0010
0000
0000
0100
,  // measure 32
1000
0000
0001
0000
1000
0000
0010
0000
0100
0000
0001
0000
0010
0000
0000
0001
,  // measure 33
0010
0001
1000
0000
0100
0000
0001
0000
0100
0000
0010
0000
0001
0000
1000
0000
,  // measure 34
0010
0100
0001
0010
0100
2000
3000
2000
,  // measure 35
3010
0000
1000
1000
0001
0001
1001
0000
,  // measure 36
1010
0000
0000
0000
0011
0000
0000
0001
0010
0000
0100
0000
1000
0000
0010
0000
,  // measure 37
0001
0010
1000
1000
0100
0100
1100
0000
,  // measure 38
1001
0000
0000
0000
0101
0000
0000
0100
0001
0000
0001
0000
0010
0000
0100
0000
,  // measure 39
0100
1000
0001
0100
0010
0010
0101
0000
,  // measure 40
1001
0000
0000
0000
1100
0000
0000
0100
1000
0000
0001
0000
0100
0000
0010
0100
,  // measure 41
0010
0000
1000
0000
0100
0000
0000
0010
0001
0000
1000
0000
0010
0000
0100
0010
,  // measure 42
0100
0001
0010
1000
0010
0200
1300
0200
,  // measure 43
0301
0000
0200
0000
0310
0000
0200
0000
1000
0000
1000
0000
1300
0000
0100
0010
,  // measure 44
0001
1000
0010
0100
0000
0001
1000
0001
0010
0000
0010
0000
1000
0001
0100
0010
,  // measure 45
1000
0001
0010
0100
0000
1000
0001
1000
0100
0000
0100
0000
0001
0010
0100
1000
,  // measure 46
0010
0001
0010
1000
0000
0100
1000
0001
0100
0000
0100
0000
1000
0000
0100
1000
,  // measure 47
0001
0000
0100
0000
0010
0000
1000
0000
0000
0000
0000
0000
0000
0001
0000
0100
0000
0002
0000
0000
0000
0000
0000
0000
0003
0000
0000
0000
0000
0000
0000
0000
;

//---------------dance-single - ----------------
#NOTEDATA:;
#CHARTNAME:X-Scale 9;
#STEPSTYPE:dance-single;
#DESCRIPTION:;
#CHARTSTYLE:;
#DIFFICULTY:Medium;
#METER:6;
#RADARVALUES:0.353778,0.421757,0.169399,0.338797,0.181498,307.000000,286.000000,21.000000,42.000000,0.000000,0.000000,0.000000,0.000000,0.000000,0.353778,0.421757,0.169399,0.338797,0.181498,307.000000,286.000000,21.000000,42.000000,0.000000,0.000000,0.000000,0.000000,0.000000;
#CREDIT:iamthek3n;
#DISPLAYBPM:63.000000:126.000000;
#NOTES:
0000
0000
0000
0000
,
0000
0000
0000
0000
,
0000
0000
0000
0000
,
0000
0000
0000
0000
,
0000
0000
0000
0000
0200
0000
0000
0000
1000
0300
0100
0000
2000
0000
3000
0000
,
0000
0000
0002
0000
0000
0000
0003
0000
0000
0002
0000
0000
0000
0003
0000
0000
1000
0000
0000
0000
0001
0000
0000
0000
0010
0000
0000
0000
0001
0000
0000
0000
,
1000
0001
0100
0001
2000
0000
0000
0000
3100
0000
0010
0000
0200
0000
1300
0000
,
0020
0000
0130
0001
0200
0000
0300
0002
0003
0000
0000
1000
1100
0000
0101
0000
,
0110
0000
1000
1000
1001
0000
0000
0000
0001
0000
0000
0000
0100
0000
0010
0000
,
1000
0100
0010
0000
0001
0000
0010
0100
,
1000
0001
0100
0000
0101
0000
0001
0000
,
1001
0000
1000
0000
1100
0100
0010
0001
,
1000
0001
0200
0000
0320
0000
0032
0000
,
0013
1000
0100
0010
0001
2000
0000
3020
,
0000
0130
0000
0100
0001
0010
0000
0010
,
0100
1000
0000
1000
0001
0100
0020
0000
,
1030
0000
0000
0000
1010
0000
0000
1000
0000
0000
0001
0000
0010
0000
0000
0100
,
0000
1000
0010
0001
1000
0100
0002
0000
,
2003
0000
0000
0000
3100
0000
0000
1000
0000
0000
0001
0000
0100
0000
0000
0001
,
0000
0010
0100
0010
0001
1000
0020
0000
,
2030
0000
0000
0000
3100
0000
0000
1000
0000
0000
0001
0000
0100
0000
0000
0001
,
0000
1000
0100
0001
0100
0010
0002
0000
,
0023
0000
0000
0000
0130
0000
0000
1000
0000
0000
0001
0000
0010
0000
0000
0001
,
0000
0000
1000
0000
1001
0000
0000
0000
0000
0000
0000
0000
1100
0000
1000
0100
,
1000
0000
0001
0020
0000
0000
0130
0000
0010
0000
0001
0000
1000
0000
0010
0000
,
1000
0001
0100
0002
0000
0000
0013
0000
0100
0000
1000
0000
0010
0000
0100
0000
,
0001
1000
0010
0100
0000
0010
0100
0001
0010
0000
0100
0000
1100
0000
0000
0000
,
1001
0000
0000
2001
0000
0000
0200
0000
0000
0000
0000
3300
1200
0000
0000
0000
,
0310
0100
1000
0001
0100
0002
0010
0000
,
1003
0010
0001
0010
0100
0010
2000
0000
,
3100
1000
0001
0100
0010
0200
0000
0302
,
0100
0003
0001
0010
1000
0010
0002
0000
,
0103
0001
1000
0100
0010
0002
0000
2003
,
0000
3002
0000
0003
0101
0000
0001
0100
,
0010
1000
0100
0010
0100
2000
0000
3002
,
0100
0000
0003
0000
0001
0000
1000
0000
0001
0000
1000
0000
1001
0000
0000
0001
,
0100
0000
0001
0000
0010
0000
0000
0100
1000
0000
0001
0000
0100
0000
1000
0000
,
0100
0000
0010
0000
0200
0000
0000
0000
0001
0000
0301
0000
0101
0000
0000
0001
,
1000
0000
0100
0000
1000
0000
0000
0100
0010
0000
0001
0000
2000
0000
0000
0000
,
3002
0000
0000
0000
0203
0000
0000
0000
0320
0000
0100
0000
0130
0000
0000
0010
,
0100
0000
0001
0000
0010
0000
0000
0100
1000
0000
0001
0000
0100
0000
0020
0000
,
0001
0000
0000
0000
1030
0000
0000
0010
0000
0000
1000
0000
0000
0000
0010
0000
,
0000
0100
0001
0010
0100
1000
0010
0001
,
0010
1000
0010
0001
0010
1000
0001
0000
,
0100
0000
0000
0101
0000
0000
0000
0001
1000
0000
1000
0000
0100
0000
0000
0010
,
0001
0000
0000
0011
0000
0000
0010
0100
1000
0000
1000
0000
0001
0000
0000
0100
,
0010
0000
0000
0110
0000
0000
0000
0100
0001
0000
0001
0000
0010
0000
0000
0001
,
1000
0000
0000
0000
0000
0000
1001
0000
0000
0000
0000
0000
0000
1000
0000
0010
0000
1000
0000
0000
0000
0000
0000
0000
0000
0000
0000
0000
0000
0000
0000
0000
;

//---------------dance-single - ----------------
#NOTEDATA:;
#CHARTNAME:X-Scale 5;
#STEPSTYPE:dance-single;
#DESCRIPTION:;
#CHARTSTYLE:;
#DIFFICULTY:Easy;
#METER:3;
#RADARVALUES:0.217798,0.250367,0.048400,0.201665,0.008067,189.000000,183.000000,6.000000,25.000000,0.000000,0.000000,0.000000,0.000000,0.000000,0.217798,0.250367,0.048400,0.201665,0.008067,189.000000,183.000000,6.000000,25.000000,0.000000,0.000000,0.000000,0.000000,0.000000;
#CREDIT:iamthek3n;
#DISPLAYBPM:63.000000:126.000000;
#NOTES:
0000
0000
0000
0000
,
0000
0000
0000
0000
,
0000
0000
0000
0000
,
0000
0000
0000
0000
,
0000
1000
0001
0100
,
0001
0000
0000
1000
0000
0100
0000
1000
,
0000
0100
0010
0001
,
1000
0000
0001
0000
0100
0000
0001
0001
,
1000
1000
1001
0000
1000
0000
0010
0000
,
1000
0001
0010
0000
0001
0000
0100
0000
,
0010
0100
0001
0000
1000
0000
0100
0000
,
0010
0100
1000
0000
0001
0000
0100
0000
,
0001
0010
0100
0000
0010
0000
0001
0000
,
1000
0000
0010
1000
0001
0100
0000
0001
,
0000
0001
0000
1000
0000
1000
0000
0001
,
0000
0001
0000
0100
0010
0100
0002
0000
,
0013
1001
1000
0010
,
1000
0100
1000
0000
0001
0000
0100
0000
,
0001
1000
0001
0000
0010
0200
0000
0000
,
1300
0200
0000
0000
0310
0100
2000
0000
,
3002
0103
0001
1000
,
0010
1000
0001
0000
0100
0000
0001
0000
,
0010
0100
1000
0000
0001
0000
0100
0000
,
0001
1000
0001
0000
0000
0000
0010
0000
,
0000
0100
0000
1000
,
0000
0001
0000
1000
,
0000
0100
0000
1100
,
2000
0000
0000
0002
0000
0000
0000
0000
0000
0000
0000
3003
1001
0000
0000
0000
,
0010
1000
0001
0100
,
0001
0000
0010
0000
0100
0010
0001
0000
,
1000
0010
0100
0001
,
0010
0000
0100
0000
0010
0100
1000
0000
,
0001
0100
0001
1000
,
0100
0000
0010
0000
0001
1000
0001
0000
,
0100
0001
1000
0010
,
1000
0000
0001
0100
0001
0000
0201
0000
,
0302
0000
2003
0000
3100
2000
0000
0000
,
3001
0000
1000
0000
0100
0010
0002
0000
,
2003
0000
3020
0000
0130
0020
0000
0000
,
1030
0000
0010
0000
0100
0010
2000
0000
,
3002
0000
2003
0000
3100
0020
0000
0000
,
0031
0010
0100
1000
,
0010
1000
0010
0000
0100
0002
0003
0002
,
0003
2000
3000
2000
0000
3000
1001
0000
,
0000
0000
0000
0000
1000
0010
1000
0000
,
0000
0000
0000
0000
0001
0100
0001
0000
,
0000
0000
0000
0000
0010
0100
0010
0000
,
0002
0000
0000
2000
0000
0000
0000
0000
0000
0000
0000
0000
3003
0000
0000
0000
;

//---------------dance-single - ----------------
#NOTEDATA:;
#CHARTNAME:X-Scale 1;
#STEPSTYPE:dance-single;
#DESCRIPTION:;
#CHARTSTYLE:;
#DIFFICULTY:Beginner;
#METER:1;
#RADARVALUES:0.088733,0.131990,0.016133,0.000000,0.000000,77.000000,75.000000,2.000000,0.000000,0.000000,0.000000,0.000000,0.000000,0.000000,0.088733,0.131990,0.016133,0.000000,0.000000,77.000000,75.000000,2.000000,0.000000,0.000000,0.000000,0.000000,0.000000,0.000000;
#CREDIT:iamthek3n;
#DISPLAYBPM:63.000000:126.000000;
#NOTES:
0000
0000
0000
0000
,
0000
0000
0000
0000
,
0000
0000
0000
0000
,
0000
0000
0000
0000
,
0000
0001
0000
0000
,
0000
0000
0000
0000
,
0000
1000
0000
0000
,
0000
0000
0000
0001
,
1000
1001
0000
0001
,
0000
1000
0000
0100
,
0000
1000
0000
0001
,
0000
0100
0000
0001
,
0000
0010
0000
0100
,
0000
1000
0000
0010
,
0000
1000
0000
0100
,
0000
0010
0000
0001
,
0000
1000
0000
0010
,
0000
1000
0000
0001
,
0000
0100
0000
0001
,
0000
0010
0000
0100
,
0000
0010
0000
0001
,
0000
1000
0000
0100
,
0000
1000
0000
0001
,
0000
1000
0000
0010
,
0000
0000
0000
1000
,
0000
0000
0000
0001
,
0000
0000
0000
0100
,
0000
0000
0000
1001
,
0000
0001
0000
0100
,
0000
0001
0000
1000
,
0000
0001
0000
0100
,
0000
0001
0000
0010
,
0000
0100
0000
1000
,
0000
0001
0000
1000
,
0000
0100
0000
0010
,
0000
0001
0000
0100
,
0000
0010
0000
0100
,
0000
0001
0000
1000
,
0000
0010
0000
0100
,
0000
0010
0000
1000
,
0000
0001
0000
0010
,
0000
0001
0000
1000
,
0000
0100
0000
0010
,
0000
0100
0000
1000
,
0000
0000
0000
0001
,
0000
0000
0000
1000
,
0000
0000
0000
0001
;
